#TITLE:あ・え・い・う・え・お・あお!!;
#SUBTITLE:;
#ARTIST:劇団ひととせ;
#TITLETRANSLIT:A. E. I. U. E. O. AO!!;
#SUBTITLETRANSLIT:;
#ARTISTTRANSLIT:Gekidan Hitotose;
#GENRE:;
#CREDIT:;
#BANNER:[Round A] - A. E. I. U. E. O. AO!!.png;
#BACKGROUND:[Round A] - A. E. I. U. E. O. AO!!-bg.png;
#LYRICSPATH:;
#CDTITLE:;
#MUSIC:[Round A] - A. E. I. U. E. O. AO!!.ogg;
#OFFSET:-0.147000;
#SAMPLESTART:53.526001;
#SAMPLELENGTH:15.000000;
#SELECTABLE:YES;
#BPMS:0.000000=145.000000
;
#STOPS:
;
#BGCHANGES:0.000=[Round A] - A. E. I. U. E. O. AO!!.avi=1.000=0=0=0=StretchNoLoop==CrossFade_Fastest==,
99999=-nosongbg-=1.000=0=0=0 // don't automatically add -songbackground-
;
#KEYSOUNDS:;
#ATTACKS:;

//---------------dance-single - ----------------
#NOTES:
     dance-single:
     :
     Challenge:
     9:
     0.731971,0.776384,0.223259,0.346052,0.781407,459.000000,439.000000,20.000000,31.000000,0.000000,0.000000,0.731971,0.776384,0.223259,0.346052,0.781407,459.000000,439.000000,20.000000,31.000000,0.000000,0.000000:
// measure 0
0000
0000
0000
0000
,  // measure 1
0000
0000
0000
0000
,  // measure 2
2002
0000
0000
3003
,  // measure 3
0202
0303
0220
0330
,  // measure 4
1000
0000
0100
0000
1000
0001
0000
0001
0010
0000
1000
0000
0010
0000
0001
0000
,  // measure 5
0011
0000
0001
0000
1000
0001
0000
0100
0010
0000
1000
0100
0000
1000
0001
0000
,  // measure 6
0010
0001
0000
0100
0001
1000
0000
0100
1000
0010
0100
0001
0010
0001
0100
0010
,  // measure 7
0000
0000
0000
0000
0110
0000
0000
0000
0001
0100
0001
0000
1000
0100
1000
0000
,  // measure 8
0001
0000
0010
0100
0000
1000
0001
0000
1000
0010
1000
0000
0001
0010
0001
0000
,  // measure 9
0100
0000
0010
1000
0000
0001
0100
0000
0010
1000
0010
1000
0001
0000
0000
0000
,  // measure 10
0010
0001
0010
0001
1000
0000
0001
0100
0000
0010
1000
0000
0100
1000
0100
1000
,  // measure 11
0100
0010
0100
0010
0002
0000
0000
0000
1003
0000
0000
0000
0001
0000
0100
0010
,  // measure 12
0100
0001
0000
1000
0001
0000
1000
0100
0000
0000
0100
0000
0001
0000
0100
0000
,  // measure 13
0010
0100
0010
0100
1000
0000
0001
0100
0000
0000
0010
1000
0002
0000
0000
0010
,  // measure 14
0000
0000
0013
0100
1000
0000
0001
0000
1000
0000
0010
0000
0100
0000
0101
0000
,  // measure 15
0000
0000
1000
0000
0001
0100
0010
1000
0002
0000
0000
0013
0000
0000
0100
1000
,  // measure 16
0100
0000
0010
0000
0001
1000
0010
0000
0100
0000
0100
1000
0000
0000
0100
0001
,  // measure 17
1000
0000
0000
1010
0000
0000
0001
0010
0100
0000
0010
0000
0001
0000
1000
0000
,  // measure 18
0001
0101
1000
0001
0010
0100
1001
0000
,  // measure 19
2000
0000
0000
0000
3002
0000
0100
0000
0000
0000
0013
0000
0100
0000
0000
0100
,  // measure 20
2000
0000
0010
0000
0000
0000
3001
0000
0100
0000
0000
0100
0020
0000
0001
0000
,  // measure 21
0000
0000
1030
0000
0010
0000
0000
1000
0200
0000
0001
0000
0000
0000
1300
0000
,  // measure 22
0010
0000
0000
0000
1000
0001
1000
0000
0000
0000
0000
0000
0010
0000
0010
0000
,  // measure 23
0100
0000
0010
1000
0001
0000
0001
0000
0010
0000
0100
1000
0010
0000
0010
0000
,  // measure 24
0100
0000
0000
0000
0000
0000
0001
0000
0000
0010
0000
0000
0100
0000
0000
0000
0000
0000
0100
0000
0000
0000
0000
0000
0001
0000
0000
0000
0000
0000
0100
0000
0000
1000
0000
0000
0001
0000
0000
0000
0010
0000
0000
0000
0100
0000
0000
0000
,  // measure 25
1000
0010
0100
0001
0000
0000
1000
0010
0100
0001
0010
0100
,  // measure 26
1000
0000
0000
0000
1001
0000
0001
0010
0001
0000
0010
0100
0010
0000
0001
0000
,  // measure 27
0100
0000
0010
0000
1001
0000
1000
0010
1000
0000
0010
0100
0010
0000
1000
0000
,  // measure 28
0100
0000
0010
0000
0002
0000
1000
0000
2003
0001
0000
0000
3001
0000
0002
1000
,  // measure 29
0000
1003
0020
0100
0000
0031
0020
0100
,  // measure 30
0030
0000
1000
0000
0001
0100
0001
0000
0010
0000
0100
0000
2000
0000
0001
0000
,  // measure 31
0001
3001
0101
0110
1010
1001
0011
0110
,  // measure 32
1000
0001
0000
0000
0010
0000
0100
0000
0100
1000
0001
0100
0001
0010
0000
0100
,  // measure 33
1000
0000
0001
0000
0100
0000
1000
0000
0100
0010
0000
0100
0002
0000
0013
0000
,  // measure 34
1001
0000
0000
0000
0001
0000
1000
0000
0100
1000
0000
1000
0010
0000
0001
0000
,  // measure 35
0010
0000
0100
0000
0001
0000
1000
0000
0001
0010
0000
0100
0010
0000
0000
0000
,  // measure 36
0001
0000
1000
0010
1000
0000
1000
0000
0100
0000
0001
0100
1000
0000
0010
0000
,  // measure 37
0100
0000
0001
0010
0100
0000
1000
0000
0010
0100
0000
0001
0020
0000
0130
0000
,  // measure 38
1001
0000
0000
0000
1000
0100
1000
0100
0010
0000
0001
0100
0001
0100
0010
0000
,  // measure 39
0100
0000
0100
0000
0010
1000
0010
1000
0100
0000
0010
0001
0010
0001
0100
0000
,  // measure 40
0010
1000
0002
0010
2003
0010
3002
0100
,  // measure 41
2003
0100
3020
0000
0100
0000
0130
0000
,  // measure 42
1000
0100
0010
0001
0000
0000
0000
0000
0100
0001
1000
0100
0000
0000
0000
0000
,  // measure 43
0010
0100
0000
0010
0001
0100
0000
0100
0010
0000
0010
1000
0000
0001
0010
0100
,  // measure 44
1000
0000
0100
0010
0001
0100
0010
1000
0001
0100
0001
0020
0000
0000
0000
0000
,  // measure 45
0130
0000
0000
0000
1000
0100
1000
0000
1000
0010
1000
0000
0010
0000
0100
0001
,  // measure 46
0000
1000
0001
0000
0001
0100
0001
0000
0001
0010
0001
0000
1000
0000
0001
0010
,  // measure 47
0000
0100
1000
0000
0010
1000
0001
1000
0010
0000
0000
0000
0100
0001
1000
0001
,  // measure 48
0010
0000
0100
1000
0000
1000
0001
0000
0010
0001
0010
0001
0010
0100
0010
0100
,  // measure 49
2000
0000
0000
3010
0000
0000
0100
0001
0100
1000
0100
0001
,  // measure 50
0010
0000
0000
0100
1000
0100
0001
0100
1000
0010
0000
0000
,  // measure 51
2002
0000
0000
0000
,  // measure 52
0000
0000
0000
0000
,  // measure 53
0000
0000
3003
0000
;

//---------------dance-single - ----------------
#NOTES:
     dance-single:
     :
     Hard:
     8:
     0.585258,0.686801,0.212096,0.267911,0.385122,367.000000,348.000000,19.000000,24.000000,0.000000,0.000000,0.585258,0.686801,0.212096,0.267911,0.385122,367.000000,348.000000,19.000000,24.000000,0.000000,0.000000:
0000
0000
0000
0000
,
0000
0000
0000
0000
,
2002
0000
0000
3003
,
2200
3300
0202
0303
,
2100
0100
0001
3010
,
1010
0000
0000
0000
0101
0000
0000
0000
1100
0000
0000
0101
0000
0000
0011
0000
,
0000
1010
0000
0000
0101
0000
0000
0001
1000
0100
1000
0100
1000
0001
1000
0002
,
0000
0000
0103
0000
0001
0100
0010
1000
,
0001
0000
0000
0010
0000
0000
0100
0000
1000
0000
0100
0000
0010
0000
0001
0000
,
0100
0000
0000
0010
0000
0000
1000
0000
0001
0000
0010
0000
0100
0000
0000
0000
,
0010
0000
0010
0000
0001
0000
0000
1000
0000
0000
0010
0000
0100
0000
0001
0000
,
1000
0001
0020
0000
0130
0000
1000
0100
,
1000
0100
0010
0001
0010
0001
1000
0010
,
1000
0000
0010
0000
0100
0000
0010
0000
0100
0000
0010
0000
1000
0000
0000
1000
,
0000
0001
1000
0100
0010
0001
0100
0100
,
0010
1000
0010
1000
0001
0010
0001
0010
,
1000
0010
1000
0010
0100
0010
0100
0010
,
0001
0000
0000
0001
0000
0000
0100
0000
1000
0000
0100
0000
0001
0000
1000
0000
,
0010
0010
0100
0001
1000
0100
0010
0000
,
0001
0000
1000
0010
1000
0010
0100
0000
,
0001
0010
0001
0010
0100
0000
1000
0100
,
1000
0100
0001
0000
0100
1000
0100
1000
,
0010
0000
0000
0000
1000
0001
1000
0000
0000
0000
0000
0000
0001
0000
0100
0000
,
0010
0000
0000
0010
1000
0000
0001
0000
0010
0000
0000
0010
0100
0000
1000
0000
,
0001
0000
0000
0000
0000
0000
0000
0000
0000
0001
0000
0000
0100
0000
0000
0000
0000
0000
1000
0000
0000
0000
0000
0000
0100
0000
0000
0000
0000
0000
0000
0000
0000
0100
0000
0000
0001
0000
0000
0000
1000
0000
0000
0000
0001
0000
0000
0000
,
1000
0001
1000
0100
0000
0000
1000
0001
1000
0001
1000
0001
,
0010
0000
0001
1000
1000
0010
0010
0100
,
0001
0010
0100
0010
0010
0001
0001
1000
,
0001
0000
0100
0000
0010
0000
1000
0000
1000
0001
0000
0000
0001
0000
0001
1000
,
0000
0010
0100
0100
0001
0010
0100
0100
,
1000
0000
0001
0000
1000
0100
1000
0000
0100
0000
0010
0000
0002
0000
0000
0000
,
1003
0000
0101
0100
0110
0010
1010
1000
,
0001
1000
0000
0000
2000
0000
0000
0000
3010
0000
1000
0000
0001
0010
0000
0001
,
0000
0000
0010
0000
0100
0000
1000
0000
0100
0010
0000
0002
0000
0000
0000
0000
,
1003
0000
0000
0000
0001
0000
0100
0000
0010
1000
0000
1000
0001
0000
0010
0000
,
0100
0000
0010
0000
0001
0000
1000
0000
0001
0100
0000
0010
2000
0000
0000
0000
,
3000
0000
0001
0000
0020
0000
0000
0000
0130
0000
0010
0001
0010
0000
0100
0000
,
1000
0000
0001
1000
0001
0000
0100
0000
0010
1000
0000
0002
0000
0000
0000
0000
,
0103
0000
0000
0000
0010
0000
1000
0010
1000
0000
0001
0000
1000
0100
1000
0000
,
0100
0000
0100
0000
0010
0000
0001
0010
0001
0000
1000
0000
0010
0100
0010
0000
,
0100
0001
2000
0000
3200
0000
0320
0000
,
0032
2003
0001
3001
,
1000
0001
0000
0001
0010
0000
0000
0000
0001
1000
0000
1000
0010
0000
0000
0000
,
0100
0001
0000
0001
1000
0000
0000
1100
0000
0000
0110
0000
0000
0011
0000
0000
,
1001
0000
0000
0001
0100
0001
0100
0001
1000
0001
1000
0020
0000
0000
0000
0000
,
0130
0000
0000
0000
0001
0000
0010
0000
1000
0000
0010
0000
0100
0000
0000
0010
,
0000
0000
0010
0000
0001
0000
0100
0000
1000
0000
0100
0000
0010
0000
0000
0100
,
0000
0001
1000
0100
0010
0000
0001
0100
,
0010
0000
0000
1000
0000
0000
1000
0000
0001
0000
0010
0000
0100
0000
1000
0000
,
0020
0000
0000
0031
0000
0000
0010
0100
0010
0100
0010
0100
,
0001
0000
0000
0010
0100
0010
0100
0010
0100
1000
0000
0000
,
2002
0000
0000
0000
,
0000
0000
0000
0000
,
0000
0000
3003
0000
;

//---------------dance-single - ----------------
#NOTES:
     dance-single:
     :
     Edit:
     1:
     0.065383,0.100676,0.055815,0.066978,0.078141,41.000000,36.000000,5.000000,6.000000,0.000000,0.000000,0.065383,0.100676,0.055815,0.066978,0.078141,41.000000,36.000000,5.000000,6.000000,0.000000,0.000000:
// measure 0
0000
0000
0000
0000
,  // measure 1
0000
0000
0000
0000
,  // measure 2
2002
0000
0000
3003
,  // measure 3
0202
0303
0220
0330
,  // measure 4
1000
0000
0100
0000
1000
0001
0000
0001
0010
0000
1000
0000
0010
0000
0001
0000
,  // measure 5
0101
0000
0100
0000
0110
0010
0000
1000
0001
0000
0010
0100
0000
1000
0010
0000
,  // measure 6
0100
1000
0000
0100
0010
1000
0000
0010
1000
0100
1000
0010
0100
0001
0010
0100
;

//---------------dance-single - ----------------
#NOTES:
     dance-single:
     :
     Medium:
     6:
     0.427382,0.464379,0.301400,0.368378,0.078141,268.000000,241.000000,27.000000,33.000000,0.000000,0.000000,0.427382,0.464379,0.301400,0.368378,0.078141,268.000000,241.000000,27.000000,33.000000,0.000000,0.000000:
0000
0000
0000
0000
,
0000
0000
0000
0000
,
0220
0000
0000
0330
,
2000
0000
3002
0000
,
0013
0110
0010
0110
,
1100
0000
0000
0000
0101
0000
0000
0000
1100
0000
0000
1000
0000
0000
0001
0000
,
0000
0001
0000
0000
0100
0000
0000
0000
0010
0000
1000
0000
0001
0000
0000
0100
,
0000
0000
0002
0203
,
0310
0000
0000
0010
0000
0000
0010
0000
2000
0000
0000
0000
3200
0000
0000
0000
,
0310
0000
0000
0010
0000
0000
0010
0000
0002
0000
0000
0000
1003
0000
0000
0000
,
0020
0000
0000
0000
0130
0000
0000
0100
0000
0000
0100
0000
0001
0000
0010
0000
,
0100
1000
0020
0000
0130
0000
0001
0000
,
0100
0000
0001
0100
0010
0000
1000
0000
,
0010
0000
0000
0000
1000
0000
0100
0000
0010
0000
0000
0000
0001
0000
0000
0001
,
0000
1000
0002
0000
0203
0000
0310
0010
,
1000
0000
1000
0000
1000
0100
0010
0000
,
0001
0000
0001
0000
0001
0100
0010
0000
,
1000
0000
0000
1000
0000
0000
0001
0000
0020
0000
0000
0000
0230
0000
0000
0000
,
1300
1000
0000
0000
0000
0001
1001
0000
,
0000
0000
0001
0100
0001
0000
0101
0000
,
1000
0100
1000
0000
1100
0000
0001
0010
,
0001
0000
0011
0000
1000
0010
1000
0000
,
1010
0000
0110
0000
0000
0000
0001
0100
,
0001
0000
0100
0010
0100
0000
0010
1000
,
0010
0000
1000
0001
1000
0000
0002
0000
,
0013
0011
2000
3100
,
1100
0000
0001
0100
0010
0000
1000
0001
,
0010
0000
0100
1000
0100
0000
0010
0001
,
0100
0000
0010
1000
0010
0000
0100
0001
,
1000
0000
0001
0001
0000
1000
0100
0100
,
0000
0000
0010
0001
0100
0010
2000
0000
,
3001
1001
0110
1001
,
0110
0000
1002
0000
0103
0000
0010
1000
,
0001
0000
0010
0100
1000
0100
0020
0000
,
0031
0000
1000
0000
0001
0000
0100
0010
,
1000
0000
0001
0100
0010
1000
0002
0000
,
1003
0000
2001
0000
3100
0000
0010
0001
,
1000
0000
0001
0100
0010
0100
0002
0000
,
1003
0000
0001
0010
0001
1000
0010
1000
,
0000
0000
0001
0100
0001
1000
0100
1000
,
0000
0002
0023
0230
,
2300
3002
0000
0000
,
0103
0110
1000
1001
,
0100
0000
0000
0000
0110
0000
0000
0001
0000
0000
1000
0000
0000
0001
0000
0000
,
0100
0000
0000
0000
0010
0000
1000
0000
0100
0000
0000
0110
0000
0000
0000
0000
,
0000
0000
0000
0000
1000
0000
0100
0000
0010
0000
0000
0000
0001
0000
0000
0001
,
0000
0000
1000
0000
0001
0000
0100
0000
0010
0000
0000
0000
1000
0000
0000
1000
,
0000
1000
0001
0010
0100
0000
1000
0100
,
0010
0000
0000
0010
0000
0000
0010
0000
0001
0000
0100
0000
0010
0000
1000
0000
,
0002
1003
2000
3010
,
1010
0002
0013
0011
,
2002
0000
0000
0000
,
3003
0000
0000
0000
;

//---------------dance-double - ----------------
#NOTES:
     dance-double:
     :
     Challenge:
     9:
     0.708050,0.776384,0.178607,0.279074,0.759081,444.000000,428.000000,16.000000,25.000000,0.000000,0.000000,0.708050,0.776384,0.178607,0.279074,0.759081,444.000000,428.000000,16.000000,25.000000,0.000000,0.000000:
00000000
00000000
00000000
00000000
,
00000000
00000000
00000000
00000000
,
20200000
00000000
00000000
00300000
,
02000000
30000000
00020000
03000000
,
00031000
00000000
00010000
00000000
00000100
00000010
00000000
00000001
00001000
00000000
00000010
00000000
00000100
00000000
00001000
00000000
,
00011000
00000000
00010000
00000000
01000000
00100000
00000000
00010000
10000000
00000000
10000000
00100000
00000000
01000000
00010000
00000000
,
00100000
00001000
00000000
00010000
00001000
00100000
00000000
00001000
00010000
00000100
00001000
00000100
00000010
00000001
00000010
00000200
,
00000000
00000000
00000000
00000000
00001300
00000000
00000000
00000000
00000001
00000100
00000001
00000000
00000100
00000010
00000100
00000000
,
00001000
00000000
00010000
00000100
00000000
00010000
00001000
00000000
00100000
00010000
00100000
00000000
01000000
00100000
01000000
00000000
,
10000000
00000000
00010000
01000000
00000000
10000000
01000000
00000000
00100000
10000000
00100000
10000000
00010000
00000000
00000000
00000000
,
00100000
00001000
00100000
00001000
00010000
00000000
00001000
01000000
00000000
00001000
00010000
00000000
00000100
00001000
00000100
00001000
,
00000100
00000010
00000100
00000010
00000002
00000000
00000000
00000000
00001003
00000000
00000000
00000000
00000010
00000000
00010000
00000100
,
00010000
00000100
00000000
00001000
00000100
00000000
00010000
00001000
00000000
00000000
01000000
00000000
00100000
00000000
01000000
00000000
,
00010000
01000000
00010000
10000000
01000000
00000000
00100000
00001000
00000000
00000000
00010000
00001000
00000200
00000000
00000000
00001300
,
00000000
00000000
00010000
00000100
00010000
00000000
00001000
00000000
00000010
00000000
00000001
00000000
00000100
00000000
00000110
00000000
,
00000000
00000000
00000001
00000000
00000100
00000010
00001000
00000010
00000100
00000000
00000000
00020010
00000000
00000000
00031000
00010000
,
00001000
00000000
00100000
00000000
01000000
10000000
01000000
00000000
00100000
00000000
00000000
00101000
00000000
00000000
00001000
00010000
,
02000000
00000000
00000000
03010000
00000000
00000000
00001000
01000000
00001000
00000000
00010000
00000000
00100000
00000000
10000000
00000000
,
01000000
01100000
10000000
00010000
00001000
00000001
00001001
00000000
,
00000101
00000000
00000000
00000000
00000210
00000000
00001000
00000000
00000000
00000000
00000310
00000000
00001000
00000000
00000000
00000100
,
00020000
00000000
00001000
00000000
00000000
00000000
01030000
00000000
00010000
00000000
00000000
00001000
02000000
00000000
10000000
00000000
,
00000000
00000000
03010000
00000000
00100000
00000000
00000000
00100000
00002000
00000000
00000100
00000000
00000000
00000000
00013000
00000000
,
00000100
00000000
00000000
00000000
00000010
00000001
00000100
00000000
00000000
00000000
00000000
00000000
00000001
00000000
00000010
00000000
,
00000001
00000000
00000100
00000010
00001000
00000000
00000100
00000000
00010000
00000000
00000100
00010000
00001000
00000000
00100000
00000000
,
00001000
00000000
00000000
00000000
00000000
00000000
00010000
00000000
00000000
00001000
00000000
00000000
01000000
00000000
00000000
00000000
00000000
00000000
00100000
00000000
00000000
00000000
00000000
00000000
10000000
00000000
00000000
00000000
00000000
00000000
01000000
00000000
00000000
00000000
00000000
00000000
10000000
00000000
00000000
00000000
01000000
00000000
00000000
00000000
00010000
00000000
00000000
00000000
,
00001000
00000010
00000001
00001000
00000000
00000000
00000001
00000100
00001000
00010000
00100000
10000000
,
00010000
00000000
00000000
00000000
10000000
00000000
00100000
01000000
00100000
00000000
00010000
00100000
00010000
00000000
00001000
00000000
,
00000100
00000000
00000001
00000000
00001000
00000000
00000001
00000010
00000001
00000000
00000010
00001000
00000010
00000000
00001000
00000000
,
00010000
00000000
01000000
00000000
10000000
00000000
00100000
00000000
00010000
00001000
00000000
00000000
00000010
00000000
00001000
00010000
,
00000000
00000100
00000010
00001000
00000000
01000000
00100000
00010000
,
00000000
00000000
00001000
00000000
00000100
00000001
00000100
00000000
00001000
00000000
00010000
00000000
02000000
00000000
00100000
00000000
,
00100000
03100000
10010000
00010000
00011000
00001000
00001001
00000001
,
00001000
00000010
00000000
00000000
00000100
00000000
00000010
00000000
00001000
00000000
00000100
00000000
00010000
00001000
00000000
00001000
,
00000100
00000000
00001000
00000000
00010000
00000000
01000000
00000000
00100000
00010000
00000000
10000000
00200000
00000000
01300000
00000000
,
10010000
00000000
00000000
00000000
10000000
00000000
01000000
00000000
00100000
00010000
00000000
10000000
00010000
00000000
01000000
00000000
,
00100000
00000000
00010000
00000000
00100000
00000000
01000000
00000000
00001000
00010000
00000000
00000100
00001000
00000000
00000000
00000000
,
00000001
00000000
00001000
00000100
00000010
00000000
00000001
00000000
00001000
00000000
00000001
00000100
00000001
00000000
00000100
00000000
,
00001000
00000000
00010000
00000000
00000100
00000000
00010000
00000000
00001000
00010000
00000000
01000000
00020000
00000000
00031000
00000000
,
00011000
00000000
00000000
00000000
01000000
00010000
01000000
00010000
01000000
00000000
00001000
00010000
00001000
00010000
00001000
00000000
,
00010000
00000000
00011000
00000000
00000100
00001000
00000100
00001000
00000100
00000000
00010000
00001000
00010000
00001000
00010000
00000000
,
00001000
00000100
00000002
00000000
00000023
00000000
00002030
00000000
,
02003000
00200000
00000000
03300000
,
10000000
00100000
01000000
00010000
00000000
00000000
00000000
00000000
01000000
00010000
00100000
00001000
00000000
00000000
00000000
00000000
,
00100000
00001000
00000000
00010000
00001000
00010000
00000000
00000100
00010000
00000000
00000010
00001000
00000000
00000001
00000100
00000010
,
00010000
00000000
00001000
00010000
00001000
01000000
00010000
10000000
01000000
00100000
00010000
02000000
00000000
00000000
00000000
00000000
,
03100000
00000000
00000000
00000000
10000000
01000000
00100000
00000000
00010000
00100000
00001000
00000000
00010000
00000000
00000100
00000010
,
00000000
00000001
00000010
00000000
00000001
00000100
00000010
00000000
00001000
00000100
00010000
00000000
00001000
00000000
01000000
00100000
,
00000000
10000000
00100000
00000000
01000000
00010000
10000000
01000000
00100000
00000000
00000000
00000000
00010000
00100000
00001000
00010000
,
00000100
00000000
00000010
00000001
00000000
00001000
00000010
00000000
00000100
00000001
00000100
00000001
00000100
00000010
00000100
00001000
,
00020000
00000000
00000000
01030000
00000000
00000000
00010000
00001000
00000100
00000001
00000010
00001000
,
00010000
00000000
00000000
00001000
00010000
01000000
10000000
00100000
00010000
00001000
00000000
00000000
,
00022000
00000000
00000000
00000000
,
00000000
00000000
00000000
00000000
,
00000000
00000000
00033000
00000000
;

//---------------dance-double - ----------------
#NOTES:
     dance-double:
     :
     Hard:
     8:
     0.564527,0.656940,0.178607,0.212096,0.373959,354.000000,338.000000,16.000000,19.000000,0.000000,0.000000,0.564527,0.656940,0.178607,0.212096,0.373959,354.000000,338.000000,16.000000,19.000000,0.000000,0.000000:
00000000
00000000
00000000
00000000
,
00000000
00000000
00000000
00000000
,
00000002
00000000
00000000
00000000
,
00000023
00000000
00000230
00000000
,
00002300
00000100
00000001
00003010
,
00001010
00000000
00000000
00000000
00001100
00000000
00000000
00000000
00011000
00000000
00000000
00110000
00000000
00000000
01100000
00000000
,
00000000
11000000
00000000
00000000
10010000
00000000
00000000
00000000
00010000
01000000
00010000
01000000
00001000
00010000
00001000
00020000
,
00000000
00000000
00031000
00000000
00010000
00010000
00000100
00000100
,
00000010
00000000
00000000
00000001
00000000
00000000
00001000
00000000
00000010
00000000
00000010
00000000
00000100
00000000
00000100
00000000
,
00001000
00000000
00000000
00010000
00000000
00000000
01000000
00000000
00100000
00000000
00100000
00000000
00010000
00000000
00000000
00000000
,
10000000
00000000
10000000
00000000
00100000
00000000
00000000
00010000
00000000
00000000
00001000
00000000
00000100
00000000
00000001
00000000
,
00000010
00000100
00002000
00000000
00003001
00000000
00001000
00000010
,
00001000
00000010
00010000
00001000
00010000
00001000
00100000
00010000
,
00100000
00000000
00010000
00000000
10000000
00000000
01000000
00000000
10000000
00000000
01000000
00100000
00010000
00000000
00000000
00010000
,
00000000
00000000
00100000
00010000
01000000
00000000
10000000
00000000
01000000
00000000
00010000
00000000
00100000
00000000
00100000
00000000
,
01000000
00010000
01000000
00010000
00001000
00010000
00001000
00010000
,
00001000
00000000
00000100
00000000
00001000
00000000
00000100
00000000
00000001
00000000
00000100
00000000
00000001
00000000
00000100
00000001
,
00001000
00000000
00000000
00001000
00000000
00000000
00000100
00000000
00000001
00000000
00000100
00000000
00001000
00000000
00000010
00000000
,
00000100
00000100
00001000
00010000
01000000
10000000
10010000
00000000
,
11000000
00000000
01000000
00100000
00001000
00010000
00000100
00000000
,
00000010
00000100
00010000
00001000
01000000
00000000
00100000
00010000
,
00001000
00000100
00000010
00000000
00000100
00001000
00010000
01000000
,
00100000
00000000
00000000
00000000
00010000
10000000
00010000
00000000
00000000
00000000
00000000
00000000
10000000
00000000
01000000
00000000
,
00100000
00000000
00000000
00001000
00010000
00000000
00001000
00000000
00010000
00000000
00000000
00000100
00000010
00000000
00000001
00000000
,
00001000
00000000
00000000
00000000
00000000
00000000
00000000
00000000
00000000
00000001
00000000
00000000
00000100
00000000
00000000
00000000
00000000
00000000
00000001
00000000
00000000
00000000
00000000
00000000
00001000
00000000
00000000
00000000
00000000
00000000
00000000
00000000
00000000
00000000
00000000
00000000
00000001
00000000
00000000
00000000
00000100
00000000
00000000
00000000
00000001
00000000
00000000
00000000
,
00001000
00000100
00010000
00001000
00000000
00000000
00010000
00001000
01000000
00010000
10000000
00100000
,
01000000
00000000
00100000
10000000
00010000
00100000
01000000
00010000
,
00001000
00000010
00000100
00000010
00000001
00001000
00000010
00000100
,
00000001
00000000
00000000
00000000
00000010
00000000
00000100
00000000
00010000
00001000
00000000
00000000
01000000
00000000
00001000
00010000
,
00000000
01000000
00010000
00001000
00000000
00000010
00001000
00010000
,
00000000
00000000
00000000
00000000
00010000
00001000
00010000
00000000
00001000
00000000
00000100
00000000
00000002
00000000
00000000
00000000
,
00001003
00000000
00000001
00000100
00001000
00010000
01000000
10000000
,
10010000
00000000
00000000
00000000
20000000
00000000
00000000
00000000
31000000
00000000
00100000
00000000
00001000
00010000
00000000
00001000
,
00000000
00000000
00000100
00000000
00000001
00000000
00001000
00000000
00000001
00000010
00000000
00000200
00000000
00000000
00000000
00000000
,
00010300
00000000
00000000
00000000
00001000
00000000
01000000
00000000
00100000
10000000
00000000
00100000
10000000
00000000
01000000
00000000
,
00100000
00000000
00010000
00000000
01000000
00000000
00100000
00000000
10000000
00010000
00000000
10000000
01000000
00000000
00000000
00000000
,
00000000
00000000
00100000
00000000
00002000
00000000
00000000
00000000
00013000
00000000
00000100
00001000
00000100
00000000
00000010
00000000
,
00000001
00000000
00000100
00000000
00000010
00000000
00001000
00000000
00000001
00000100
00000000
00000020
00000000
00000000
00000000
00000000
,
00000130
00000000
00000000
00000000
00000001
00000000
00000100
00000010
00000100
00000000
00001000
00000000
00010000
00001000
00010000
00000000
,
00001000
00000000
00010000
00000000
01000000
00000000
00100000
01000000
00100000
00000000
00010000
00000000
10000000
00010000
10000000
00000000
,
00100000
00010000
00002000
00000000
00203000
00000000
02300000
00000000
,
23000000
30020000
00000000
00000000
,
01030000
00001000
00000000
00010000
00000000
00000000
00000000
00000000
00000100
00010000
00000000
00001000
00000000
00000000
00000000
00000000
,
00010000
00001000
00000000
00001000
00010000
00000000
00000000
00010100
00000000
00000000
00000110
00000000
00000000
00000011
00000000
00000000
,
00001001
00000000
00000000
00000000
00001000
00000100
00001000
00000100
00010000
00001000
00010000
00001000
00000000
00000000
00000000
00000000
,
01001000
00000000
00000000
00000000
10000000
00000000
10000000
00000000
00100000
00000000
00100000
00000000
00010000
00000000
00000000
00001000
,
00000000
00000000
00000100
00000000
00000001
00000000
00000001
00000000
00000010
00000000
00000010
00000000
00001000
00000000
00000000
00010000
,
00000000
01000000
00100000
00100000
00010000
00000000
10000000
10000000
,
00100000
00000000
00000000
00010000
00000000
00000000
00100000
00000000
10000000
00000000
01000000
00000000
00100000
00000000
00010000
00000000
,
00002000
00000000
00000000
00003100
00000000
00000000
00000010
00000001
00001000
00000100
00010000
00001000
,
01000000
00000000
00000000
00100000
10000000
00010000
01000000
00001000
00010000
00000100
00000000
00000000
,
00000220
00000000
00000000
00000000
,
00000000
00000000
00000000
00000000
,
00000000
00000000
00000330
00000000
;

//---------------dance-single - ----------------
#NOTES:
     dance-single:
     :
     Easy:
     4:
     0.282263,0.377308,0.156281,0.312563,0.000000,177.000000,163.000000,14.000000,28.000000,0.000000,0.000000,0.282263,0.377308,0.156281,0.312563,0.000000,177.000000,163.000000,14.000000,28.000000,0.000000,0.000000:
0000
0000
0000
0000
,
0000
0000
0000
0000
,
2002
0000
0000
3003
,
2000
3000
0002
0003
,
1000
1000
0001
0001
,
0010
0100
1000
0001
,
0100
0000
0000
0000
0001
0000
0000
0000
2002
0000
0000
0000
0000
0000
0000
3003
,
0000
0000
0001
0010
,
0100
0100
1000
0010
,
0100
0100
0001
1000
,
0001
0010
0010
0100
,
1000
0000
0020
0000
0000
0030
0100
0000
,
0100
0100
0001
1000
,
1000
1000
0001
2000
,
3000
0001
0010
0011
,
1000
1000
1000
0001
,
0100
0100
0100
0010
,
2000
3000
0100
1000
,
1100
0000
0000
1001
,
0000
0002
0000
0103
,
0020
0000
1030
0002
,
0000
0013
0200
0000
,
1300
0001
0000
1000
,
1000
0010
0010
0100
,
0100
0001
0001
2000
,
0100
3100
0002
0010
,
0013
1000
0010
0100
,
0001
1000
1000
0001
,
0001
0020
0000
0030
,
0000
0200
0000
0300
,
0000
1000
0001
0200
,
0310
0110
1001
0110
,
0000
0002
1003
0001
,
0010
0100
0100
1000
,
1000
0001
1000
0010
,
0100
0001
1000
1001
,
0000
2000
3010
0100
,
0001
1000
1000
0001
,
0010
0000
0100
0000
0000
1000
0000
0000
,
0001
0000
1000
0000
0000
0001
0000
0000
,
1000
0001
0001
0100
,
0100
0020
0000
0000
,
1030
1001
0010
1001
,
0010
1001
1000
0100
,
0010
2002
0000
3003
,
0000
0001
0100
0010
,
0010
1000
0100
0010
,
0010
0001
1000
0001
,
0010
0010
0100
1000
,
0002
1003
0020
1000
,
1030
0200
0001
0301
,
0220
0000
0000
0000
,
0330
0000
0000
0000
;

//---------------dance-double - ----------------
#NOTES:
     dance-double:
     :
     Medium:
     6:
     0.400272,0.477775,0.145118,0.424192,0.078141,251.000000,238.000000,13.000000,38.000000,0.000000,0.000000,0.400272,0.477775,0.145118,0.424192,0.078141,251.000000,238.000000,13.000000,38.000000,0.000000,0.000000:
00000000
00000000
00000000
00000000
,
00000000
00000000
00000000
00000000
,
00002000
00000000
00000000
00000000
,
00023000
00000000
00032000
00000000
,
00013000
00010000
01000000
01000000
,
11000000
00000000
00000000
00000000
10010000
00000000
00000000
00000000
10000000
00000000
00000000
01000000
00000000
00000000
00100000
00000000
,
00000000
00010000
00000000
00000000
01000000
00000000
00000000
00000000
00100000
00000000
10000000
00000000
01000000
00000000
00000000
00010000
,
00000000
00000000
00002000
00023000
,
00030100
00000000
00000000
00000100
00000000
00000000
00000010
00000000
00000002
00000000
00000000
00000000
00002003
00000000
00000000
00000000
,
00003010
00000000
00000000
00000010
00000000
00000000
00000100
00000000
00002000
00000000
00000000
00000000
00013000
00000000
00000000
00000000
,
02000000
00000000
00000000
00000000
13000000
00000000
00000000
10000000
00000000
00000000
00100000
00000000
10000000
00000000
01000000
00000000
,
00100000
00010000
00200000
00000000
00301000
00000000
00010000
00000000
,
00001000
00000000
00010000
00000100
00001000
00000000
00000100
00000000
,
00000010
00000000
00000000
00000000
00000100
00000000
00000010
00000000
00000001
00000000
00000000
00000000
00001000
00000000
00000000
00001000
,
00000000
00000001
00000200
00000000
00000320
00000000
00010030
00010000
,
00001000
00000000
00010000
00000000
00001000
01000000
00010000
00000000
,
10000000
00000000
00100000
00000000
10000000
01000000
00100000
00000000
,
00010000
00000000
00000000
00010000
00000000
00000000
10000000
00000000
02000000
00000000
00000000
00000000
03200000
00000000
00000000
00000000
,
00301000
00001000
00000000
00000000
00000000
00010000
00011000
00000000
,
00000000
00000000
00001000
00010000
00000100
00000000
00000010
00000000
,
00000001
00000100
00000010
00000000
00001000
00000000
00000100
00010000
,
00001000
00000000
01000000
00000000
00100000
10000000
00010000
00000000
,
00100000
00000000
02000000
03000000
00000000
00000000
10000000
01000000
,
10000000
00000000
00010000
00100000
00010000
00000000
01000000
00100000
,
01000000
00000000
00001000
00010000
00001000
00000000
00020000
00000000
,
00000100
00001000
00032000
01000000
,
00013000
00000000
00001000
00010000
00000100
00000000
00000010
00000000
,
00000001
00000000
00000100
00000001
00000100
00000000
00000010
00000100
,
00001000
00000000
00010000
00001000
00100000
00000000
00001000
01000000
,
00000000
00010000
10000000
01000000
00000000
10000000
00010000
01000000
,
00000000
00000000
00100000
10000000
01000000
00100000
00020000
00000000
,
01030000
01010000
10010000
00110000
,
01100000
00000000
21000000
00000000
30010000
00000000
10000000
01000000
,
00100000
00000000
00010000
00100000
00010000
00100000
00002000
00000000
,
00013000
00000000
00000100
00000000
00000010
00000000
00000001
00000100
,
00000010
00000000
00001000
00000100
00010000
00001000
00010000
00000000
,
00011000
00000000
00002000
00000000
01003000
00000000
00100000
10000000
,
01000000
00000000
00010000
01000000
00100000
00001000
00020000
00000000
,
00031000
00000000
00010000
00001000
00010000
00000100
00000010
00000001
,
00000000
00000000
00000100
00000001
00000100
00000010
00001000
00000100
,
00010000
00002000
00023000
00030200
,
00000320
00000002
00000000
00000033
,
00001000
00001001
00000010
00001001
,
00000100
00000000
00000000
00000000
00001001
00000000
00000000
00000001
00000000
00000000
00000100
00000000
00000000
00001000
00000000
00000000
,
00010000
00000000
00000000
00000000
01000000
00000000
10000000
00000000
00100000
00000000
00000000
00010000
00000000
00000000
00000000
00000000
,
00001000
00000000
00000000
00000000
00020000
00000000
00000000
00000000
02030000
00000000
00000000
00000000
13000000
00000000
00000000
10000000
,
00000000
00000000
00010000
00000000
00200000
00000000
00000000
00000000
00302000
00000000
00000000
00000000
00013000
00000000
00000000
00010000
,
00000000
00000100
00000020
00000000
00000031
00000000
00000200
00000000
,
00000310
00000000
00000000
00000010
00000000
00000000
00001000
00000000
00000001
00000000
00000010
00000000
00000100
00000000
00001000
00000000
,
00000200
00010300
00020000
00001000
,
00000010
00032000
00100000
00013000
,
00022000
00000000
00000000
00000000
,
00000000
00000000
00000000
00000000
,
00000000
00000000
00033000
00000000
;

//---------------dance-double - ----------------
#NOTES:
     dance-double:
     :
     Easy:
     3:
     0.261532,0.377308,0.111630,0.379541,0.000000,164.000000,154.000000,10.000000,34.000000,0.000000,0.000000,0.261532,0.377308,0.111630,0.379541,0.000000,164.000000,154.000000,10.000000,34.000000,0.000000,0.000000:
00000000
00000000
00000000
00000000
,
00000000
00000000
00000000
00000000
,
00000002
00000000
00000000
00000000
,
00000203
00000000
00000320
00000000
,
00001030
00001000
00000001
00000001
,
00000010
00000100
00010000
00001000
,
01000000
00100000
20020000
00000000
,
30030000
00000000
10000000
01000000
,
00100000
00000000
00010000
00100000
,
00001000
00000000
00010000
00001000
,
00010000
00001000
00000000
00000100
,
00000001
00002000
00000000
00003001
,
00000010
00000001
00001000
00000100
,
00001000
00000100
00010000
00002000
,
00000000
00013000
00100000
10000000
,
01000000
10000000
01000000
00100000
,
00010000
00100000
00001000
00010000
,
00002000
00000000
00013000
00001000
,
00000200
00000000
00000000
00000301
,
00000000
00002000
00000000
00003100
,
00020000
00000000
00031000
00002000
,
00000000
01003000
00020000
00000000
,
10030000
01000000
00000000
10000000
,
10000000
01000000
01000000
00010000
,
00010000
00001000
00001000
00000200
,
00000000
00000301
00000002
00000000
,
00000013
00000100
00001000
00000001
,
00000100
00001000
00010000
00100000
,
10000000
02000000
00000000
00000000
,
03000000
00020000
00000000
00000000
,
00030000
00001000
00010000
00000200
,
00000310
00000110
00001001
00000110
,
00000000
00000002
00000103
00000010
,
00000010
00001000
00000100
00020000
,
00031000
00000000
01000000
00010000
,
01000000
00100000
10000000
10010000
,
00000000
20000000
31000000
00100000
,
00100000
00001000
00010000
00000200
,
00000310
00000000
00000001
00000000
00000000
00001000
00000000
00000000
,
00000010
00000000
00010000
00000000
00000000
00001000
00000000
00000000
,
01000000
00200000
20300000
32000000
,
03020000
00032000
00000000
00003000
,
00010000
00011000
00001000
00011000
,
00010000
00011000
00001000
00000100
,
00000001
00002002
00000000
00003003
,
00000000
00000001
00000010
00000100
,
00000100
00001000
00000100
00010000
,
00010000
00001000
00001000
01000000
,
00100000
00100000
10000000
01000000
,
00200000
00000000
00302000
00000000
,
00013000
00000200
00000000
00000310
,
00002002
00000000
00000000
00000000
,
00003003
00000000
00000000
00000000
;
