#TITLE:We're Going to Ibiza!;
#SUBTITLE:;
#ARTIST:Vengaboys;
#TITLETRANSLIT:;
#SUBTITLETRANSLIT:;
#ARTISTTRANSLIT:;
#GENRE:;
#CREDIT:;
#BANNER:[Round H] - We're Going to Ibiza.png;
#BACKGROUND:[Round H] - We're Going to Ibiza-bg.png;
#LYRICSPATH:;
#CDTITLE:cdtitle.png;
#MUSIC:[Round H] - We're Going to Ibiza.ogg;
#OFFSET:1.658000;
#SAMPLESTART:56.040001;
#SAMPLELENGTH:15.000000;
#LASTBEATHINT:1.140413;
#SELECTABLE:YES;
#BPMS:0.000000=103.988998
;
#STOPS:
;
#BGCHANGES:2.750=[Round H] - We're Going to Ibiza.avi=1.000=0=0=0=StretchNoLoop====,
99999=-nosongbg-=1.000=0=0=0 // don't automatically add -songbackground-
;
#KEYSOUNDS:;
#ATTACKS:;

//---------------dance-single - ----------------
#NOTES:
     dance-single:
     9646_CSP:
     Challenge:
     9:
     0.578685,0.575885,0.203464,0.480916,0.504037,438.000000,416.000000,22.000000,52.000000,88.000000,0.000000,0.578685,0.575885,0.203464,0.480916,0.504037,438.000000,416.000000,22.000000,52.000000,88.000000,0.000000:
0000
0000
0000
0000
,
0000
0000
0000
0000
,
0000
0000
0000
0000
,
0000
0000
0000
0000
,
0000
0000
0000
0000
0000
0000
0000
0000
0000
0000
0001
1000
0100
0000
0100
0000
0100
0000
0110
0000
0000
MMMM
0000
0000
,
1001
0000
1000
0010
0100
0010
0100
0010
1000
0000
0100
0000
0011
0000
MMMM
0000
,
MMMM
0000
0001
0100
0010
0100
0010
0100
0001
0000
0001
0000
0101
0001
0010
0100
,
MMMM
0000
0001
0010
0100
0010
0100
0010
0001
0100
0010
0000
1010
0000
MMMM
0000
,
MMMM
0000
1000
0100
0010
0100
0010
0100
1000
0001
0100
0010
0001
0000
0010
0100
,
0002
0000
1003
0010
0100
0010
1000
0000
0002
0000
0100
0000
1003
0000
0010
0000
,
2000
0000
0100
0000
3002
0000
0100
0000
1003
0000
1000
0000
0100
0010
0001
1000
,
0001
0100
0101
0001
2000
3100
1100
0001
,
0100
0000
0010
0000
2000
0000
3100
0010
0100
1000
0001
0100
0010
0000
1000
0000
,
2001
0000
3100
0010
0100
0000
1000
0000
0001
0000
0010
0000
0100
0000
0010
0000
,
0002
0000
0010
0000
2003
0000
0100
0000
3001
0000
0100
0000
0020
0000
1030
0100
,
0020
0000
0130
1000
0001
0000
0100
0000
0010
0000
0001
0000
0010
0000
0100
0000
,
0002
0000
1003
0010
0100
0000
0001
0000
0010
0100
0010
0100
MMMM
0000
0000
0001
,
1000
0001
0100
0000
0010
0000
1000
0000
0002
0000
0100
0000
1003
0100
0010
0000
,
0002
0000
0010
0000
2003
0000
0100
0000
3001
0000
0001
0000
0100
0000
0010
1000
,
0001
0100
0010
0000
0110
0000
1000
0000
0002
0000
0103
0000
0101
0000
0001
0000
,
2000
0000
0100
0000
3002
0000
0010
0000
1003
0100
0001
0100
1000
0000
0001
0000
,
1002
0000
0103
0010
0100
0000
0001
0000
1000
0000
0010
0000
0100
0000
0010
0000
,
2000
0000
0010
0000
3002
0000
0100
0000
1003
0000
0100
0000
0020
0000
0031
0100
,
0020
0000
0130
0001
1000
0000
0100
0000
0010
0000
1000
0000
0010
0000
0100
0000
,
2000
0000
3001
0010
0100
0000
1000
0000
0010
0100
0010
0100
MMMM
0000
0000
0000
,
2001
0000
3001
0010
0100
0000
1000
0000
0002
0000
0013
0000
2000
0000
3010
0000
,
0001
0000
2001
0000
3010
0000
0010
0000
0100
0001
0100
0001
0010
0100
0010
0100
,
2000
0000
3001
0100
0010
0000
0001
0000
0010
0000
1000
0000
1001
0000
0001
0010
,
0200
0000
1000
0000
2300
0000
3010
0000
0010
0001
0010
0001
0010
1000
0010
1000
,
2001
0000
3001
0100
0010
0000
1000
0000
0001
0000
0100
0000
1001
0000
0001
0010
,
0200
0000
0001
0000
0301
0000
0100
0000
0010
0001
0010
0001
0100
0010
0100
0010
,
2000
0000
3001
0010
0100
0000
0010
0001
0100
0001
0200
0000
0310
1000
0100
0000
,
0020
0000
0130
0010
0001
0000
1000
0000
0100
0001
0100
0001
0100
1000
0100
1000
,
MMMM
0000
1000
0010
0100
0010
0100
0010
1000
0000
0100
0000
0011
0000
MMMM
0000
,
MMMM
0000
0001
0100
0010
0100
0010
0100
0001
0000
0001
0000
0101
0001
0010
0100
,
MMMM
0000
0001
0010
0100
0010
0100
0010
0001
0100
0010
0000
1010
0000
MMMM
0000
,
MMMM
0000
1000
0100
0010
0100
0010
0100
1000
0001
0100
0010
0001
0000
0010
0000
,
2010
0000
3001
0010
1000
0000
1000
0000
0002
0000
1003
0100
0001
0000
0001
0000
,
2000
0000
3010
0001
1000
0000
1000
0000
0002
0000
0013
1000
0001
0000
0001
0000
,
2000
0000
3001
0100
1000
0000
1000
0000
0002
0000
1003
0010
0001
0000
0001
0000
,
2000
0000
3100
0001
1000
0000
1000
0000
0001
0010
0001
0010
1000
0000
0010
0000
,
0012
0000
1003
0010
0001
0000
0001
0000
2000
0000
3001
0100
1000
0000
1000
0000
,
0002
0000
0013
1000
0001
0000
0001
0000
2000
0000
3010
0001
1000
0000
1000
0000
,
0002
0000
1003
0100
0001
0000
0001
0000
2000
0000
3001
0010
1000
0000
1000
0000
,
0002
0000
0103
1000
0001
0000
0001
0000
1000
0010
1000
0010
0001
0000
MMMM
0000
,
2002
0000
3003
MMMM
MMMM
MMMM
MMMM
MMMM
,
MMMM
MMMM
0000
0000
0000
0000
0000
0000
;

//---------------dance-single - ----------------
#NOTES:
     dance-single:
     9646_BEG:
     Beginner:
     1:
     0.087199,0.124853,0.046242,0.000000,0.000000,66.000000,61.000000,5.000000,0.000000,0.000000,0.000000,0.087199,0.124853,0.046242,0.000000,0.000000,66.000000,61.000000,5.000000,0.000000,0.000000,0.000000:
0000
0000
0000
0000
,
0000
0000
0000
0000
,
0000
0000
0000
0000
,
0000
0000
0000
0000
,
0000
0000
0000
0000
,
0010
0000
0100
0000
,
0010
0000
0100
0000
,
1000
0000
0001
0000
,
1000
0000
0001
0000
,
1000
0000
0000
0000
,
0001
0000
0000
0000
,
1000
0000
0000
0000
,
0001
0000
0000
0000
,
0010
0000
0000
0000
,
1000
0000
0000
0000
,
0010
0000
0000
0000
,
0001
0000
0000
0000
,
1000
0000
0000
0000
,
0001
0000
0000
0000
,
1000
0000
0000
0000
,
0001
0000
0000
0000
,
0100
0000
0000
0000
,
1000
0000
0000
0000
,
0100
0000
0000
0000
,
0001
0000
0000
0000
,
1001
0000
0000
0000
,
0010
0000
0010
0000
,
0110
0000
0000
0000
,
0001
0000
0001
0000
,
1001
0000
0000
0000
,
0100
0000
0100
0000
,
0110
0000
0000
0000
,
1000
0000
1000
0000
,
0001
0000
1000
0000
,
0001
0000
1000
0000
,
0100
0000
0010
0000
,
0100
0000
0010
0000
,
0001
0000
0001
0000
,
1000
0000
1000
0000
,
0010
0000
0010
0000
,
0001
0000
0001
0000
,
0100
0000
0100
0000
,
1000
0000
1000
0000
,
0001
0000
0001
0000
,
1000
0000
1000
0000
,
1001
0000
0000
0000
;

//---------------dance-single - ----------------
#NOTES:
     dance-single:
     9646_BSP:
     Easy:
     3:
     0.223282,0.292943,0.212713,0.369935,0.000000,169.000000,146.000000,23.000000,40.000000,0.000000,0.000000,0.223282,0.292943,0.212713,0.369935,0.000000,169.000000,146.000000,23.000000,40.000000,0.000000,0.000000:
0000
0000
0000
0000
,
0000
0000
0000
0000
,
0000
0000
0000
0000
,
0000
0000
0000
0000
,
0000
0000
0000
0000
,
0100
0010
0010
1001
,
0010
0100
1000
0001
,
0010
0100
0100
1001
,
0100
0010
0001
0011
,
0100
1000
0001
0001
,
1000
2000
3000
1000
,
0010
0101
0010
1100
,
0001
1000
0002
0003
,
2000
3100
1000
0010
,
0002
2000
3003
0001
,
0010
0010
1000
0001
,
0010
0100
0100
1001
,
1000
0010
0200
0300
,
0001
2000
3000
0001
,
1000
0010
0100
0001
,
0010
0100
2000
3001
,
2000
3100
1000
0010
,
0002
2000
3003
0001
,
0010
1000
0001
0010
,
0100
0010
0010
0100
,
2002
3003
0010
0100
,
0200
0300
1000
0001
,
2002
3003
0000
0010
,
0200
0300
0010
0100
,
2002
3003
0100
0010
,
0020
0030
0001
1000
,
2002
3003
0010
0100
,
0020
0030
0001
1000
,
0010
0100
0100
1001
,
0100
0010
1000
0001
,
0100
0010
0010
1001
,
0010
0100
0001
0101
,
2001
3100
0002
0103
,
0020
0130
2000
3001
,
0002
0013
2000
3010
,
0200
0310
0001
0001
,
2100
3010
0012
0103
,
2100
3001
0102
1003
,
1200
0310
0201
0310
,
1020
0031
0201
1300
,
2002
3003
0000
0000
;

//---------------dance-single - ----------------
#NOTES:
     dance-single:
     9646_DSP:
     Medium:
     5:
     0.295948,0.313867,0.147974,0.342190,0.000000,224.000000,208.000000,16.000000,37.000000,0.000000,0.000000,0.295948,0.313867,0.147974,0.342190,0.000000,224.000000,208.000000,16.000000,37.000000,0.000000,0.000000:
0000
0000
0000
0000
,
0000
0000
0000
0000
,
0000
0000
0000
0000
,
0000
0000
0000
0000
,
0000
0000
0000
0000
,
0000
0001
0010
0010
0100
0010
1001
0000
,
0000
1000
0010
0010
0001
0010
0000
0010
,
0000
1000
0100
0100
0010
0100
1001
0000
,
0000
0001
0100
0100
1000
0100
0001
0000
,
1001
0000
0001
0000
0010
0100
0010
0000
,
0001
1000
0002
0000
1003
0000
0001
0000
,
0100
0010
1010
0000
0100
0010
0011
0000
,
0001
0000
0100
0010
0200
0000
0301
0000
,
0020
0130
1000
0001
,
2000
3002
1003
0010
,
0001
0001
0100
0100
,
1000
0001
0100
0010
,
1001
0000
1000
0000
0100
0010
0100
0000
,
1000
0001
2000
0000
3001
0000
1000
0000
,
0010
0100
0001
0000
0010
0100
1000
0000
,
1000
0000
0010
0000
0100
0010
1000
0000
,
0200
0310
0001
1000
,
0002
2003
3001
0100
,
1000
1000
0010
0010
,
0001
1000
0010
0100
,
2002
3003
0010
0100
,
2100
0000
3000
0000
0001
1000
0001
1000
,
2002
0000
3003
0000
0000
0000
1000
0100
,
0020
0000
0032
0003
1000
0001
1000
0001
,
2002
3003
0100
0010
,
1000
0010
0010
0000
0001
1000
0001
1000
,
2002
0000
3003
0000
0001
0100
0010
0000
,
2000
0000
3001
0000
0010
0100
0010
0100
,
0000
1000
0010
0010
0100
0010
1001
0000
,
0000
0001
0010
0010
1000
0010
0000
0010
,
0000
0001
0100
0100
0010
0100
1001
0000
,
0000
1000
0100
0100
0001
0100
1000
0000
,
1020
0000
0031
0001
0200
0000
1300
1000
,
0020
0000
0130
0100
0020
0000
0130
1000
,
0002
0000
0013
0010
2000
0000
3100
0100
,
0002
0000
1003
0010
0100
0010
0100
0000
,
0201
0000
1300
1000
0020
0000
0031
0001
,
0200
0000
0310
0010
0200
0000
0310
0001
,
2000
0000
3100
0100
0002
0000
0013
0010
,
2000
0000
3001
0100
0010
0100
0010
0000
,
2002
3003
0000
0000
;

//---------------dance-single - Another----------------
#NOTES:
     dance-single:
     :
     Edit:
     9:
     0.578685,0.575885,0.203464,0.480916,0.504037,438.000000,416.000000,22.000000,52.000000,110.000000,0.000000,0.578685,0.575885,0.203464,0.480916,0.504037,438.000000,416.000000,22.000000,52.000000,110.000000,0.000000:
0000
0000
0000
0000
,
0000
0000
0000
0000
,
0000
0000
0000
0000
,
0000
0000
0000
0000
,
0000
0000
0000
0000
0000
0000
0000
0000
0000
0000
0001
1000
0100
0000
0100
0000
0100
0000
0110
0000
0000
MMMM
0000
0000
,
1001
0000
1000
0010
0100
0010
0100
0010
1000
0000
0100
0000
0011
0000
MMMM
0000
,
MMMM
0000
0001
0100
0010
0100
0010
0100
0001
0000
0001
0000
0101
0001
0010
0100
,
MMMM
0000
0001
0010
0100
0010
0100
0010
0001
0100
0010
0000
1010
0000
MMMM
0000
,
MMMM
0000
1000
0100
0010
0100
0010
0100
1000
0001
0100
0010
0001
0000
0010
0100
,
0002
0000
1003
0010
0100
0010
1000
0000
0002
0000
0100
0000
1003
0000
0010
0000
,
2000
0000
0100
0000
3002
0000
0100
0000
1003
0000
1000
0000
0100
0010
0001
1000
,
0001
0100
0101
0001
2000
3100
1100
0001
,
0100
0000
0010
0000
2000
0000
3100
0010
0100
1000
0001
0100
0010
0000
1000
0000
,
2001
0000
3100
0010
0100
0000
1000
0000
0001
0000
0010
0000
0100
0000
0010
0000
,
0002
0000
0010
0000
2003
0000
0100
0000
3001
0000
0100
0000
0020
0000
1030
0100
,
0020
0000
0130
1000
0001
0000
0100
0000
0010
0000
0001
0000
0010
0000
0100
0000
,
0002
0000
1003
0010
0100
0000
0001
0000
0010
0100
0010
0100
MMMM
0000
0000
0001
,
1000
0001
0100
0000
0010
0000
1000
0000
0002
0000
0100
0000
1003
0100
0010
0000
,
0002
0000
0010
0000
2003
0000
0100
0000
3001
0000
0001
0000
0100
0000
0010
1000
,
0001
0100
0010
0000
0110
0000
1000
0000
0002
0000
0103
0000
0101
0000
0001
0000
,
2000
0000
0100
0000
3002
0000
0010
0000
1003
0100
0001
0100
1000
0000
0001
0000
,
1002
0000
0103
0010
0100
0000
0001
0000
1000
0000
0010
0000
0100
0000
0010
0000
,
2000
0000
0010
0000
3002
0000
0100
0000
1003
0000
0100
0000
0020
0000
0031
0100
,
0020
0000
0130
0001
1000
0000
0100
0000
0010
0000
1000
0000
0010
0000
0100
0000
,
2000
0000
3001
0010
0100
0000
1000
0000
0010
0100
0010
0100
MMMM
0000
0000
0000
,
2001
0000
3001
0010
0100
0000
1000
0000
0002
0000
0013
0000
2000
0000
3010
0000
,
0001
0000
2001
0000
3010
0000
0010
0000
0100
0001
0100
0001
0010
0100
0010
0100
,
2000
0000
3001
0100
0010
0000
0001
0000
0010
0000
1000
0000
1001
0000
0001
0010
,
0200
0000
1000
0000
2300
0000
3010
0000
0010
0001
0010
0001
0010
1000
0010
1000
,
2001
0000
3001
0100
0010
0000
1000
0000
0001
0000
0100
0000
1001
0000
0001
0010
,
0200
0000
0001
0000
0301
0000
0100
0000
0010
0001
0010
0001
0100
0010
0100
0010
,
2000
0000
3001
0010
0100
0000
0010
0001
0100
0001
0200
0000
0310
1000
0100
0000
,
0020
0000
0130
0010
0001
0000
1000
0000
0100
0001
0100
0001
0100
1000
0100
1000
,
MMMM
0000
1000
0010
0100
0010
0100
0010
1000
0000
0100
0000
0011
0000
MMMM
0000
,
MMMM
0000
0001
0100
0010
0100
0010
0100
0001
0000
0001
0000
0101
0001
0010
0100
,
MMMM
0000
0001
0010
0100
0010
0100
0010
0001
0100
0010
0000
1010
0000
MMMM
0000
,
MMMM
0000
1000
0100
0010
0100
0010
0100
1000
0001
0100
0010
0001
0000
0010
0000
,
2010
0000
3001
0010
1000
0000
1MMM
0000
0002
0000
1003
0100
0001
0000
MMM1
0000
,
2000
0000
3010
0001
1000
0000
1MMM
0000
0002
0000
0013
1000
0001
0000
MMM1
0000
,
2000
0000
3001
0100
1000
0000
1MMM
0000
0002
0000
1003
0010
0001
0000
MMM1
0000
,
2000
0000
3100
0001
1000
0000
1MMM
0000
0001
0010
0001
0010
1000
0000
0010
0000
,
0012
0000
1003
0010
0001
0000
MMM1
0000
2000
0000
3001
0100
1000
0000
1MMM
0000
,
0002
0000
0013
1000
0001
0000
MMM1
0000
2000
0000
3010
0001
1000
0000
1MMM
0000
,
0002
0000
1003
0100
0001
0000
MMM1
0000
2000
0000
3001
0010
1000
0000
1MMM
0000
,
0002
0000
0103
1000
0001
0000
MMM1
0000
1000
0010
1000
0010
0001
0000
MMMM
0000
,
2002
0000
3003
0M00
00M0
M000
000M
0M00
,
00M0
M00M
0000
0000
0000
0000
0000
0000
;

//---------------dance-single - ----------------
#NOTES:
     dance-single:
     9646_ESP:
     Hard:
     7:
     0.400323,0.397565,0.249706,0.397681,0.064739,303.000000,276.000000,27.000000,43.000000,0.000000,0.000000,0.400323,0.397565,0.249706,0.397681,0.064739,303.000000,276.000000,27.000000,43.000000,0.000000,0.000000:
// measure 0
0000
0000
0000
0000
,  // measure 1
0000
0000
0000
0000
,  // measure 2
0000
0000
0000
0000
,  // measure 3
0000
0000
0000
0000
,  // measure 4
0000
0000
0000
0000
0100
0100
0110
0000
,  // measure 5
1001
0010
0001
0010
0100
0010
0110
0000
,  // measure 6
0001
0010
1000
0010
0001
0001
0010
0001
,  // measure 7
1000
0100
0001
0100
0010
0100
0110
0000
,  // measure 8
0001
0100
1000
0100
0001
0001
0101
0001
,  // measure 9
1001
0001
0010
0100
1000
0001
0001
0000
,  // measure 10
1000
0001
0002
0003
0001
0000
1000
0010
,  // measure 11
0100
0100
0110
0001
0010
0010
0110
0000
,  // measure 12
1000
0000
0001
1000
0010
0010
0010
0001
,  // measure 13
0010
1000
0002
0003
0100
1000
0100
0001
,  // measure 14
2000
0000
3002
0000
1003
0000
0010
0100
,  // measure 15
0002
0003
0001
0000
1000
0100
0001
0100
,  // measure 16
2000
0000
3001
0000
0010
0100
0110
0000
,  // measure 17
1001
0001
1000
0010
0200
0000
0301
0000
,  // measure 18
0010
0100
0200
0300
0100
0000
1000
0000
,  // measure 19
0100
0010
0001
0100
0020
0000
1030
0000
,  // measure 20
1000
0000
0001
0000
0010
0010
0100
0001
,  // measure 21
0100
1000
0002
0003
0010
1000
0010
0001
,  // measure 22
2000
0000
3002
0000
1003
0000
0010
0100
,  // measure 23
0002
0003
0001
0000
1000
0010
0001
0010
,  // measure 24
2000
0000
3001
0000
0010
0100
0110
0000
,  // measure 25
2002
3003
1001
0001
1000
0010
0001
0100
,  // measure 26
1000
1001
0001
0000
0100
0100
0010
0010
,  // measure 27
2002
3003
1001
0000
0100
0000
0010
0001
,  // measure 28
0020
2030
0002
3003
0100
0100
0010
0010
,  // measure 29
2002
3003
1001
1000
0001
0100
1000
0010
,  // measure 30
0001
0002
1003
0000
0010
0010
0100
0100
,  // measure 31
2002
3003
1001
0010
0100
1000
0100
0001
,  // measure 32
2000
0000
3001
0000
0100
0100
0010
0010
,  // measure 33
1001
0010
1000
0010
0100
0010
0110
0000
,  // measure 34
1000
0010
0001
0010
1000
1000
0010
1000
,  // measure 35
0001
0100
1000
0100
0010
0100
0110
0000
,  // measure 36
1000
0100
0001
0100
1000
1000
1100
1000
,  // measure 37
2001
0000
3000
0001
0100
0000
0001
0000
0020
0000
0030
0100
1000
0000
0010
0000
,  // measure 38
0002
0000
0003
0010
1000
0000
0100
0000
0020
0000
0030
0001
0100
0000
0010
0000
,  // measure 39
2000
0000
3000
0100
0001
0000
0100
0000
2000
0000
3000
0001
0010
0000
1000
0000
,  // measure 40
0020
0000
0030
0001
0100
0000
0010
0000
1000
0000
1000
0000
0001
0000
1000
0000
,  // measure 41
1002
0000
0003
1000
0100
0000
1000
0000
0020
0000
0030
0100
0001
0000
0010
0000
,  // measure 42
2000
0000
3000
0010
0001
0000
0100
0000
0020
0000
0030
1000
0100
0000
0010
0000
,  // measure 43
0002
0000
0003
0100
1000
0000
0100
0000
0002
0000
0003
1000
0010
0000
0001
0000
,  // measure 44
0020
0000
0030
1000
0100
0000
0010
0000
0001
0000
0001
0000
1000
0000
0000
0000
,  // measure 45
2002
3003
0000
0000
;
