#TITLE:上々上湯;
#SUBTITLE:;
#ARTIST:The Idol Formerly Known as LADYBABY;
#TITLETRANSLIT:Shanshanshantan;
#SUBTITLETRANSLIT:;
#ARTISTTRANSLIT:;
#GENRE:Kawaii metal;
#CREDIT:TiKAL;
#MUSIC:[Round H] - Shanshanshantan.ogg;
#BANNER:[Round H] - Shanshanshantan.png;
#BACKGROUND:[Round H] - Shanshanshantan-bg.png;
#CDTITLE:;
#SAMPLESTART:107.114;
#SAMPLELENGTH:25.674;
#SELECTABLE:YES;
#OFFSET:0.048;
#BPMS:0.000=215.000
,312.000=107.500
,346.000=215.000
;
#STOPS:346.000=0.140
,346.500=0.139
,347.000=0.140
,347.500=0.139
;
#BGCHANGES:;
#FGCHANGES:;

//--------------- dance-single - TiKAL ----------------
#NOTES:
     dance-single:
     TiKAL:
     Easy:
     5:
     0,0,0,0,0:
0000
0000
0000
0000
,
0000
0000
0000
0000
,
0001
0000
0001
0000
,
1000
1000
1000
0000
,
0010
0000
0010
0000
,
0100
0100
0000
0000
,
0001
0000
1000
0000
,
0010
0010
0010
0000
,
1000
0000
0001
0000
,
0100
0100
0100
0000
,
0110
0000
0000
0000
,
1000
0000
1000
0000
,
0001
0001
0001
0001
,
0100
0000
0100
0000
,
0010
0010
0010
0000
,
1000
0000
0100
0000
,
0010
0010
0010
0010
,
0001
0000
0001
0000
,
1000
1000
1000
0000
,
0001
0000
0100
0000
,
0010
0010
0010
0010
,
1000
0000
0100
0000
,
0010
0010
0010
0000
,
0001
0000
1000
0000
,
0100
0100
0100
0100
,
1000
0000
0001
0000
,
0010
0010
0010
0000
,
0110
0000
0000
0000
,
1001
0000
0000
0000
,
1000
0000
0100
0000
,
0010
0000
0001
0000
,
1001
0000
0000
0000
,
0110
0000
0000
0000
,
1000
0100
0010
0001
,
2002
0000
0000
3003
,
0001
1000
0010
0010
,
1000
0001
0100
0100
,
0001
0010
0100
1000
,
2002
0000
3003
0000
,
1000
0001
0100
0100
,
0001
1000
0010
0010
,
1000
0100
0010
0001
,
2002
0000
0000
3003
,
0001
1000
0100
0100
,
1000
0001
0010
0010
,
0001
0100
0010
1000
,
2002
0000
3003
0000
,
1000
0001
0010
0010
,
0001
1000
0100
0100
,
1000
0010
0100
0001
,
2002
0000
0000
3000
,
0200
0000
0000
0003
,
0020
0000
0000
0330
,
1001
0000
0000
0000
,
1000
0000
1000
0000
,
0100
0000
0100
0000
,
0001
0000
0001
0000
,
0000
0010
0010
0000
,
1000
0000
1000
0000
,
0100
0000
0100
0000
,
0001
0000
0001
0000
,
0000
0010
0010
0000
,
1000
0000
1000
0000
,
0010
0000
0010
0000
,
0001
0000
0001
0000
,
0000
0100
0100
0000
,
1000
0000
1000
0000
,
0010
0000
0010
0000
,
0001
0000
0001
0000
,
0200
0000
0000
0300
,
1000
0100
1000
0100
,
0010
0001
0010
0001
,
1000
0010
1000
0010
,
0100
0001
0100
0001
,
2000
0000
3200
0000
,
0320
0000
0032
0000
,
1003
0010
0100
0001
,
1000
0100
0010
0001
,
2000
0000
3000
0000
,
0001
0000
0001
0001
,
1000
0000
1000
1000
,
0010
0000
0010
0010
,
0200
0000
0300
0000
,
0001
0010
0100
1000
,
0001
0100
0010
1000
,
0100
0010
0001
1000
,
2002
0000
0000
3003
0110
0000
1001
0000
,
0000
0001
0100
0100
,
0001
1000
0010
0010
,
1000
0100
0010
0001
,
2002
0000
3003
0000
,
0001
1000
0010
0010
,
1000
0001
0100
0100
,
0001
0010
0100
1000
,
2002
0000
0000
3003
,
1000
0001
0010
0010
,
0001
1000
0100
0100
,
1000
0010
0100
0001
,
2002
0000
3003
0000
,
0001
1000
0100
0100
,
1000
0001
0010
0010
,
0001
0100
0010
1000
,
2002
0000
0000
0003
,
0020
0000
0000
3000
,
0200
0000
0000
0000
,
0330
0000
0000
0000
,
2002
0000
0000
3000
,
0200
0000
0000
0003
,
0020
0000
0000
0330
,
1001
0000
0000
0000
,
0001
0000
0001
0000
,
1000
1000
1000
0000
,
0010
0000
0010
0000
,
0100
0100
0000
0000
,
0001
0000
1000
0000
,
0010
0010
0010
0000
,
1000
0000
0001
0000
,
0100
0100
0100
0000
,
0110
0000
0000
0000
,
2002
0000
0000
0000
,
0000
0000
0000
0000
,
0000
0000
3003
0000
;

//--------------- dance-single - TiKAL ----------------
#NOTES:
     dance-single:
     TiKAL:
     Medium:
     7:
     0,0,0,0,0:
0000
0000
0000
0000
,
0000
0000
0000
0000
,
0001
0000
0001
0000
0010
0100
0000
1000
,
0000
0001
0000
0001
1000
0100
0010
0000
,
0001
0000
0001
0000
1000
0010
0000
0100
,
0000
0100
0000
0010
1000
0001
0100
0000
,
0001
0000
0001
0000
0100
0010
0000
1000
,
0000
0001
0000
0001
1000
0010
0100
0000
,
0001
0000
0001
0000
1000
0100
0000
0010
,
0000
0010
0000
0100
1000
0001
0010
0000
,
0200
0000
0300
0110
,
0010
0001
0000
0000
0010
1000
0000
0000
,
0010
0001
1000
0000
0010
0000
0100
0000
,
0001
0100
0000
0000
1000
0100
0000
0000
,
0001
0100
0010
0000
1000
0000
0001
0000
,
1000
0100
0000
0000
0001
0100
0000
0000
,
1000
0100
0010
0000
0001
0000
0010
0000
,
0100
1000
0000
0000
0100
0001
0000
0000
,
0100
1000
0001
0000
0100
0000
0010
0000
,
1000
0001
0000
0000
0100
0010
0000
0000
,
1000
0001
0100
0000
0010
0000
1000
0000
,
0001
0010
0000
0000
0100
1000
0000
0000
,
0001
0010
0100
0000
1000
0000
0001
0000
,
1000
0010
0000
0000
0100
0001
0000
0000
,
1000
0010
0100
0000
0001
0000
1000
0000
,
0001
0100
0000
0000
1000
0100
0000
0000
,
0001
0100
1000
0000
0100
0000
0010
0000
,
0101
0000
0000
0101
0000
0000
0101
0000
,
1100
0000
0000
1100
0000
0000
1100
0000
,
1000
0100
0010
0001
,
1000
0010
0100
0001
,
0011
0000
0000
0011
0000
0000
0011
0000
,
1010
0000
0000
1010
0000
0000
1010
0000
,
1000
0000
0010
0000
0100
0001
1000
0000
,
2002
0000
0000
3003
,
0001
0000
0010
0000
0100
1000
0001
0000
,
1000
0000
0010
0000
0100
0001
1000
0000
,
0001
0000
1000
0000
0010
0100
0010
0000
,
2002
0000
3003
1000
,
0001
0000
0010
0000
0100
1000
0100
0000
,
1000
0000
0010
0000
0100
0001
0100
0000
,
0001
0000
0010
0000
0001
1000
0100
0000
,
0220
0000
0000
0330
,
1000
0000
0100
0000
0010
0001
1000
0000
,
0001
0000
0100
0000
0010
1000
0001
0000
,
1000
0000
0001
0000
0100
0010
0100
0000
,
2002
0000
3003
0001
,
1000
0000
0100
0000
0010
0001
0010
0000
,
0001
0000
0100
0000
0010
1000
0010
0000
,
1000
0100
1000
0000
0001
0100
0001
0000
,
2002
0000
0000
3000
,
0200
0000
0000
0003
,
0020
0000
0000
0330
,
2002
0000
0000
3003
0000
0000
0000
0000
,
1000
1000
0100
0100
,
0001
0001
0010
0010
,
1000
0010
0100
0001
,
0000
1001
0110
0000
,
0001
0001
0100
0100
,
1000
1000
0010
0010
,
0001
0010
0100
1000
,
0000
1001
0110
0000
,
1000
0000
0000
0001
0000
0000
0100
0000
,
0000
0010
0000
0000
1000
0000
0001
0000
,
1000
0100
0010
0001
,
0000
1001
0220
0330
,
0001
0000
0001
1000
0000
0000
0010
0000
,
0010
0100
0000
0000
0001
0000
1000
0000
,
0001
0010
0100
1000
,
2002
0000
0000
3003
,
1000
0100
1000
0000
0001
0010
0001
0000
,
1000
0010
1000
0000
0001
0100
0001
0000
,
1000
0100
0010
0000
0001
0010
0100
0000
,
1000
0010
0100
0000
0001
0100
0010
0000
,
2200
3300
0220
0330
,
0022
0033
2002
3003
,
0001
0100
0010
0000
1000
0010
0100
0000
,
0001
1000
0100
0000
1000
0001
0100
0000
,
0220
0000
0330
0000
,
0001
0000
0010
0000
0100
1000
0001
0000
,
1000
0000
0010
0000
0100
0001
1000
0000
,
0001
0000
1000
0000
0010
0100
0010
0000
,
2002
0000
3003
0001
,
1000
0000
0100
0000
0010
0001
1000
0000
,
0001
0000
0100
0000
0010
1000
0001
0000
,
1000
0001
1000
0000
0001
1000
0001
0000
,
2002
0000
0000
3003
1000
0100
0010
0001
,
0000
0000
1001
0000
1000
0010
0100
0000
,
0001
0000
0100
0000
0010
1000
0001
0000
,
1000
0000
0001
0000
0100
0010
0100
0000
,
2002
0000
3003
0001
,
1000
0000
0100
0000
0010
0001
0010
0000
,
0001
0000
0100
0000
0010
1000
0010
0000
,
1000
0000
0100
0000
1000
0001
0010
0000
,
0220
0000
0000
0330
,
0001
0000
0010
0000
0100
1000
0001
0000
,
1000
0000
0010
0000
0100
0001
1000
0000
,
0001
0000
1000
0000
0010
0100
0010
0000
,
2002
0000
3003
1000
,
0001
0000
0010
0000
0100
1000
0100
0000
,
1000
0000
0010
0000
0100
0001
0100
0000
,
0001
0010
0001
0000
1000
0010
1000
0000
,
2002
0000
0000
0003
,
0020
0000
0000
3000
,
0200
0000
0000
0000
,
0330
0000
0000
0000
,
2002
0000
0000
3000
,
0020
0000
0000
0003
,
0200
0000
0000
0330
,
2002
0000
0000
3003
0000
0000
0000
0000
,
1000
0000
1000
0000
0100
0010
0000
0001
,
0000
1000
0000
1000
0001
0010
0100
0000
,
1000
0000
1000
0000
0001
0100
0000
0010
,
0000
0010
0000
0100
0001
1000
0010
0000
,
1000
0000
1000
0000
0010
0100
0000
0001
,
0000
1000
0000
1000
0001
0100
0010
0000
,
1000
0000
1000
0000
0001
0010
0000
0100
,
0000
0100
0000
0010
0001
1000
0100
0000
,
0020
0000
0000
0030
,
2002
0000
0000
0000
,
0000
0000
0000
0000
,
0000
0000
3003
0000
;

//--------------- dance-single - TiKAL ----------------
#NOTES:
     dance-single:
     TiKAL:
     Hard:
     10:
     0,0,0,0,0:
0000
0000
0000
0000
,
0000
0000
0000
0000
,
1001
0000
1100
0000
0100
0010
0000
0011
,
0000
1001
0000
0001
1000
0010
0100
0001
,
1000
0000
0011
0000
0010
0100
0000
0110
,
0000
1100
0000
1000
0010
0100
0001
1000
,
1001
0000
0101
0000
0100
0010
0000
1010
,
0000
1001
0000
1000
0001
0010
0100
1000
,
0001
0000
1010
0000
0010
0100
0000
0110
,
0000
0101
0000
0001
0010
0100
1000
0001
,
0000
1000
1000
1000
1000
0000
1001
0000
,
0001
0001
0001
0000
0100
0100
0100
0000
,
0010
0010
0010
1000
0100
0010
0001
0000
,
1000
1000
1000
0000
0010
0010
0010
0000
,
0100
0001
0010
0100
1000
0000
1001
0000
,
0001
0001
0001
0000
0010
0010
0010
0000
,
0100
0100
0100
1000
0010
0100
0001
0000
,
1000
1000
1000
0000
0100
0100
0100
0000
,
0010
0001
0100
0010
1000
0000
1001
0000
,
0001
0001
0010
0000
1000
1000
0010
0000
,
0001
0001
0010
0100
1000
0100
0100
0000
,
1000
1000
0100
0000
0001
0001
0100
0000
,
1000
0100
0010
0001
1000
0000
1001
0000
,
0001
0100
1000
0000
1000
0100
0001
0000
,
1000
0100
0010
0001
0010
0100
0100
0000
,
1000
0010
0001
0000
0001
0010
1000
0000
,
0001
0010
0100
1000
0001
0000
1001
0000
,
1100
0000
0000
1001
0000
0000
0101
0000
,
0011
0000
0000
1001
0000
0000
1010
0000
,
1000
0000
0100
0000
0010
0001
1000
0010
,
0100
0001
0010
0100
1000
0001
0001
0000
,
0101
0000
0000
0110
0000
0000
1010
0000
,
1100
0000
0000
0110
0000
0000
0011
0000
,
1000
0001
1001
0000
0001
1000
1001
0000
,
0220
0000
0000
0330
,
1000
0000
0000
1000
0010
0000
0100
0000
0001
0000
0010
0000
0100
0000
1000
0000
,
0001
0000
0000
0001
1000
0000
0010
0000
1000
0000
0001
0000
0010
0000
0001
0000
,
1000
0000
0000
1000
0100
0000
0010
0000
0001
0000
0000
0001
0100
0000
0020
0000
,
0200
0000
0000
0300
0030
1000
0100
0010
,
0001
0000
0000
0001
1000
0000
0010
0000
0100
0000
0001
0000
0010
0000
0100
0000
,
1000
0000
0000
1000
0001
0000
0010
0000
0100
0000
0010
0000
0001
0000
1000
0000
,
0010
0000
0000
0010
0100
0000
0001
0000
1000
0000
0100
0000
0010
0000
0002
0000
,
2000
0000
0000
0000
3003
1000
0001
0100
,
0010
0000
0000
0010
1000
0000
0000
1000
0001
0000
0010
0000
0100
0000
1000
0000
,
0001
0000
0000
0001
0100
0000
0000
0010
1000
0000
0100
0000
0010
0000
0001
0000
,
1000
0000
0000
1000
0010
0000
0100
0000
0001
0000
0010
0000
0100
0000
2000
0000
,
0002
0000
0000
0000
3003
1000
0010
0100
,
0001
0000
0000
0001
1000
0000
0010
0000
0100
0000
0010
0000
1000
0000
0100
0000
,
0010
0000
0000
0010
0001
0000
1000
0000
0001
0000
0100
0000
0010
0000
1000
0000
,
0001
0010
0100
1000
0001
0100
0010
1000
,
0200
0001
0010
1000
,
0320
1000
0100
0031
,
2002
0000
0000
3003
,
0220
0000
0000
0330
0000
0000
0000
0000
,
1100
1100
1001
1001
,
0101
0101
1001
1001
,
1010
0011
0101
1100
,
0000
0110
0220
0330
,
0011
1010
0011
1010
,
1100
0101
1100
0101
,
0011
1010
1100
0101
,
0000
1001
2002
3003
,
1000
0000
1000
0100
0000
0100
0010
0000
,
0010
0001
0000
0001
1000
0000
0001
0000
,
1000
0000
1000
0010
0000
0010
0100
0000
,
0001
1001
0220
0330
,
0001
0010
0001
0010
0001
0010
0001
0000
,
1000
0010
1000
0010
1000
0010
1000
0000
,
0001
0010
0100
1000
0001
0100
0010
1000
,
0000
1001
0000
0000
0110
0000
1001
0000
,
1000
0100
0010
0001
0010
0100
0010
0001
,
1000
0100
0010
0100
1000
0001
0100
0010
,
1000
0010
0100
0010
1000
0001
0100
0010
,
0100
0001
1000
0100
0010
0001
1000
0010
,
0100
0001
0100
0000
0002
0000
0000
0000
1003
0100
1000
0000
0200
0000
0000
0000
,
0310
0001
0010
0000
0002
0000
0000
0000
1003
0010
1000
0000
0020
0000
0000
0000
,
1030
0100
0010
0001
1000
0010
0100
0001
,
1000
0100
1000
0001
0100
0001
1000
0010
,
0200
0000
0300
0000
,
0001
0000
0000
0001
0010
0000
0000
0010
0100
0000
0100
0000
1000
0000
1000
0000
,
0001
0000
0000
0001
0100
0000
0000
0100
0010
0000
0010
0000
1000
0000
1000
0000
,
0001
0000
0000
0001
1000
0000
0000
1000
0010
0000
0010
0000
0100
0000
0002
0000
,
2000
0000
0000
0000
3003
1000
0100
0010
,
0001
0000
0000
1000
0010
0000
0000
0100
0001
0000
1000
0000
0100
0000
1000
0000
,
0010
0000
0000
1000
0100
0000
0000
0010
0001
0000
1000
0000
0010
0000
1000
0000
,
0001
0100
0010
1000
0001
0010
0100
1000
,
0002
0000
0000
0003
1001
0110
1001
0110
,
2000
0000
3100
0010
0001
0100
0010
1000
,
0001
0000
0000
0001
1000
0000
0100
0000
1000
0000
0001
0000
0100
0000
0001
0000
,
1000
0000
0000
1000
0010
0000
0100
0000
0001
0000
0000
0001
0010
0000
0200
0000
,
0020
0000
0000
0030
0300
1000
0010
0100
,
0001
0000
0000
0001
1000
0000
0100
0000
0010
0000
0001
0000
0100
0000
0010
0000
,
1000
0000
0000
1000
0001
0000
0100
0000
0010
0000
0100
0000
0001
0000
1000
0000
,
0100
0000
0000
0100
0010
0000
0001
0000
1000
0000
0010
0000
0100
0000
0002
0000
,
2000
0000
0000
0000
3003
1000
0001
0010
,
0100
0000
0000
0100
1000
0000
0000
1000
0001
0000
0100
0000
0010
0000
1000
0000
,
0001
0000
0000
0001
0010
0000
0000
0100
1000
0000
0010
0000
0100
0000
0001
0000
,
1000
0000
0000
1000
0100
0000
0010
0000
0001
0000
0100
0000
0010
0000
2000
0000
,
0002
0000
0000
0000
3003
1000
0100
0010
,
0001
0000
0000
0001
1000
0000
0100
0000
0010
0000
0100
0000
1000
0000
0010
0000
,
0100
0000
0000
0100
0001
0000
1000
0000
0001
0000
0010
0000
0100
0000
1000
0000
,
0001
0100
0010
1000
0001
0010
0100
1000
,
0020
0001
0100
1000
,
0230
1000
0010
0301
,
2002
0000
0000
3003
,
1000
0100
0010
0001
1000
0100
0010
0000
,
0200
0001
0010
1000
,
0320
1000
0100
0031
,
2002
0000
0000
3003
,
0220
0000
0000
0330
0000
0000
0000
0000
,
1001
0000
0011
0000
0010
0100
0000
1100
,
0000
1001
0000
1000
0001
0100
0010
1000
,
0001
0000
1100
0000
0100
0010
0000
0110
,
0000
0011
0000
0001
0100
0010
1000
0001
,
1001
0000
1010
0000
0010
0100
0000
0101
,
0000
1001
0000
0001
1000
0100
0010
0001
,
1000
0000
0101
0000
0100
0010
0000
0110
,
0000
1010
0000
1000
0100
0010
0001
1000
,
2002
0000
0000
3003
,
0220
0000
0000
0000
,
0000
0000
0000
0000
,
0000
0000
0330
0000
;

//--------------- dance-single - TiKAL ----------------
#NOTES:
     dance-single:
     TiKAL:
     Challenge:
     14:
     0,0,0,0,0:
0000
0000
0000
0000
,
0000
0000
0000
0000
,
1000
0000
0001
0000
1000
0010
0100
0000
0001
0000
1000
0000
0001
1000
0001
0000
,
1000
0000
0100
0000
0010
0100
0010
0000
0001
0000
0100
0000
0010
0000
1000
0000
,
0001
0000
0010
0000
0001
1000
0001
0000
1000
0000
0100
0000
0010
0100
0010
0000
,
0001
0000
1000
0000
0010
0100
0010
0000
1000
0000
0001
0000
0010
0000
0100
0000
,
1000
0000
0001
0000
1000
0100
0010
0000
0001
0000
1000
0000
0001
1000
0001
0000
,
1000
0000
0010
0000
0100
0010
0100
0000
0001
0000
0010
0000
0100
0000
1000
0000
,
0001
0000
0100
0000
0001
1000
0001
0000
1000
0000
0100
0000
0010
0100
0010
0000
,
0001
0000
1000
0000
0010
0100
0010
0000
1000
0000
0001
0000
0010
0000
0100
0000
,
0000
0000
0110
0000
0110
0000
0110
0000
0010
0100
0010
0100
1000
0001
1000
0001
,
1000
0010
1000
0010
1000
0000
0000
0000
0001
0010
0001
0010
0001
0000
0000
0000
,
1000
0100
1000
0100
1000
0000
0001
0000
0100
0000
0010
0000
1000
0000
0001
0000
,
0010
0001
0010
0001
0010
0000
0000
0000
0001
1000
0001
1000
0001
0000
0000
0000
,
1000
0010
1000
0010
1000
0000
0001
0000
0100
0000
0010
0000
1000
0000
0001
0000
,
0010
0001
0010
0001
1000
0000
0000
0000
0010
1000
0010
1000
0001
0000
0000
0000
,
0100
0001
0100
0001
1000
0000
0001
0000
0100
0000
0010
0000
1000
0000
0001
0000
,
0010
0100
0010
0001
0010
0000
0000
0000
0100
0010
0100
1000
0100
0000
0000
0000
,
1000
0001
0100
0001
1000
0000
0100
0000
0010
0000
0001
0000
0100
0000
0010
0000
,
0100
0001
1000
0100
1000
0000
0000
0000
0010
1000
0001
0010
0001
0000
0000
0000
,
0100
0001
1000
0100
0010
0000
0001
0000
1000
0000
0010
0000
0100
0000
0001
0000
,
1000
0010
0100
0001
1000
0000
0000
0000
0001
0010
0100
1000
0001
0000
0000
0000
,
1000
0100
0010
0001
1000
0000
0010
0000
0100
0000
0001
0000
0010
0000
0100
0000
,
0010
0001
1000
0001
0100
0000
0000
0000
0010
1000
0001
1000
0100
0000
0000
0000
,
0010
0100
1000
0001
0100
0000
0010
0000
0100
0000
0001
0000
1000
0000
0100
0000
,
0010
0001
1000
0010
0100
0000
0000
0000
0010
1000
0001
0010
0100
0000
0000
0000
,
1000
0001
0100
0010
1000
0000
0100
0000
0010
0000
0001
0000
1000
0000
0001
0000
,
1001
0001
0100
0000
0110
0010
1000
0000
,
1001
1000
0100
0110
0010
0001
1001
0000
,
0001
0100
0001
1000
0100
1000
0001
0010
,
0001
1000
0010
1000
0001
0010
0100
1000
,
1001
1000
0010
0000
0110
0100
0001
0000
,
1001
0001
0010
0110
0100
1000
1001
0000
,
0011
0001
1001
0000
1001
1000
1010
0000
,
0210
0302
2003
3200
,
0310
0000
0001
0000
1000
0010
1000
0000
0001
0000
0010
0000
0100
0000
1000
0000
,
0001
0000
0100
0000
0010
1000
0010
0000
0100
0000
0001
0000
1000
0000
0100
0000
,
0010
0000
0001
0000
1000
0100
1000
0000
0001
0000
0010
0000
0100
1000
0001
0000
,
1000
0000
0010
0000
0100
0001
1000
0000
0001
0000
0010
0000
0100
0000
1000
0000
,
0001
0000
0100
0000
0010
0100
0010
0000
1000
0000
0100
0000
0010
0001
0010
0000
,
0001
0000
1000
0000
0100
0010
0100
0000
0010
0000
0001
0000
1000
0000
0010
0000
,
0100
0000
0001
0000
1000
0100
1000
0000
0001
0000
0010
0000
0100
0010
0100
0010
,
0001
1000
0001
1000
0001
0010
0100
1000
0001
1000
0010
0100
0001
1000
0100
0010
,
0001
0000
1000
0000
0010
0100
0010
0000
1000
0000
0001
0000
0100
0000
0010
0000
,
1000
0000
0100
0000
0010
0001
0010
0000
0100
0000
1000
0000
0001
0000
0100
0000
,
0010
0000
1000
0000
0001
0010
0001
0000
1000
0000
0100
0000
0010
0001
1000
0000
,
0001
0000
0100
0000
0010
1000
0001
0000
1000
0000
0100
0000
0010
0000
0001
0000
,
1000
0000
0010
0000
0100
0010
0100
0000
0001
0000
0010
0000
0100
1000
0100
0000
,
1000
0000
0001
0000
0100
0010
0100
0000
0010
0000
1000
0000
0001
0000
0010
0000
,
0100
0000
1000
0000
0001
0010
0001
0000
1000
0000
0010
0000
0100
0000
0001
0000
,
1000
0100
0010
0001
1000
0010
0100
0001
1000
0100
0010
0100
1000
0001
0010
0100
,
1000
0001
0100
0010
0100
0001
1000
0001
0100
0010
1000
0001
0010
0100
0010
0001
,
1000
0100
0010
0100
0010
0001
1000
0001
0100
0010
1000
0100
0010
0001
0100
0010
,
2000
0000
0000
3000
0000
0000
0000
0000
,
0001
0000
0010
0000
0100
0000
1000
0000
0001
0100
0001
0100
0001
0000
1000
0000
,
0100
0000
0010
0000
0001
0000
1000
0000
0010
1000
0010
1000
0010
0000
0100
0000
,
0001
0000
0010
0000
0100
0000
1000
0000
0001
1000
0001
1000
0001
0000
1000
0000
,
0100
0000
0010
0000
0001
0000
1000
0010
0100
0001
1000
0000
0001
0000
0010
0000
,
0110
0000
0100
0000
1000
0000
0001
0000
0000
0000
0010
0100
0010
0000
0001
0000
,
1000
0000
0100
0000
0010
0000
0001
0000
0000
0000
1000
0010
1000
0000
0001
0000
,
1000
0000
0100
0000
0010
0000
0001
0000
0000
0000
0010
0100
0010
0000
0100
0000
,
1000
0000
0001
0000
0100
0000
0010
1000
0001
0100
0010
0000
1000
0000
0001
0000
,
1000
0000
0100
0000
0010
0001
1000
0000
0001
0000
0010
0000
0100
1000
0001
0000
,
1000
0000
0010
0000
0100
0001
1000
0000
0001
0010
0100
1000
0001
0000
1000
0000
,
0010
0000
0100
0000
0001
1000
0001
0000
1000
0000
0100
0000
0010
0100
0010
0000
,
0001
0000
1000
0000
0010
0000
0100
0010
1000
0001
1000
0000
0100
0000
0010
0000
,
0001
0000
0010
0000
0100
1000
0001
0000
1000
0000
0100
0000
0010
0001
1000
0000
,
0001
0000
0100
0000
0010
1000
0001
0000
1000
0100
0010
0001
1000
0000
0001
0000
,
0100
0000
0010
0000
1000
0001
1000
0010
0100
0001
0010
0100
0010
0001
0100
0010
,
1000
0001
0100
0010
1000
0000
1010
1000
,
0001
0010
0100
0010
0001
1000
0001
0100
0010
1000
0010
0100
0001
0010
0100
1000
,
0001
0100
0001
1000
0100
0010
0001
1000
0010
1000
0001
0010
0001
1000
0001
0100
,
0010
1000
0100
0010
0001
1000
0010
0100
0001
0010
0100
0010
0100
1000
0001
0100
,
0010
1000
0100
0010
0001
1000
0010
0100
0010
1000
0001
0010
0100
1000
0001
0100
,
0010
1000
0001
0100
0020
0000
0000
0000
0130
0001
1000
0100
0020
0000
0000
0000
,
0031
0010
0100
1000
0002
0000
0000
0000
1003
0010
0100
0001
2000
0000
0000
0000
,
3001
0010
0001
0100
0010
1000
0100
1000
0001
0010
0100
0010
0001
1000
0010
0100
,
0001
1000
0100
0010
0001
1000
0010
1000
0001
0100
0010
1000
0100
0010
0001
1000
,
0020
0000
0000
0000
0030
0100
0001
1000
,
0001
0000
0000
0001
0100
0000
0000
0100
1000
0000
0100
0000
0001
0000
0010
0000
,
1000
0000
0000
1000
0010
0000
0000
0010
0001
0000
1000
0000
0010
0000
0100
0000
,
0001
0000
0000
0001
0010
0000
0000
0010
1000
0000
0010
0000
0001
0000
0100
0000
,
2000
0000
0000
0000
0000
0000
0000
0000
0000
0000
0000
0000
3000
0000
0000
0000
0100
0000
0000
0000
0001
0000
0000
0001
1000
0000
0100
0000
0010
0000
0001
0000
,
1000
0000
0001
0010
1000
0000
1000
0010
0001
0000
1000
0000
0100
0000
0010
0000
,
0001
0000
1000
0100
0001
0000
0001
0100
1000
0000
0001
0000
0100
0000
0010
0000
,
1000
0000
1010
0000
1001
0000
0011
0000
0001
0000
0101
0000
0001
1000
0001
0000
,
1001
0000
1000
0000
0001
0010
0100
1000
0001
0000
0011
0000
0110
0000
1100
0000
,
1000
0001
1000
0001
1000
0000
0100
0000
0010
0000
0001
0000
0100
0000
0010
0000
,
1000
0000
0100
0000
0010
0001
0010
0000
0100
0000
1000
0000
0001
0000
0100
0000
,
0010
0000
1000
0000
0001
0100
0001
0000
1000
0000
0010
0000
0100
0001
1000
0000
,
0001
0000
0010
0000
0100
1000
0001
0000
1000
0000
0010
0000
0100
0000
0001
0000
,
1000
0000
0100
0000
0010
0100
0010
0000
0001
0000
0100
0000
0010
0000
1000
0000
,
0001
0000
1000
0000
0010
0100
0010
0000
0100
0000
0001
0000
1000
0000
0100
0000
,
0010
0000
0001
0000
1000
0010
1000
0000
0001
0000
0100
0000
0010
0100
0010
0000
,
1000
0001
1000
0001
1000
0010
0100
0001
1000
0001
0010
0100
1000
0001
0100
0010
,
1000
0000
0001
0000
0010
0100
0010
0000
0001
0000
1000
0000
0100
0010
0100
0000
,
1000
0000
0010
0000
0100
0001
0100
0000
0010
0000
1000
0000
0001
0000
0010
0000
,
0100
0000
1000
0000
0001
0100
0001
0000
1000
0000
0010
0000
0100
0001
1000
0000
,
0001
0000
0010
0000
0100
1000
0001
0000
1000
0000
0010
0000
0100
0000
0001
0000
,
1000
0000
0100
0000
0010
0100
0010
0000
0001
0000
0100
0000
0010
1000
0010
0000
,
1000
0000
0001
0000
0010
0100
0010
0000
0100
0000
1000
0000
0001
0000
0100
0000
,
0010
0000
1000
0000
0001
0100
0001
0000
1000
0000
0100
0000
0010
0000
0001
0000
,
1000
0100
0010
0001
1000
0010
0100
0001
1000
0100
0010
0100
1000
0001
0010
0100
,
1000
0001
0100
0010
0100
0001
1000
0001
0100
0010
1000
0001
0010
0100
0010
0001
,
1000
0100
0010
0100
0010
0001
1000
0001
0100
0010
1000
0100
0010
0001
0100
0010
,
1000
0001
0010
0100
1000
0001
0010
0100
0010
0001
1000
0010
0100
0001
1000
0100
,
0010
0100
0010
0001
1000
0100
1000
0001
0010
0001
1000
0010
0100
0001
1000
0100
,
0010
0100
1000
0001
0100
0001
0010
0100
1000
0010
0100
0010
0100
0001
1000
0010
,
0100
0001
1000
0100
0010
0001
1000
0010
0100
0001
1000
0001
0010
0100
1000
0001
,
0200
0000
0010
0300
0010
0000
0010
0000
,
1000
0000
0001
0000
1000
0000
0100
0000
0010
0000
0001
0000
1000
0001
1000
0000
,
0001
0000
0010
0000
0100
0010
0100
0000
1000
0000
0010
0000
0100
0000
0001
0000
,
1000
0000
0100
0000
1000
0001
1000
0000
0001
0000
0010
0000
0100
0010
0100
0000
,
1000
0000
0001
0000
0100
0010
0100
0000
0001
0000
1000
0000
0100
0000
0010
0000
,
0001
0000
1000
0000
0001
0010
0100
0000
1000
0000
0001
0000
1000
0001
1000
0000
,
0001
0000
0100
0000
0010
0100
0010
0000
1000
0000
0100
0000
0010
0000
0001
0000
,
1000
0000
0010
0000
1000
0001
1000
0000
0001
0000
0010
0000
0100
0010
0100
0000
,
1000
0000
0001
0000
0100
0010
0100
0000
0001
0000
1000
0000
0100
0000
0010
0000
,
0002
0000
0100
0000
1003
0100
0010
0001
,
2002
0000
0000
0000
,
0000
0000
0000
0000
,
0000
0000
3003
0000
;
