#TITLE:Let's Dance, Boys!;
#SUBTITLE:(2nd Climax Ver.);
#ARTIST:原田尚文;
#TITLETRANSLIT:;
#SUBTITLETRANSLIT:;
#ARTISTTRANSLIT:Naofumi Harada;
#GENRE:Jazz;
#CREDIT:Gameoson x vincentw;
#BANNER:[Round H] - Let's Dance, Boys! (2nd Climax Ver.).png;
#BACKGROUND:[Round H] - Let's Dance, Boys! (2nd Climax Ver.)-bg.png;
#LYRICSPATH:;
#CDTITLE:cdtitle.png;
#MUSIC:[Round H] - Let's Dance, Boys! (2nd Climax Ver.).ogg;
#OFFSET:-1.124510;
#SAMPLESTART:78.771568;
#SAMPLELENGTH:14.117653;
#SELECTABLE:YES;
#BPMS:0.000000=136.000000
;
#STOPS:
;
#BGCHANGES:;
#KEYSOUNDS:;
#ATTACKS:;

//---------------dance-single - ----------------
#NOTES:
     dance-single:
     C 02 X 03:
     Beginner:
     2:
     0.133302,0.215305,0.030594,0.206509,0.000000,122.000000,118.000000,4.000000,27.000000,0.000000,0.000000,0.133302,0.215305,0.030594,0.206509,0.000000,122.000000,118.000000,4.000000,27.000000,0.000000,0.000000:
// measure 0
0000
0000
0000
0000
,  // measure 1
0000
0000
0000
0000
,  // measure 2
0000
0000
0000
0000
,  // measure 3
0000
0000
0000
0000
,  // measure 4
1000
0000
0000
0000
,  // measure 5
0000
0000
0001
0000
,  // measure 6
0001
0000
1000
0000
,  // measure 7
1000
0000
0000
0000
,  // measure 8
0020
0000
0000
0000
,  // measure 9
0000
0030
0100
0000
,  // measure 10
0200
0000
0000
0000
,  // measure 11
0000
0300
0000
0000
,  // measure 12
0001
0000
0001
0000
,  // measure 13
2000
0000
3000
0000
,  // measure 14
0010
0000
0010
0000
,  // measure 15
0200
0000
0300
0000
,  // measure 16
0002
0000
0000
0003
,  // measure 17
2000
0000
0000
3000
,  // measure 18
0020
0000
0000
0000
,  // measure 19
0000
0030
0000
0000
,  // measure 20
0100
0000
0100
0000
,  // measure 21
0100
0100
0000
0000
,  // measure 22
0001
0000
0001
0000
,  // measure 23
0002
0000
0003
0000
,  // measure 24
1000
0000
1000
0000
,  // measure 25
1000
1000
0000
0000
,  // measure 26
0010
0000
0010
0000
,  // measure 27
0000
0000
0000
0000
,  // measure 28
0000
1001
0000
0000
,  // measure 29
0100
0000
0000
0000
,  // measure 30
0010
0000
0100
0000
,  // measure 31
0010
0000
0000
0000
,  // measure 32
0110
0000
0000
0000
,  // measure 33
1000
0000
1000
0000
,  // measure 34
0001
0000
1000
0000
,  // measure 35
0010
0000
0000
0000
,  // measure 36
0110
0000
0100
0000
,  // measure 37
0001
0001
0001
0000
,  // measure 38
1000
0000
0100
0000
,  // measure 39
0010
0000
0001
0000
,  // measure 40
1000
1000
1000
0000
,  // measure 41
0001
0000
0100
0000
,  // measure 42
0010
0000
1000
0000
,  // measure 43
0002
0000
2000
0000
0000
3003
0000
0000
,  // measure 44
0001
0000
0100
0000
,  // measure 45
0010
0000
0100
0000
,  // measure 46
0001
0001
1000
0000
,  // measure 47
0020
0030
2000
3000
,  // measure 48
0001
0000
0010
0000
,  // measure 49
0100
0000
0010
0000
,  // measure 50
0001
0000
1000
0000
,  // measure 51
0200
0000
0000
0300
,  // measure 52
1000
1000
1000
0000
,  // measure 53
0010
0010
0010
0000
,  // measure 54
0100
0100
0100
0000
,  // measure 55
0020
0030
2000
3000
,  // measure 56
0001
1000
0001
0000
,  // measure 57
1000
0001
1000
0000
,  // measure 58
0100
0010
0100
0000
,  // measure 59
0010
0100
0010
0100
,  // measure 60
0020
0030
0200
0300
,  // measure 61
0020
0030
0200
0300
,  // measure 62
2000
3000
0002
0003
,  // measure 63
2000
3000
0002
0003
,  // measure 64
2000
0000
0100
0000
,  // measure 65
3002
0000
0100
0000
,  // measure 66
2003
0000
0010
0000
,  // measure 67
3002
0000
0000
0000
0010
0000
0000
0003
,  // measure 68
0000
0000
0000
0000
,  // measure 69
0001
0000
0000
1000
,  // measure 70
0000
0000
0000
1001
0000
0000
0000
0000
;

//---------------dance-single - ----------------
#NOTES:
     dance-single:
     C 04 X 06:
     Easy:
     4:
     0.223991,0.269131,0.084133,0.244751,0.068836,205.000000,194.000000,11.000000,32.000000,0.000000,0.000000,0.223991,0.269131,0.084133,0.244751,0.068836,205.000000,194.000000,11.000000,32.000000,0.000000,0.000000:
// measure 0
0000
0000
0000
0000
,  // measure 1
0000
0000
0000
0000
,  // measure 2
0000
0000
0000
0000
,  // measure 3
0000
0000
0000
0000
,  // measure 4
1002
0000
0000
0000
,  // measure 5
0010
0000
0203
0000
,  // measure 6
0320
0000
1000
0000
,  // measure 7
0100
0130
0000
0000
,  // measure 8
0002
0000
0200
0000
,  // measure 9
0000
0303
0100
0010
,  // measure 10
0200
0000
0002
0000
,  // measure 11
0000
0303
0000
0000
,  // measure 12
1000
0100
1000
0000
,  // measure 13
0002
0100
2003
0000
,  // measure 14
3002
0010
2000
0000
,  // measure 15
0000
0000
3003
0000
,  // measure 16
2000
0000
0000
0000
,  // measure 17
3020
0000
0000
0000
,  // measure 18
0200
0000
0000
0000
,  // measure 19
0000
0330
0000
0000
,  // measure 20
0110
0000
0000
0000
0010
0010
0000
0000
,  // measure 21
1000
0000
0010
0010
0000
0000
0100
0000
,  // measure 22
0000
0000
0001
0000
1000
1000
0000
0000
,  // measure 23
0002
0023
0230
2300
,  // measure 24
3000
0000
0001
0000
1000
1000
0000
0000
,  // measure 25
0010
0000
0100
0100
0000
0000
0001
0000
,  // measure 26
0000
0000
1000
0000
0100
0100
0000
0000
,  // measure 27
0220
0000
0000
0000
,  // measure 28
0330
1001
0000
0000
,  // measure 29
0001
0100
0001
0000
,  // measure 30
1000
0010
1000
0001
,  // measure 31
0001
0000
1000
1000
,  // measure 32
1001
0000
0001
0000
,  // measure 33
0010
0100
0010
0000
,  // measure 34
0001
0010
0001
1000
,  // measure 35
1000
0000
0010
0100
,  // measure 36
0110
0000
0000
0000
1000
1000
0000
0000
,  // measure 37
0001
0100
0010
0000
,  // measure 38
1000
0000
0010
0000
0100
0000
0000
0001
,  // measure 39
0000
0001
0000
0000
1000
0000
0100
0000
,  // measure 40
0010
0100
1000
0000
,  // measure 41
0002
0000
0020
0033
,  // measure 42
0001
0010
1000
0010
,  // measure 43
0001
0000
1000
0000
0000
1001
0000
0000
,  // measure 44
0001
0100
0010
1000
,  // measure 45
0010
0000
0100
0000
0002
0000
0000
0003
,  // measure 46
1000
0001
0100
0010
,  // measure 47
0000
0110
0000
1001
,  // measure 48
1000
0100
0010
0001
,  // measure 49
0010
0000
0100
0000
2000
0000
0000
3000
,  // measure 50
0000
0001
0010
0100
,  // measure 51
2000
3200
0302
0203
,  // measure 52
1300
1000
0001
0001
,  // measure 53
0100
0100
0010
0010
,  // measure 54
1000
0001
0100
0010
,  // measure 55
0000
1000
0000
0000
1000
0000
0000
0000
0000
0100
0000
0000
0100
0000
0000
0000
,  // measure 56
1000
0001
0010
0100
,  // measure 57
1000
0001
0100
0010
,  // measure 58
1000
0001
1000
0001
,  // measure 59
2000
3200
0302
0023
,  // measure 60
1030
0000
0000
1000
0000
0000
0000
0000
0001
0000
0000
0001
0000
0000
0000
0000
,  // measure 61
0010
0000
0000
0010
0000
0000
0000
0000
0100
0000
0000
0100
0000
0000
0000
0000
,  // measure 62
0010
0000
0000
0010
0000
0000
0000
0000
0001
0000
0000
0001
0000
0000
0000
0000
,  // measure 63
1000
0000
0000
1000
0000
0000
0000
0000
0000
0010
0000
0000
0010
0000
0000
0000
,  // measure 64
1000
0000
0000
0010
0000
0000
0000
0000
1000
0000
0000
0010
0000
0000
0000
0000
,  // measure 65
0100
0000
0000
0001
0000
0000
0000
0000
0100
0000
0000
0001
0000
0000
0000
0000
,  // measure 66
1000
0000
0000
0100
0000
0000
0000
0000
1000
0000
0000
0100
0000
0000
0000
0000
,  // measure 67
0010
0000
0000
0001
0000
0000
0000
0000
1000
0000
0000
0000
0000
0000
1001
0000
,  // measure 68
0000
0000
0000
0000
,  // measure 69
0010
0000
0000
0100
0000
0000
0010
0000
,  // measure 70
0000
0100
0000
0000
0000
0000
1001
0000
0000
0000
0000
0000
0000
0000
0000
0000
;

//---------------dance-single - ----------------
#NOTES:
     dance-single:
     C 06 X 09:
     Medium:
     6:
     0.344181,0.376783,0.068836,0.122376,0.183563,315.000000,306.000000,9.000000,16.000000,0.000000,0.000000,0.344181,0.376783,0.068836,0.122376,0.183563,315.000000,306.000000,9.000000,16.000000,0.000000,0.000000:
// measure 0
0000
0000
0000
0000
,  // measure 1
0000
0000
0000
0000
,  // measure 2
0000
0000
0000
0000
,  // measure 3
0000
0000
0000
0000
,  // measure 4
1001
0000
1000
0001
0000
0000
0000
0000
,  // measure 5
1000
0100
0010
0001
,  // measure 6
1000
0000
1000
0001
0000
0001
1000
0000
,  // measure 7
0010
0100
0001
0001
,  // measure 8
2000
0000
3020
0000
,  // measure 9
0000
0000
0000
0000
0030
0000
1000
0000
0100
0000
0000
0010
0000
0000
0001
0000
,  // measure 10
0020
0000
0200
0000
,  // measure 11
0000
0330
0000
0000
,  // measure 12
1000
0010
1000
0001
0000
0000
1000
0000
,  // measure 13
0001
0010
0001
0000
0100
0000
0100
0000
,  // measure 14
0001
0010
0100
2000
0000
0000
0100
0000
,  // measure 15
0001
0000
0000
0000
0100
0000
0000
0000
3010
0000
0000
0010
0000
0000
0000
0000
,  // measure 16
0020
0000
1000
0000
0000
0100
0000
0000
,  // measure 17
0230
0000
0000
0000
0000
1000
0000
0000
,  // measure 18
0002
0000
0300
0000
,  // measure 19
2003
0000
0000
0000
0000
0000
0000
0000
3010
0000
0000
0100
0000
0000
0010
0000
,  // measure 20
0100
0000
0000
0000
0001
0000
0000
0000
1000
0000
0100
0000
0000
0100
0000
0000
,  // measure 21
1000
0000
0001
0000
0100
0020
0000
0000
,  // measure 22
1030
0000
0000
0000
0001
0000
0000
0000
0010
0000
0100
0000
0000
0100
0000
0000
,  // measure 23
0000
0000
1000
0000
0001
0000
0000
0000
0000
0000
0010
0000
0000
0100
0000
0000
,  // measure 24
1000
0000
0000
0000
0001
0000
0000
0000
0100
0000
0010
0000
0000
0010
0000
0000
,  // measure 25
1000
0000
0001
0000
0010
0200
1000
0000
,  // measure 26
0310
0000
0000
0000
0010
0000
0000
0000
0001
0000
1000
0000
0000
0001
0000
0000
,  // measure 27
0000
0000
0000
0000
0000
0000
0000
0000
0100
0000
0000
0100
0000
0000
0100
0000
,  // measure 28
0010
0000
1001
0000
1000
0000
0000
1000
,  // measure 29
0000
0001
0100
0000
0001
1000
0010
0000
,  // measure 30
0100
0000
0001
0100
0001
0000
0010
0100
,  // measure 31
0000
1000
0010
0000
0100
0100
0100
0000
,  // measure 32
0101
0000
0000
0000
0001
0000
0000
1000
0000
0000
0000
0000
0100
0000
0010
0000
,  // measure 33
0000
0100
1000
0000
0001
0100
0010
0100
,  // measure 34
0000
0001
0000
0010
0000
0100
0000
1000
,  // measure 35
0000
0001
0100
0000
0001
1000
0010
1000
,  // measure 36
0001
0000
0000
0000
1000
0000
0000
0000
0010
0000
0000
0010
0000
0000
0000
0000
,  // measure 37
1000
0000
0001
0000
0000
0001
0000
0000
0001
0000
0000
0100
0000
0000
0010
0000
,  // measure 38
1000
0000
0000
0010
0000
0000
0100
0000
0001
0000
0000
0000
1000
0000
0000
0000
,  // measure 39
0000
0000
0001
0000
0000
0001
0000
0000
0010
0000
0001
0000
1000
0000
0001
0000
,  // measure 40
0000
0110
0000
0000
0001
0000
0100
0000
,  // measure 41
0002
0000
0000
0000
0000
0000
0013
0000
0100
0000
0000
0010
0000
0000
0001
0000
,  // measure 42
1000
0000
0000
0010
0000
0000
0100
0000
0001
0000
0000
0010
0000
0000
0100
0000
,  // measure 43
2000
0000
3002
0000
1003
1001
0000
0000
,  // measure 44
0001
0100
0010
0100
,  // measure 45
0001
0010
0100
0010
,  // measure 46
0001
0100
1000
0100
,  // measure 47
0001
0100
0000
0000
0010
0000
0000
0000
0001
0010
0000
0000
0100
0000
0000
0000
,  // measure 48
0001
1000
0010
1000
,  // measure 49
0001
0000
0010
0000
1000
0000
0010
0001
,  // measure 50
1000
0000
0001
0010
0100
0000
0100
0000
,  // measure 51
1000
0100
1000
0000
0001
0100
0001
0100
,  // measure 52
0001
0000
0000
0000
0010
0000
0000
0000
0001
0000
0000
1000
0000
0000
0010
0000
,  // measure 53
0000
1000
0000
0000
0001
0000
0000
0000
0100
0000
0000
0010
0000
0000
0100
0000
,  // measure 54
0000
0000
0000
0000
0010
0000
0000
0000
1000
0000
0000
0001
0000
0000
1000
0000
,  // measure 55
0000
0010
0000
0000
0101
0000
0000
0000
0000
0010
0000
0000
1100
0000
0000
0000
,  // measure 56
1000
0000
0010
0000
0100
0000
0000
0000
0001
0000
0000
0010
0000
0000
0100
0000
,  // measure 57
0000
1000
0000
0000
0001
0000
0000
0000
1000
0000
0010
0000
1000
0000
0010
0000
,  // measure 58
0000
0000
0100
0000
0001
0000
0010
0000
0001
0000
0000
0001
0000
0000
0001
0000
,  // measure 59
1000
0100
0020
0000
1030
0010
0002
0000
,  // measure 60
1003
0000
0000
0010
0000
0000
0010
0000
1000
0000
0000
0001
0000
0000
0001
0000
,  // measure 61
1000
0000
0000
0100
0000
0000
0100
0000
0010
0000
0000
0100
0000
0000
0010
0000
,  // measure 62
0001
0000
0000
0010
0000
0000
0010
0000
0001
0000
0000
1000
0000
0000
1000
0000
,  // measure 63
0001
0000
0000
0100
0000
0000
0100
0000
0000
0101
0000
0000
1000
0000
0000
0000
,  // measure 64
0001
0000
0010
0000
0000
0010
0000
0000
1000
0000
0010
0000
0000
0010
0000
0000
,  // measure 65
0001
0000
0100
0000
0000
0100
0000
0000
1000
0000
0100
0000
0000
0100
0000
0000
,  // measure 66
0001
0000
0010
0000
0000
0010
0000
0000
1000
0000
0100
0000
0000
0100
0000
0000
,  // measure 67
0001
0000
0100
0000
0000
0100
0000
0000
0001
0000
1000
0000
0010
0000
1000
0000
,  // measure 68
0000
0000
0000
0000
,  // measure 69
0001
0000
0000
0010
0000
0000
0100
0000
0000
0010
0000
0000
1000
0000
0000
0010
,  // measure 70
0000
0001
0000
0000
0000
0000
1001
0000
0000
0000
0000
0000
0000
0000
0000
0000
;

//---------------dance-single - ----------------
#NOTES:
     dance-single:
     C 08 X 12:
     Hard:
     8:
     0.503707,0.592088,0.107079,0.183563,0.497151,461.000000,447.000000,14.000000,24.000000,0.000000,0.000000,0.503707,0.592088,0.107079,0.183563,0.497151,461.000000,447.000000,14.000000,24.000000,0.000000,0.000000:
// measure 0
0000
0000
0000
0000
,  // measure 1
0000
0000
0000
0000
,  // measure 2
0000
0000
0000
0000
,  // measure 3
0000
0000
0000
0000
0000
0000
0000
0000
0000
0000
1000
0000
0001
0010
0000
0000
,  // measure 4
1001
0000
0000
0000
1000
0000
0000
0000
0010
0000
0000
0100
0000
0000
0001
0000
,  // measure 5
0000
0000
0100
0000
0000
0010
0000
0000
1000
0000
0000
0001
0000
0000
0010
0000
,  // measure 6
0001
0000
1000
0000
0001
0010
0100
1000
,  // measure 7
0010
0000
0100
0000
0001
0000
0000
0000
1000
0000
0000
0010
0000
0000
1000
0000
,  // measure 8
0001
0010
1000
0010
0000
0010
0001
0000
,  // measure 9
0010
0000
0001
0000
0100
0000
1000
0000
0100
0000
0000
0010
0000
0000
1000
0000
,  // measure 10
0001
0010
0001
0100
0000
0010
1000
0100
,  // measure 11
0000
0000
1000
0000
0100
0000
0000
0000
1000
0000
0000
0010
0000
0000
0100
0000
,  // measure 12
0001
1000
0010
0100
0000
0001
0010
0000
,  // measure 13
0001
0000
1000
0000
0010
0000
1000
0000
0200
0000
0000
0320
0000
0000
0031
0000
,  // measure 14
1000
0000
0100
2000
0000
0000
0000
0000
0000
0000
0000
0000
3000
0000
0010
0100
,  // measure 15
0010
0000
1000
0000
0100
0000
1000
0000
0001
0000
0010
0001
0000
0000
0000
0000
,  // measure 16
2000
0000
0010
0000
0000
0001
0000
0000
,  // measure 17
3200
0000
0001
0000
0000
0310
0000
0001
,  // measure 18
1000
0010
1000
0100
0000
1000
0001
0010
,  // measure 19
0000
0000
0001
0000
0100
0000
0000
0000
0010
0000
0000
1000
0000
0000
0001
0000
,  // measure 20
0110
0000
0000
0000
1000
0000
0010
0000
1000
0000
0000
0001
0000
0100
0000
0000
,  // measure 21
0001
0000
0010
0000
0001
0000
0000
1000
0000
0000
0200
0000
0000
0000
0300
0000
,  // measure 22
0010
0001
0000
0000
1000
0000
0100
0000
1000
0000
0000
0001
0000
0010
0000
0000
,  // measure 23
0001
0000
0100
0000
0010
0000
0100
0000
0001
1000
0001
0000
0000
0010
0000
0000
,  // measure 24
0001
0100
0000
0000
0010
0000
1000
0000
0100
0000
0000
1000
0000
0001
0010
0000
,  // measure 25
0100
0000
0010
0000
0001
0000
0000
1000
0000
0000
0010
0000
0100
0000
0010
0000
,  // measure 26
1000
0100
0000
0000
0010
0000
1000
0000
0010
0000
0001
1000
0000
0010
0000
0000
,  // measure 27
1000
0000
0000
0100
0000
0001
0000
1000
0000
0010
0000
0100
0000
0010
0000
0001
,  // measure 28
0000
1001
0002
0000
,  // measure 29
1003
0000
0010
0100
0000
0010
0000
0000
1000
0001
0000
1000
0000
0000
0100
0000
,  // measure 30
0010
0000
0000
0000
0000
0000
0000
0000
0000
0000
0000
0001
0000
0000
0000
0000
0000
0000
0000
0000
0000
0000
0000
1000
0000
0000
0000
0000
0000
0000
0000
0000
0100
0000
0000
0000
0000
0000
0000
0000
0000
0000
0000
0000
0000
0000
0000
0000
1000
0000
0000
0000
0000
0000
0000
0000
0010
0000
0000
0000
0000
0000
0000
0000
,  // measure 31
0000
0000
0100
0000
0001
0000
0000
0000
1000
0000
1000
0000
0001
0010
0000
0000
,  // measure 32
1100
0000
0000
1000
0000
0000
0010
0000
0100
0000
0000
0000
0001
0000
1000
0000
,  // measure 33
0000
0000
0100
0000
1000
0010
0000
0100
0010
0000
1000
0000
0001
0100
0001
0000
,  // measure 34
0010
0000
0000
0001
0000
0000
0100
0000
0010
0000
0000
1000
0000
0000
0100
0000
,  // measure 35
1000
0000
0001
0000
1000
0000
0000
0000
0010
0100
0010
0000
1000
0000
0100
0000
,  // measure 36
1100
0000
0000
0000
1000
0000
0000
0000
0100
1000
0001
0100
0000
0000
0010
0000
,  // measure 37
0100
0000
0001
0000
0000
1000
0000
0000
0001
0000
1000
0010
0000
0000
0100
0000
,  // measure 38
0001
0000
0000
0010
0000
0000
1000
0000
0001
0000
0000
0000
0100
0000
1000
0000
,  // measure 39
0000
0000
0001
0000
0000
0001
0000
0000
1000
0000
0010
0000
0100
0000
0010
1000
,  // measure 40
0000
0000
0011
0000
0000
0000
1000
0000
0001
0000
0000
0100
0000
0000
0010
0000
,  // measure 41
2000
0000
0000
0000
0000
0000
3100
0000
0002
0000
0000
0203
0000
0300
1000
0000
,  // measure 42
0002
0000
0000
0203
0000
0000
2300
0000
3002
0000
0000
0023
0000
0000
2030
0000
,  // measure 43
3001
0000
0000
0000
0000
0000
0000
0000
0010
0000
0000
0000
1000
0000
0000
0000
0000
0000
0000
0000
0010
0000
0000
0000
0001
0000
0000
0000
0000
0000
1000
0000
0000
0000
0000
0000
0010
0000
0000
0100
0000
0000
0000
0000
0000
0100
0000
0000
,  // measure 44
0010
0000
0000
0000
1000
0000
0000
0000
0001
0000
0000
0010
0000
0000
0100
0000
,  // measure 45
0000
1000
0000
0000
0001
0000
0000
0000
0100
0001
0100
0001
0000
0000
1000
0000
,  // measure 46
0010
0000
0000
0000
1000
0000
0000
0000
0001
0000
0000
0010
0000
0000
0001
0000
,  // measure 47
0000
1000
0000
0000
0110
0000
0000
0000
0000
0001
0000
0000
0110
0000
1000
0001
,  // measure 48
1000
0000
0000
0000
0100
0000
0000
0000
1000
0000
0000
0010
0000
0000
0001
0000
,  // measure 49
0000
0010
0000
0000
1000
0000
0000
0000
0001
0100
0010
1000
0000
0000
0001
0000
,  // measure 50
1000
0000
0001
0000
0010
0000
0100
0000
1000
0000
0100
0010
0000
0000
0100
0000
,  // measure 51
1000
0010
0001
1000
0010
1000
0001
0010
,  // measure 52
1000
0000
0100
0000
1000
0000
0000
0000
0002
0000
0000
0013
0000
0000
2000
0000
,  // measure 53
0000
3100
0000
0000
0001
0000
0000
0000
1000
0010
0100
0010
0000
0000
1000
0000
,  // measure 54
0010
0000
0001
0000
0010
0000
0000
0000
0100
0000
0000
0010
0000
0000
0100
0000
,  // measure 55
0000
0101
0000
0000
1010
0000
0000
0000
0000
0011
0000
0000
1100
0000
0100
0010
,  // measure 56
1000
0000
0010
0000
0001
0000
0100
0000
0002
0000
0000
0023
0000
0000
2030
0000
,  // measure 57
0000
3200
0000
0000
0301
0010
0001
0000
1000
0000
1000
0001
0000
0000
0001
0100
,  // measure 58
0000
0000
0010
0000
1000
0001
1000
0000
0010
0000
0000
0100
0000
0000
0010
0000
,  // measure 59
1000
0100
0001
1000
0100
1000
0001
0100
,  // measure 60
1000
0000
0000
0010
0000
1000
0010
0000
1000
0000
0000
0001
0000
1000
0001
0000
,  // measure 61
1000
0000
0000
0100
0000
1000
0100
0000
1000
0000
0000
0010
0000
0100
0001
0000
,  // measure 62
0001
0000
0000
0100
0000
0001
0100
0000
0001
0000
0000
1000
0000
0001
1000
0000
,  // measure 63
0001
0000
0000
0010
0000
0001
0010
0000
0000
0101
0000
0000
1000
0010
1000
0000
,  // measure 64
0001
0000
0001
1000
0000
1000
0010
0000
1000
0000
1000
0001
0000
0001
0100
0000
,  // measure 65
0010
0000
0010
1000
0000
1000
0100
0000
0010
0000
0010
0001
0000
0001
0100
0000
,  // measure 66
0010
0000
1000
0001
0000
1000
0010
0000
0100
0000
0001
1000
0000
0001
0100
0000
,  // measure 67
0001
0000
0010
1000
0000
0010
0001
0000
1000
0100
0020
0000
0000
0031
0200
0000
,  // measure 68
0000
0300
0000
0000
,  // measure 69
0001
0010
0100
1000
0000
0000
1000
0010
0100
0001
0000
0000
0001
1000
0100
0010
,  // measure 70
0000
0100
0000
0000
0000
0000
1001
0000
0000
0000
0000
0000
0000
0000
0000
0000
;
