#VERSION:0.83;
#TITLE:L'oiseau qui danse;
#SUBTITLE:;
#ARTIST:Tennyson;
#TITLETRANSLIT:;
#SUBTITLETRANSLIT:;
#ARTISTTRANSLIT:;
#GENRE:Experimental;
#ORIGIN:;
#CREDIT:;
#BANNER:[Round H] - L'oiseau qui danse.png;
#BACKGROUND:[Round H] - L'oiseau qui danse-bg.png;
#PREVIEWVID:;
#JACKET:[Round H] - L'oiseau qui danse-jacket.png;
#CDIMAGE:;
#DISCIMAGE:;
#LYRICSPATH:;
#CDTITLE:cdtitle.png;
#MUSIC:[Round H] - L'oiseau qui danse.ogg;
#OFFSET:-1.846000;
#SAMPLESTART:90.442001;
#SAMPLELENGTH:15.000000;
#SELECTABLE:YES;
#BPMS:0.000=130.000,
231.500=126.000,
232.000=122.000,
232.500=119.000,
233.000=115.000,
233.500=110.500,
234.000=107.000,
234.500=103.000,
235.000=97.000,
235.500=96.000,
236.000=93.000;
#STOPS:63.000=0.923,
124.000=0.462,
187.000=0.462,
202.333=0.462;
#DELAYS:;
#WARPS:;
#TIMESIGNATURES:0.000=4=4;
#TICKCOUNTS:0.000=4;
#COMBOS:0.000=1;
#SPEEDS:0.000=1.000=0.000=0;
#SCROLLS:0.000=1.000;
#FAKES:;
#LABELS:0.000=Song Start;
#BGCHANGES:;
#KEYSOUNDS:;
#ATTACKS:
;

//---------------dance-single - ----------------
#NOTEDATA:;
#CHARTNAME:;
#STEPSTYPE:dance-single;
#DESCRIPTION:;
#CHARTSTYLE:;
#DIFFICULTY:Beginner;
#METER:1;
#RADARVALUES:0.094858,0.126077,0.000000,0.243749,0.000000,79.000000,79.000000,0.000000,29.000000,0.000000,0.000000,0.000000,0.000000,0.000000,0.094858,0.126077,0.000000,0.243749,0.000000,79.000000,79.000000,0.000000,29.000000,0.000000,0.000000,0.000000,0.000000,0.000000;
#CREDIT:;
#NOTES:
0000
0000
0000
0000
,
0000
0000
0000
0000
,
0000
0000
0000
0000
,
0000
0000
0000
0000
,
2000
0000
3000
0000
,
2000
0000
3000
0000
,
0002
0000
0003
0000
,
0002
0000
0003
0000
,
0200
0000
0300
0000
,
0200
0000
0300
0000
,
0020
0000
0030
0000
,
0020
0000
0030
0000
,
2000
0000
3000
0000
,
2000
0000
3000
0000
,
0002
0000
0003
0000
,
0002
0000
0003
0000
,
1000
0000
0000
0000
,
1000
0000
0000
0001
,
0000
0001
0000
0000
,
0001
0000
0100
0000
,
0100
0100
0000
0000
,
0100
0000
0010
0000
,
0010
0000
0010
0000
,
1000
0000
1000
0000
,
0000
0100
0000
0000
,
0010
0000
0010
0000
,
0010
0000
0001
0000
,
0001
0000
1000
0000
,
1000
0000
0001
0000
,
0001
0000
0100
0000
,
0000
0100
0000
0000
,
0001
0002
0000
0003
,
0000
0002
0000
0003
,
0000
0200
0000
0300
,
0000
0200
0000
0300
,
0000
0020
0000
0030
,
0000
0020
0000
0030
,
0000
2000
0000
3000
,
0000
2000
0000
3000
,
0000
0002
0000
0003
,
0000
0002
0000
0003
,
0000
0200
0000
0300
,
0000
0200
0000
0300
,
0000
0020
0000
0030
,
0000
0020
0000
0030
,
0000
2000
0000
3000
,
0000
2000
0000
3000
,
1000
0000
1000
0000
,
0100
0000
0100
0000
,
0010
0000
0010
0000
,
0001
0000
0001
0001
,
0000
0001
0000
0010
,
0000
0010
0000
0100
,
0000
0100
0000
1000
,
0000
1000
0000
0001
,
0000
0000
0100
0000
,
0000
0010
0000
0010
,
0000
0010
0000
1000
,
0000
1000
0000
2000
,
0000
0000
0000
0000
,
3000
0000
0000
0000
;

//---------------dance-single - ----------------
#NOTEDATA:;
#CHARTNAME:;
#STEPSTYPE:dance-single;
#DESCRIPTION:;
#CHARTSTYLE:;
#DIFFICULTY:Easy;
#METER:3;
#RADARVALUES:0.159697,0.226938,0.025215,0.353015,0.000000,133.000000,130.000000,3.000000,42.000000,0.000000,0.000000,0.000000,0.000000,0.000000,0.159697,0.226938,0.025215,0.353015,0.000000,133.000000,130.000000,3.000000,42.000000,0.000000,0.000000,0.000000,0.000000,0.000000;
#CREDIT:;
#NOTES:
0000
0000
0000
0000
,
0000
0000
0000
0000
,
0000
0000
0000
0000
,
0000
0000
0000
0000
,
2000
0000
3000
0000
,
0020
0000
0030
0000
,
0200
0000
0300
0000
,
0002
0000
0003
0000
,
2000
0000
3000
1000
,
0002
0000
0003
0001
,
0200
0300
0020
0030
,
2000
3000
0002
0003
,
2000
0000
3000
1000
,
0002
0000
0003
0001
,
0200
0000
0300
0100
,
0020
0000
0000
0030
,
1000
0000
0000
1000
0000
0000
0001
0000
,
0100
0100
0000
0010
,
0010
1000
1000
0000
,
0001
0001
1000
0000
,
1000
0100
0010
0000
,
0010
0001
1000
0000
,
0010
0000
0100
0000
,
0001
0000
1000
0000
,
1000
0010
0000
0010
,
0100
0100
0002
0003
,
0020
0030
0200
0300
,
2000
3000
0001
0010
,
0100
0000
1000
0100
,
0010
0000
0000
0000
0001
0000
0000
0001
,
0000
0000
1000
0000
0000
1000
0000
0000
,
1001
0002
0000
0003
,
0001
0020
0000
0030
,
0010
2000
0000
3000
,
1000
0200
0000
0300
,
0100
0002
0000
0003
,
0001
0020
0000
0030
,
0010
0200
0000
0300
,
0100
2000
0000
3000
,
1000
0002
0000
0003
,
0001
0200
0000
0300
,
0100
0020
0030
2000
,
3000
0200
0300
0020
,
0030
0002
0000
0003
,
0001
0020
0000
0030
,
0010
0200
0000
0300
,
0100
2000
3000
1001
,
0001
0001
0010
0000
,
0100
0100
1000
0000
,
0001
0001
0100
0100
,
0010
0010
1000
1000
,
1000
0010
0000
0100
,
0100
0001
0000
1000
,
1000
0100
0100
0010
,
0010
0001
0000
0001
,
0000
0001
0010
0000
,
0010
0100
0100
2000
,
3000
0020
0030
0200
,
0300
0002
0003
2002
,
0000
0000
0000
0000
,
3003
0000
0000
0000
;

//---------------dance-single - ----------------
#NOTEDATA:;
#CHARTNAME:;
#STEPSTYPE:dance-single;
#DESCRIPTION:;
#CHARTSTYLE:;
#DIFFICULTY:Medium;
#METER:5;
#RADARVALUES:0.290577,0.327800,0.025215,0.336205,0.071444,242.000000,239.000000,3.000000,40.000000,0.000000,0.000000,0.000000,0.000000,0.000000,0.290577,0.327800,0.025215,0.336205,0.071444,242.000000,239.000000,3.000000,40.000000,0.000000,0.000000,0.000000,0.000000,0.000000;
#CREDIT:;
#NOTES:
0000
0000
0000
0000
,
0000
0000
0000
0000
,
0000
0000
0000
0000
,
0000
0000
0000
0000
,
2000
0000
3010
1000
,
0020
0000
0130
0010
,
0200
0000
0301
0100
,
0002
0000
1003
0001
,
2000
0100
3100
1000
,
0200
0010
0310
0100
,
0020
0001
0032
0100
,
0203
0010
0310
0100
,
0002
0100
0103
0001
,
0200
0010
0310
0100
,
0020
1000
1030
0010
,
2002
0000
0000
3003
,
0001
0000
0100
0010
0100
0000
0001
1000
,
0001
0000
0000
0000
0000
0001
0000
0000
0000
0001
0000
0000
0000
0100
0000
0000
0000
0000
0010
0000
0000
0000
0000
0000
,
0100
0000
0001
1000
0001
0000
0100
0000
,
0010
0000
1000
0001
1000
0000
0010
0100
,
0001
0000
1000
0000
0001
0000
0010
0100
,
1000
0000
0000
0000
0000
1000
0000
0000
0000
1000
0000
0000
0001
0000
0000
0000
0000
0000
0010
0000
0000
0100
0000
0000
,
1000
0000
0001
0000
1000
0000
0010
0100
,
0001
0000
0000
0000
0000
0001
0000
0000
0001
0000
0000
0000
1000
0000
0000
0000
0000
0100
0000
0000
0000
0010
0000
0000
,
0001
0000
0000
0000
0000
0000
1000
0000
0000
0000
0000
0010
0000
0000
0000
0100
0000
0000
0001
0000
0000
0000
0000
0000
,
0100
0000
0000
0000
0000
0010
0000
0000
0000
0000
0000
0000
1000
0000
0000
0100
0000
0000
1000
0000
0000
0000
0000
0000
,
0001
0100
0001
0000
1000
0010
1000
0000
,
0002
0000
0000
0000
0000
0000
1003
0000
0000
0000
0000
0000
1000
0000
0000
0100
0000
0000
0010
0000
0000
0000
0000
0100
,
0000
0000
0000
0000
0000
0000
1000
0000
0000
0000
0000
0000
0001
0000
0000
0100
0000
0000
0010
0000
0000
0000
0000
0100
,
0000
0000
0001
0000
2000
0000
3000
0020
,
0000
0030
0200
0000
0300
0002
0000
0003
,
1000
0002
0100
0103
,
0001
0200
0010
0310
,
0100
0020
1000
1030
,
0010
2000
0001
3001
,
1000
0200
0010
0310
,
0100
0020
0001
0031
,
0010
0002
1000
1003
,
0001
2000
0001
3001
,
1000
0002
0010
0013
,
0001
0020
0100
0130
,
0010
0200
1000
2300
,
0010
3020
0100
0130
,
0010
2000
0010
3010
,
1000
0020
0100
0130
,
0010
0200
0001
0301
,
0100
0001
1000
1001
,
0001
0000
0000
0000
0000
0001
0000
0000
0000
0100
0000
0000
0010
0000
0000
0000
0000
0000
1000
0000
0000
0000
0000
0000
,
1000
0000
0000
0000
0000
1000
0000
0000
0000
0100
0000
0000
0010
0000
0000
0000
0000
0000
0001
0000
0000
0000
0000
0000
,
1000
0010
0100
0001
,
0010
0100
1000
2000
,
3002
0103
0010
0100
,
0001
0000
1000
0000
0100
0000
1000
0010
,
1000
0000
0001
0000
0100
0000
0001
0010
,
0001
0000
0000
0000
0000
0000
1000
0000
0000
0000
0000
1000
0000
0000
1000
0000
0000
0000
0001
0000
0000
0000
0000
0100
,
0000
0000
0000
0010
0000
0000
1000
0000
0000
0000
0000
0000
0001
0000
0000
0000
0000
0010
0000
0000
0000
0100
0000
0000
,
1000
0000
0000
0000
0000
0000
0100
0000
0000
0000
0000
0010
0000
0000
0000
0000
0000
0000
0001
0000
0000
0100
0000
0000
,
0001
0000
1000
0100
1000
0000
0001
0010
,
0001
2000
3001
2002
,
0000
0000
0000
0000
,
3003
0000
0000
0000
;

//---------------dance-single - ----------------
#NOTEDATA:;
#CHARTNAME:;
#STEPSTYPE:dance-single;
#DESCRIPTION:;
#CHARTSTYLE:;
#DIFFICULTY:Hard;
#METER:8;
#RADARVALUES:0.444271,0.504308,0.016810,0.252154,0.336205,370.000000,368.000000,2.000000,30.000000,0.000000,0.000000,0.000000,0.000000,0.000000,0.444271,0.504308,0.016810,0.252154,0.336205,370.000000,368.000000,2.000000,30.000000,0.000000,0.000000,0.000000,0.000000,0.000000;
#CREDIT:;
#NOTES:
0000
0000
0000
0000
,
0000
0000
0000
0000
,
0000
0000
0000
0000
,
0000
0000
0000
0000
,
2000
0010
3010
1000
,
0020
0100
0130
0010
,
0200
0001
0301
0100
,
0002
1000
1003
0001
,
2000
0000
0000
0000
0100
0000
0000
0000
3100
1000
0000
0000
0100
0000
0000
0000
,
0020
0000
0000
0000
0001
0000
0000
0000
0031
0010
0000
0001
0010
0000
0000
0000
,
0002
0100
0203
0010
,
0320
0000
0000
0000
1000
0000
0000
0000
1030
0010
0000
0010
0100
0000
0000
0000
,
0002
0000
0000
0000
0100
0000
0000
0000
0103
0001
0000
0000
0100
0000
0000
0000
,
0020
0000
0000
0000
1000
0000
0000
0000
1030
0010
0000
1000
0010
0000
0000
0000
,
2000
0000
0000
0000
0100
0000
0000
0000
3100
1000
0000
0000
0100
0000
0000
0000
,
2002
0000
0000
3003
,
0001
0100
1000
0100
0001
0010
1000
0010
,
0001
0000
0000
0100
0000
0010
0000
0000
0000
0100
0000
0000
0000
0001
0000
0000
0000
0000
1000
0000
0000
0100
0000
0000
,
0010
0000
0100
0000
0000
0000
1000
0000
0000
0001
0000
0000
0100
0000
0000
0000
0000
0000
0010
0000
1000
0000
0100
0000
,
0010
0000
0001
0000
0000
0000
1000
0000
0100
1000
0000
0100
1000
0000
0000
0010
0000
0000
0001
0000
0000
1000
0000
0000
,
0100
0001
1000
0010
0100
0001
1000
0100
,
0010
0000
0000
0001
0000
0100
0000
0000
0000
0010
0000
0000
0100
0000
0000
0001
0000
0000
0010
0000
0000
0100
0000
0000
,
0010
0001
1000
0010
0100
0001
1000
0100
,
1000
0000
0010
0000
0000
0100
0000
0000
0010
0000
0000
0000
1000
0000
0000
0100
0000
0010
0000
0000
0000
0100
0000
0000
,
1000
0000
0000
0000
0000
0000
0001
0000
0000
0100
0000
0010
0000
0000
0000
0100
0000
0001
0000
0000
0010
0000
0000
0000
,
0100
0000
0000
1000
0000
0020
0000
0000
0000
0000
0000
0000
1030
0000
0000
0100
0000
0000
0001
0000
0000
0100
0000
0000
,
1000
0010
0001
0010
1000
0100
0010
0001
,
0100
0000
0000
0010
0000
0000
1000
0000
0000
0001
0000
0000
0100
0000
0010
0100
0000
0000
0010
0000
0000
0000
0000
1000
,
0000
0000
0000
0000
0000
0001
1000
0000
0000
0100
0000
0000
0010
0000
0100
0010
0000
0000
0100
0000
0000
0000
0000
1000
,
0000
0000
0000
0000
0000
0001
1000
0000
0000
0010
0000
0000
0100
0000
0000
0001
0000
0000
0010
0000
0000
0100
0000
0000
,
1000
0010
0100
0001
1000
0100
0001
0100
,
1000
0000
0000
0000
0002
0000
0000
0000
0100
0000
0000
0000
0103
0001
0000
0000
,
1000
0000
0000
0000
0200
0000
0000
0000
0010
0000
0000
0000
0310
0100
0000
1000
,
0100
0000
0000
0000
2000
0000
0000
0000
0010
0000
0000
0000
3010
1000
0000
0000
,
0001
0000
0000
0000
0020
0000
0000
0000
0100
0000
0000
0000
0130
0010
0000
0100
,
1000
0000
0001
0000
2000
0000
0000
0000
0100
0000
0000
0000
3100
1000
0000
0000
,
0001
0000
0000
0000
0200
0000
0000
0000
0010
0000
0000
0000
0310
0100
0000
0001
,
0100
0000
0000
0000
0002
0000
0000
0000
0010
0000
0000
0000
0013
0001
0000
0000
,
1000
0000
0000
0000
0020
0000
0000
0000
0100
0000
0000
0000
0130
0010
0000
0100
,
0001
0000
1000
0000
0200
0000
0000
0010
0000
0000
0310
0000
0100
0000
0000
0000
,
1000
0000
0000
0000
0020
0000
0000
0100
0000
0000
0130
0000
0010
0000
0000
1000
,
0010
1000
0000
0000
0001
0000
0100
0000
0000
0010
0000
0000
1000
0000
0100
0000
,
0000
0010
0000
0000
0001
0000
0000
1000
0000
0010
1000
0000
0001
0000
0100
0000
,
0000
0010
0000
0000
0200
0000
0000
0010
0000
0000
0310
0000
0100
0000
0000
0000
,
0001
0000
0000
0000
0020
0000
0000
0100
0000
0000
0130
0000
0010
0000
0000
0001
,
0010
0001
0000
0000
1000
0010
0000
0000
0100
0000
0001
0000
1000
0000
0000
0001
,
0000
0000
0100
0000
0001
0010
0000
0000
0100
0000
1000
0000
1001
0000
0000
0000
,
0001
0000
0000
0100
0000
0001
0000
0000
0000
1000
0000
0000
0100
0000
0000
0010
0000
0000
0001
0000
0100
0000
0000
0000
,
0010
0000
0000
1000
0000
0010
0000
0000
0000
0100
0000
0000
0001
0000
0000
1000
0000
0000
0100
0000
0010
0000
0000
0000
,
0100
1000
0010
0001
0010
1000
0100
0010
,
0001
0000
0000
0000
0000
0000
0000
0000
0000
0000
0000
0000
0100
0000
0000
0000
0000
0000
0000
0000
0000
0000
0000
0000
0010
0000
0000
0000
0000
0000
0000
0000
0000
0000
0000
0000
1000
0000
0000
0000
0000
0000
0000
0000
0000
0000
0000
0000
0010
0000
0000
0000
0000
0000
0000
0000
0200
0000
0000
0000
0000
0000
0000
0000
0000
0000
0000
0000
0000
0000
0000
0000
0301
0000
0000
0000
0000
0000
0000
0000
0000
0100
0000
0000
0000
0000
0000
0000
0000
0000
1000
0000
0000
0000
0000
0000
,
0000
0000
0000
0100
0000
0000
0000
0000
0000
0000
0000
0000
0001
0000
0000
0000
0000
0000
0000
0000
0000
0000
0000
0000
0010
0000
0000
0000
0000
0000
0000
0000
0000
0000
0000
0000
0100
0000
0000
0000
0000
0000
0000
0000
0000
0000
0000
0000
1000
0000
0000
0000
0000
0000
0000
0000
0010
0000
0000
0000
1000
0000
0000
0000
0000
0000
0000
0000
0000
0000
0000
0000
0001
0000
0000
0000
0000
0000
0000
0000
0000
0000
0000
0000
0010
0000
0000
0000
0000
0000
0000
0000
0000
0000
0000
0000
,
0100
0000
0000
1000
0000
0000
0001
0000
0100
0001
0000
0000
1000
0000
0000
0000
0000
0000
0001
0000
0000
0100
0000
0000
,
1000
0100
0001
0010
1000
0010
0001
0100
,
0010
0000
0000
1000
0000
0000
0001
0000
0010
0000
0000
0100
0000
0000
0010
0000
0000
0000
0001
0000
0000
0100
0000
0010
,
0000
0000
0000
0100
0000
0000
0001
0000
0000
0000
0000
0000
1000
0000
0000
0100
0000
0010
0000
0000
0000
0100
0000
1000
,
0000
0000
0010
0000
0000
0000
0100
0000
0000
0001
0000
0020
0000
0000
0000
0000
0000
0000
0031
0000
0000
0100
0000
0000
,
1000
0100
0001
0010
1000
0010
0001
0100
,
0010
0000
0000
1000
0000
0000
0100
0000
0000
0010
0000
0000
0001
0000
0000
1000
0000
0000
0100
0000
0010
0100
0000
0010
,
0200
0000
0000
0000
,
0300
0000
0000
0000
;

//---------------dance-single - ----------------
#NOTEDATA:;
#CHARTNAME:;
#STEPSTYPE:dance-single;
#DESCRIPTION:;
#CHARTSTYLE:;
#DIFFICULTY:Challenge;
#METER:10;
#RADARVALUES:0.572749,0.680815,0.025215,0.226938,0.634587,477.000000,474.000000,3.000000,27.000000,0.000000,0.000000,0.000000,0.000000,0.000000,0.572749,0.680815,0.025215,0.226938,0.634587,477.000000,474.000000,3.000000,27.000000,0.000000,0.000000,0.000000,0.000000,0.000000;
#CREDIT:;
#NOTES:
// measure 0
0000
0000
0000
0000
,  // measure 1
0000
0000
0000
0000
,  // measure 2
0000
0000
0000
0000
,  // measure 3
0000
0000
0000
0000
,  // measure 4
2000
0000
0000
0000
3010
0000
0000
0000
0100
0001
0000
0000
1000
0000
0000
0000
,  // measure 5
0002
0000
0000
0000
0013
0000
0000
0000
0100
1000
0000
0100
0010
0000
0000
0000
,  // measure 6
0002
0000
0000
0000
0103
0000
0000
0000
0010
1000
0000
0000
0001
0000
0000
0000
,  // measure 7
2000
0000
0000
0000
3100
0000
0000
0000
0010
0001
0000
0010
0100
0000
0000
0000
,  // measure 8
2000
0000
0000
0000
3001
0000
1000
0000
0100
0010
0000
0000
0100
0000
0000
0000
,  // measure 9
0020
0000
0000
0000
0031
0000
0100
0000
0010
1000
0000
1000
0100
0000
0000
0000
,  // measure 10
0020
0000
0031
0100
2000
0000
3100
0001
,  // measure 11
0020
0000
0000
0000
0130
0000
1000
0000
0001
0100
0010
0100
0001
0000
1000
0000
,  // measure 12
0002
0000
0000
0000
1003
0000
0001
0000
0100
0010
0000
0000
0100
0000
0000
0000
,  // measure 13
0020
0000
0000
0000
1030
0000
0100
0000
0010
0001
0000
0001
0100
0000
0000
0000
,  // measure 14
0020
0000
0000
0000
1030
0000
0010
0000
0100
0010
0000
0000
1000
0000
0000
0000
,  // measure 15
2002
0000
0000
3003
,  // measure 16
0001
0000
0100
0001
0000
0000
0100
0000
0010
1000
0000
0000
0010
0000
0000
1000
0000
0000
0001
0000
0000
0100
0000
0000
,  // measure 17
0010
0000
1000
0010
0000
1000
0000
0000
0000
1001
0000
0000
0000
0001
0000
0000
0000
1000
0001
0000
0000
0100
0000
0000
,  // measure 18
0010
0000
0100
0000
0000
0001
1000
0000
0000
0100
0000
0000
0010
0000
0000
0000
0000
0100
1000
0000
0001
0000
0100
0000
,  // measure 19
0010
0000
1000
0000
0000
0000
0001
0000
0100
0001
0000
0100
0001
0000
0010
0001
0000
0000
0100
0000
0000
0010
0000
1000
,  // measure 20
0010
0000
0000
0100
0000
0000
0001
0000
1000
0001
0000
0000
1000
0000
0100
1000
0000
0000
0100
0000
0000
0010
0000
0000
,  // measure 21
0001
0000
0000
1000
0000
0010
0000
0000
0000
0100
0000
0000
0001
0000
0010
0001
0000
0000
1000
0000
0000
0010
0000
1000
,  // measure 22
0010
0000
0000
0100
0000
0000
0001
0000
1000
0001
0000
0000
1000
0000
0000
0100
0000
0000
0010
0000
0000
0001
0000
0000
,  // measure 23
1000
0000
0010
0000
0000
0100
0000
0000
0001
0000
0000
0000
1000
0000
0000
0100
0000
1000
0000
0000
0010
0100
0000
0010
,  // measure 24
1000
0000
0000
0000
0000
0000
0001
0000
0000
0010
0000
0001
0000
0000
0100
0010
0000
0100
0000
0000
0001
0000
0000
1000
,  // measure 25
0100
0000
1000
0100
0000
0020
0000
0000
0000
0000
0000
0000
0031
0000
0100
0001
0000
0000
0010
0000
0000
0100
0000
0000
,  // measure 26
1000
0000
0100
1000
0000
0000
0010
0000
0000
0100
0000
0000
0001
0000
0010
0001
0000
0000
0100
0000
0000
0010
0000
0000
,  // measure 27
1000
0000
0100
1000
0000
0000
0001
0000
0010
0001
0000
0000
1000
0000
0100
0010
0000
0000
0100
0000
0000
1000
0000
0001
,  // measure 28
0000
0000
0000
1000
0000
0010
0100
0000
0000
0001
0000
0010
0001
0000
0100
0010
0000
0000
0100
0000
0000
0001
0000
1000
,  // measure 29
0000
0000
0000
0001
0000
0010
0100
0000
0000
1000
0000
0000
0001
0000
0010
0100
0000
0010
0001
0000
0000
1000
0000
0100
,  // measure 30
0010
0000
0100
1000
0000
0000
0001
0000
0100
0010
0000
1000
0001
0000
0000
1000
0000
0100
0010
0000
0001
1000
0000
0000
,  // measure 31
1001
0000
0000
0000
0002
0000
0000
0000
0013
0000
0001
0000
0100
0001
0000
0000
,  // measure 32
0010
0100
0000
0000
2000
0000
0000
0000
3010
0000
1000
0000
0100
1000
0000
0100
,  // measure 33
0010
0100
0000
0000
0020
0000
0000
0000
0031
0000
0010
0000
0100
1000
0000
0000
,  // measure 34
0001
1000
0000
0000
0200
0000
0000
0000
1300
0000
0100
0000
0010
0001
0000
0010
,  // measure 35
0100
0010
0000
0000
0001
0000
0100
0000
1000
0000
0100
0000
0001
0000
1000
0000
,  // measure 36
0010
0001
0010
1000
0001
0010
0100
1000
,  // measure 37
0001
0100
0001
0000
1000
0000
0100
0000
0001
0000
0100
0000
1000
0000
0001
0000
,  // measure 38
0010
1000
0010
0001
1000
0010
0100
0001
,  // measure 39
1000
0100
1000
0000
0002
0000
0000
0100
0000
0000
0013
0000
0001
0000
0000
1000
,  // measure 40
0010
0000
0000
0000
2000
0000
0000
0010
0000
0000
3100
0000
1000
0000
0000
0001
,  // measure 41
0010
0001
0000
0000
1000
0000
0001
0000
0000
0100
0000
0000
1000
0000
0001
0000
,  // measure 42
0000
0010
0000
0000
1000
0000
0000
0100
0010
0100
0010
0000
0001
0000
1000
0000
,  // measure 43
0010
0100
0010
0000
2000
0000
0000
0100
0000
0000
3010
0000
1000
0000
0000
0001
,  // measure 44
0010
0000
0000
0000
0002
0000
0000
0010
0000
0000
0103
0000
0001
0000
0000
1000
,  // measure 45
0010
1000
0000
0000
0001
0100
0000
0000
0010
0000
1000
0100
1000
0000
0000
0010
,  // measure 46
0000
0100
0010
0000
1000
0100
0000
0000
0010
0000
0001
0100
0001
0000
0000
0000
,  // measure 47
1000
0000
0000
0010
0000
0100
0000
0000
0000
0001
0000
0000
1000
0000
0100
1000
0000
0000
0010
0000
0100
0000
0000
0000
,  // measure 48
0001
0000
0000
0010
0000
0100
0000
0000
0000
1000
0000
0000
0001
0000
0100
0001
0000
0100
0010
0000
1000
0000
0000
0000
,  // measure 49
0001
0100
1000
0001
0010
1000
0001
0010
,  // measure 50
0100
0000
0000
0000
0000
0000
0000
0000
0000
0000
0000
0000
0000
0000
0000
0000
0000
0000
0000
0000
0000
0000
0000
0000
1000
0000
0000
0000
0000
0000
0000
0000
0000
0000
0000
0000
0000
0000
0000
0000
0000
0000
0000
0000
0000
0000
0000
0000
0001
0000
0000
0000
0000
0000
0000
0000
0000
0000
0000
0000
0000
0000
0000
0000
0000
0000
0000
0000
0000
0000
0000
0000
0100
0000
0000
0000
0000
0000
0000
0000
0000
0000
0000
0000
0000
0000
0000
0000
0000
0000
0000
0000
0000
0000
0000
0000
0010
0000
0000
0000
0000
0000
0000
0000
0000
0000
0000
0000
0000
0000
0000
0000
2000
0000
0000
0000
0000
0000
0000
0000
0000
0000
0000
0000
0000
0000
0000
0000
0000
0000
0000
0000
0000
0000
0000
0000
0000
0000
0000
0000
0000
0000
0000
0000
3001
0000
0000
0000
0000
0000
0000
0000
0000
0000
0000
0000
0000
0000
0000
0000
0000
0000
0100
0000
0000
0000
0000
0000
0000
0000
0000
0000
0000
0000
0000
0000
0000
0000
0000
0000
1000
0000
0000
0000
0000
0000
0000
0000
0000
0000
0000
0000
,  // measure 51
0000
0000
0000
0000
0000
0000
0100
0000
0000
0000
0000
0000
0000
0000
0000
0000
0000
0000
0000
0000
0000
0000
0000
0000
0010
0000
0000
0000
0000
0000
0000
0000
0000
0000
0000
0000
0000
0000
0000
0000
0000
0000
0000
0000
0000
0000
0000
0000
1000
0000
0000
0000
0000
0000
0000
0000
0000
0000
0000
0000
0000
0000
0000
0000
0000
0000
0000
0000
0000
0000
0000
0000
0001
0000
0000
0000
0000
0000
0000
0000
0000
0000
0000
0000
0000
0000
0000
0000
0000
0000
0000
0000
0000
0000
0000
0000
0100
0000
0000
0000
0000
0000
0000
0000
0000
0000
0000
0000
0000
0000
0000
0000
0010
0000
0000
0000
0000
0000
0000
0000
0100
0000
0000
0000
0000
0000
0000
0000
0000
0000
0000
0000
0000
0000
0000
0000
0010
0000
0000
0000
0000
0000
0000
0000
1000
0000
0000
0000
0000
0000
0000
0000
0000
0000
0000
0000
0000
0000
0000
0000
0001
0000
0000
0000
0000
0000
0000
0000
1000
0000
0000
0000
0000
0000
0000
0000
0000
0000
0000
0000
0000
0000
0000
0000
0000
0000
0000
0000
0000
0000
0000
0000
,  // measure 52
0001
0000
0000
0010
0000
0000
0100
0000
0010
0100
0000
0010
0001
0000
0010
0000
0000
0001
1000
0000
0100
1000
0000
0000
,  // measure 53
0001
0000
0000
0100
0000
0000
0010
0000
1000
0010
0000
1000
0001
0000
0000
0100
0000
0000
0010
0000
1000
0010
0000
1000
,  // measure 54
0001
0000
0100
0001
0000
0100
0001
0000
1000
0000
0000
0010
0000
0000
0100
0000
0000
0000
0001
0000
0000
0100
0000
0001
,  // measure 55
0000
0000
0010
0100
0000
0010
0001
0000
0000
0000
0000
0000
1000
0000
0000
0010
0000
1000
0000
0000
0100
0010
0000
0100
,  // measure 56
0000
0000
1000
0000
0000
0001
0100
0000
0001
0100
0000
0020
0000
0000
0000
0000
0000
0000
1030
0000
0100
0010
0000
0100
,  // measure 57
1000
0000
0000
0100
0000
0000
0010
0000
0001
0100
0000
0001
0010
0000
0000
0100
0000
0000
1000
0000
0010
0100
0000
0010
,  // measure 58
1000
0000
0001
0100
0000
0010
0100
0000
0000
0001
0000
0000
0010
0000
0000
0100
0000
0000
1000
0000
0100
0010
0000
0002
,  // measure 59
2000
0000
0000
0000
,  // measure 60
3003
0000
0000
0000
;
