#TITLE:In My Head;
#SUBTITLE:(ft. PRXZM);
#ARTIST:Virtual Riot;
#GENRE:Electronic;
#MUSIC:[Round H] - In My Head (ft. PRXZM).ogg;
#OFFSET:-4.705;
#SAMPLESTART:117.646;
#SAMPLELENGTH:20;
#BPMS:0=102;

//---------------dance-single - ----------------
#NOTES:
     dance-single:
     :
     Hard:
     7:
     :
1000
0000
0000
0010
0000
0000
0000
0000
,
0100
0000
0000
0001
0000
0000
0000
0000
,
0010
0000
0000
0100
0000
0000
0000
0000
,
1000
0010
0000
0001
0010
0000
1000
0000
,
0001
0000
0000
0010
0000
0000
0000
0000
,
0100
0000
0000
1000
0000
0000
0000
0000
,
0010
0000
0000
0100
0000
0000
0000
0000
,
0001
0010
0000
1000
0010
0000
0001
0000
,
2000
0000
0000
3200
0000
0000
0000
0000
,
0302
0000
0000
0203
0000
0000
0000
0000
,
0320
0000
0000
0032
0000
0000
0000
0000
,
0203
0010
0000
0302
1000
0000
0013
0000
,
0200
0000
0000
2300
0000
0000
0000
0000
,
3020
0000
0000
0032
0000
0000
0000
0000
,
2003
0000
0000
3200
0000
0000
0000
0000
,
0302
1000
0000
0023
0100
0000
0032
0000
,
1003
0000
0001
0000
0010
0000
0100
0010
0000
0100
0010
0000
0001
0000
0000
0000
,
1000
0000
0001
0000
0100
0000
0010
1000
0000
0010
0100
0000
0001
0000
0001
0000
,
1000
0000
0001
0000
0010
0000
0100
0010
0000
0001
0010
0000
0100
0000
0000
0000
,
1000
0000
0001
0000
0100
0000
0010
0100
0000
0001
0100
0000
0010
0000
1000
0001
,
1000
0000
0100
0000
0010
0000
0001
1000
0000
0001
1000
0000
0010
0000
0000
0000
,
0100
0000
0010
0000
1000
0000
0100
0010
0000
0100
0010
0000
0001
0000
0010
0000
,
0100
0000
1000
0000
0100
0000
0010
0100
0000
1000
0001
0000
0100
0000
0000
0000
,
1000
0100
0002
0000
0023
0000
0230
0000
,
1300
0001
0010
0001
0100
0010
1000
0000
,
0001
1000
0100
1000
0010
0100
0001
0000
,
1000
0100
0001
0100
1000
0100
0010
0001
,
0100
0010
0000
0010
1000
0001
0010
0100
,
1000
1000
0001
1000
0010
0100
0001
0000
,
0001
0001
1000
0001
0010
0100
1000
0000
,
0010
0100
0001
0000
1000
0100
0001
0100
,
1000
0002
0023
0032
,
2003
0000
0000
3001
0200
0000
0310
2000
,
0000
3001
1000
0002
0000
0000
0000
0000
,
2003
0000
0000
3100
0020
0000
0031
2000
,
0000
3010
0100
0020
0000
0000
0030
0000
,
1000
0100
1000
0000
0100
0010
0100
0000
,
0010
0001
0010
0000
0001
1000
0001
0000
,
1000
0010
0100
0010
1000
0010
0100
0001
,
1000
0000
0000
0000
1100
0000
0000
0000
0101
0000
0000
1000
0001
1000
0001
0000
,
1000
0100
1000
0100
0000
0000
1000
0001
0000
1000
0001
1000
0000
0000
0000
0000
,
0001
0100
0001
0100
0000
0000
0010
0100
0000
0010
1000
0010
0000
1000
0001
1000
,
0000
0001
0010
0001
0000
0000
0010
0100
0000
1000
0001
1000
0000
0000
0000
0000
,
0001
0100
0001
0100
0000
0000
0010
1000
0000
0001
0100
0001
0000
1000
0100
1000
,
0001
0000
0000
0000
0000
0000
1000
0001
1000
0000
0001
0000
0010
0000
0100
0000
,
1000
0000
0000
0000
0000
0000
1000
0001
1000
0000
0010
0000
0100
0000
0001
0000
,
0010
0000
0010
0000
0010
0000
0010
0001
,
1000
0000
0001
0100
0010
1000
0100
0010
,
0001
1000
1000
0001
1000
0001
0200
0000
,
0310
1000
1000
0001
1000
0001
0020
0000
,
0130
1000
1000
0001
1000
0001
0100
0010
,
1000
0000
0001
0000
0001
0000
0010
0001
0000
0000
1000
0001
0000
0100
0000
0000
,
0010
0000
0100
0010
0100
0000
0010
0100
0010
0000
0100
0010
0200
0000
0000
0000
,
0301
0000
0100
0001
0100
0000
0001
0100
0001
0000
1000
0001
2000
0000
0000
0000
,
3100
0000
1000
0100
1000
0000
0100
0010
0100
0000
0010
0001
1000
0000
0000
0000
,
0001
0000
0100
0010
0100
0000
0001
0100
0001
0000
1000
0001
1000
0000
0100
0000
,
2000
0000
0000
0000
0020
0000
0000
3000
,
0200
0000
0000
0030
0302
0000
0020
0003
,
0200
0000
0000
0030
2000
0000
0000
0300
,
0002
3000
0200
0003
0020
0300
2000
0000
,
3030
0000
0000
0000
;

//---------------dance-single - ----------------
#NOTES:
     dance-single:
     :
     Challenge:
     9:
     :
1000
0000
0100
0010
0100
0000
0010
0001
,
2000
0000
0000
3000
0001
0100
0010
2000
,
0100
0000
0000
0001
0000
0000
0000
0000
,
0010
0000
0000
0001
0000
0000
3000
0000
,
0001
0000
0010
0100
0010
0000
0000
0100
,
1000
0001
0100
0000
0001
0000
0010
0200
,
1000
0000
0000
0010
0000
0000
0000
0000
,
0001
0000
0000
0000
0000
0000
0020
0000
0000
0000
0000
0000
0330
0000
1000
0001
,
0010
0000
0001
0100
0000
0000
0010
0000
1000
0001
0000
0100
0000
0000
0000
0001
,
0010
0001
0000
0010
0000
0000
0100
0000
1000
0000
0001
0100
0000
0000
0000
0000
,
0010
1000
0000
0010
0000
0100
0000
0001
0000
0000
0010
0100
0000
1000
0000
0000
,
0020
0000
0000
0230
0000
0000
0301
0000
,
0010
0000
0000
0000
0000
0000
0000
0000
0000
0000
0000
0000
0001
0000
0000
0000
0000
0000
0000
0000
0000
0000
0000
0000
0000
0000
0000
0000
0000
0000
0000
0000
0000
0000
0000
0000
0010
0000
0000
0000
0000
0000
0000
0000
0000
0000
0000
0000
0000
0000
0000
0000
0000
0000
0000
0000
0000
0000
0000
0000
0000
0000
0000
0000
0000
0000
0000
0000
0000
0000
0000
0000
0000
0000
0000
0000
0000
0000
0000
0000
0100
0000
0000
0000
0000
0000
0000
0000
0000
0000
0000
0000
0000
0000
0000
0000
1000
0000
0000
0000
0000
0000
0000
0000
0000
0000
0000
0000
0000
0000
0000
0000
0000
0000
0100
0000
0000
0000
0000
0000
0000
0000
0000
0000
0000
0000
0000
0000
0000
0000
0000
0000
1000
0000
0000
0000
0000
0000
0000
0000
0000
0000
0000
0000
0000
0000
0000
0000
0000
0000
0000
0000
0000
0000
0000
0000
0000
0000
0000
0000
0000
0000
0000
0000
0000
0000
0000
0000
0000
0000
0000
0000
0000
0000
0000
0000
0000
0000
0000
0000
0000
0000
0000
0000
0000
0000
0000
0000
0000
0000
0000
0000
,
0001
0000
0000
0100
0000
0000
0001
0000
0000
0000
0000
0000
0100
0000
0000
0000
0010
0000
0000
0000
1000
0000
0010
0000
0000
0000
0000
0000
0000
0000
0000
0000
,
0100
0000
0002
0000
0000
0000
0023
0000
0000
0000
0130
0000
1000
0000
0001
0020
,
0100
0000
0000
0000
0000
0000
0032
0000
0000
0000
0000
0000
1003
0010
0100
0001
,
1000
0100
1000
0001
0010
0000
0010
0100
0000
0010
0001
1000
0010
0000
0000
0000
,
0100
0001
1000
0001
0100
0000
0010
1000
0000
0001
0010
0100
1000
0001
1000
0100
,
1000
0010
0100
0001
1000
0000
0001
0010
0000
0100
0010
0001
1000
0000
0000
0000
,
0001
0100
0010
1000
0001
0000
0010
0100
0000
0010
0001
0100
0010
0100
0001
0001
,
1000
0100
0010
0100
1000
0000
0001
0010
0000
0100
0010
0001
0100
0000
0000
0000
,
0001
1000
0010
0100
0001
0000
0010
0001
0000
0100
0010
1000
0001
1000
0010
0100
,
0001
0010
0100
1000
0001
0000
1000
0100
0000
0001
0100
1000
0001
0000
0000
0000
,
1000
0010
0100
0001
2000
0000
3010
0100
0002
0013
0100
0010
0002
0103
0010
1000
,
0001
0100
0000
0010
0000
0000
1000
0000
0100
0000
0010
0000
0100
0000
0000
0000
,
1000
0001
0000
0100
0000
0010
0000
0000
0001
0000
0010
0000
0100
0000
0000
0000
,
0001
1000
0000
0100
0000
0000
1000
0010
0000
0000
0100
0000
0001
0000
0010
0000
,
0100
0000
1000
1000
0001
1000
0100
0010
,
0001
0100
0000
0000
0010
0000
1000
0000
0001
0000
1000
0000
0100
0000
0000
0000
,
1000
0100
0010
0001
1000
0001
0100
0000
,
0010
1000
0000
0010
0000
0000
0000
0000
0100
0001
0000
1000
0000
0000
0001
0020
,
0000
1000
0001
0130
,
1000
0000
0000
1000
0000
0000
0001
0000
0000
0001
0000
0000
0010
0000
0000
0010
,
0000
0000
0100
0000
0000
0100
0000
0000
1000
0000
0000
1000
0000
0000
0001
0000
,
0100
0000
0000
1000
0000
0000
0100
0000
0000
0001
0000
0000
0010
0000
0000
0100
,
0000
0000
0001
0000
0000
0100
0000
0000
1000
0000
0000
0010
0000
0000
0001
0000
,
0010
0000
0110
0000
1000
0001
1001
0000
,
0001
0000
0101
0000
1000
0010
1010
0000
,
0100
0100
1001
0010
0010
0010
1001
0100
,
0001
1000
0000
1000
0001
0010
0000
0010
0001
0100
0100
0001
0001
1000
1000
0000
,
0001
0010
0100
0010
0001
0000
1000
0010
0000
0010
0001
0100
0010
0000
0000
0000
,
1000
0010
0100
0010
1000
0000
0001
0010
0000
0010
1000
0100
0000
0100
0001
0010
,
0001
0010
0100
0010
0001
0000
1000
0100
0000
0100
0001
0010
0100
0000
0000
0000
,
1000
0010
0100
0010
1000
0000
0001
0100
0000
0100
1000
0010
0100
0010
0100
0010
,
1000
0000
0000
0000
0001
0000
1000
0100
0010
0000
0001
0000
0100
0000
0010
0000
,
1000
0000
0000
0000
1100
0000
0001
1000
0010
0000
0001
0000
0020
0230
0302
0000
,
1003
0000
0101
0000
1100
0000
0011
1000
,
0100
0000
0000
0000
0010
0000
0001
0000
0100
0000
0010
1000
0001
0100
0010
1000
,
0001
0010
0001
0010
0100
0000
1000
0001
0100
0000
0100
0001
1000
0001
0000
0000
,
0001
1000
0001
1000
0100
0000
0010
0100
1000
0000
1000
0100
0010
0001
0000
0000
,
1000
0010
1000
0010
0100
0000
0001
1000
0100
0000
0100
1000
0002
0000
0203
0000
,
0310
1000
0100
0010
0100
0000
0010
0001
0000
0000
1000
0001
0000
0100
0000
0000
,
0010
1000
0100
0010
0100
0000
0010
0001
0100
0000
0100
0001
0020
0000
0230
0000
,
0310
0001
0100
0010
0100
0000
0010
1000
0100
0000
0100
1000
0020
0230
0302
0000
,
0013
0001
0100
0010
1000
0000
0010
1000
0100
0000
0100
1000
0020
0000
0230
0302
,
1003
0010
0100
0001
1000
0000
0001
0010
0100
1000
0001
1000
0010
0100
0010
0100
,
0001
0010
0001
0010
0000
0000
0100
1000
0100
0010
0100
0010
0000
0000
0000
0000
,
0100
1000
0100
1000
0000
0000
0001
0010
0001
1000
0001
1000
0010
0100
0010
0100
,
0010
1000
0010
0100
0000
0000
0001
0100
0010
1000
0100
1000
0000
0000
0000
0000
,
0001
0010
0100
0010
0000
0000
0001
1000
0100
0010
0100
1000
0010
0100
0001
1000
;
