#TITLE:Drain;
#SUBTITLE:;
#ARTIST:nnn;
#TITLETRANSLIT:;
#SUBTITLETRANSLIT:;
#ARTISTTRANSLIT:;
#GENRE:Hardcore;
#CREDIT:;
#BANNER:Drain.png;
#BACKGROUND:Drain-bg.png;
#LYRICSPATH:;
#CDTITLE:;
#MUSIC:Drain.ogg;
#OFFSET:-0.137000;
#SAMPLESTART:64.132004;
#SAMPLELENGTH:15.000000;
#SELECTABLE:YES;
#BPMS:0.000000=150.000000
;
#STOPS:
;
#BGCHANGES:;
#KEYSOUNDS:;
#ATTACKS:;

//---------------dance-single - ----------------
#NOTES:
     dance-single:
     :
     Beginner:
     1:
     0.085325,0.119456,0.006787,0.000000,0.000000,87.000000,1.000000,0.000000,0.000000,0.000000,0.000000,0.085325,0.119456,0.006787,0.000000,0.000000,87.000000,1.000000,0.000000,0.000000,0.000000,0.000000:
0000
0000
0000
0000
,
0000
0000
0000
0000
,
0000
0000
0000
0000
,
0000
0000
0000
0000
,
1000
0000
0000
0000
,
0000
0000
0000
0000
,
0001
0000
0000
0000
,
0000
0000
0000
0000
,
0000
0000
1000
0000
,
0000
0000
1000
0000
,
0000
0000
0001
0000
,
0000
0000
0001
0000
,
0000
0000
1000
0000
,
0000
0000
0001
0000
,
0000
0000
1000
0000
,
0000
0000
0000
0000
,
0000
0000
1000
0000
,
0000
0000
0001
0000
,
0000
0000
1000
0000
,
0000
0000
0001
0000
,
0000
0000
0010
0000
,
0000
0000
0100
0000
,
0000
0000
0010
0000
,
0000
0000
0100
0000
,
0000
0000
1000
0000
,
0000
0000
0001
0000
,
0000
0000
1000
0000
,
0000
0000
0001
0000
,
0000
0000
0100
0000
,
0000
0000
0010
0000
,
0010
0000
0000
0000
,
0000
0000
0000
0000
,
0001
0000
0000
0000
,
0001
0000
0000
0000
,
1000
0000
0000
0000
,
1000
0000
0000
0000
,
0010
0000
0000
0000
,
0010
0000
0000
0000
,
0100
0000
0000
0100
,
0100
0000
0000
0000
,
0000
0000
1000
0000
,
0000
0000
0001
0000
,
0000
0000
1000
0000
,
0000
0000
0001
0000
,
0000
0000
0010
0000
,
0000
0000
0100
0000
,
0000
0000
0010
0000
,
0000
0000
0100
0000
,
0000
0000
1000
0000
,
0000
0000
0001
0000
,
0000
0000
1000
0000
,
0000
0000
0001
0000
,
0000
0000
0100
0000
,
0000
0000
0010
0000
,
0000
0000
0100
0000
,
0010
0010
0010
0000
,
0000
0000
1000
0000
,
0000
0000
0100
0000
,
0000
0000
0010
0000
,
0000
0000
0001
0000
,
0000
0000
0001
0000
,
0000
0000
0100
0000
,
0000
0000
0010
0010
,
1000
0000
0000
0000
,
0000
0000
1000
0000
,
0000
0000
1000
0000
,
0000
0000
0001
0000
,
0000
0000
0001
0000
,
0000
0000
1000
0000
,
0000
0000
0001
0000
,
0100
0000
0100
0000
,
0100
0000
0000
0000
,
0000
0000
1000
0000
,
0000
0000
0001
0000
,
0000
0000
0010
0000
,
0000
0000
0100
0000
,
0000
0000
1000
0000
,
0000
0000
0001
0000
,
0000
0000
0100
0000
,
0000
0000
0010
0000
,
0000
0000
1000
0000
,
0000
0000
0100
0000
,
0000
0000
0001
0000
,
0000
0000
0010
0000
,
0000
0000
1000
0000
,
0000
0000
0010
0000
,
0000
0000
0001
0000
,
0100
0000
0100
0000
,
1001
0000
0000
0000
;

//---------------dance-single - ----------------
#NOTES:
     dance-single:
     :
     Easy:
     3:
     0.215253,0.209047,0.047511,0.081447,0.000000,203.000000,7.000000,12.000000,1.000000,0.000000,0.000000,0.215253,0.209047,0.047511,0.081447,0.000000,203.000000,7.000000,12.000000,1.000000,0.000000,0.000000:
0000
0000
0000
0000
,
0000
0000
0000
0000
,
0000
0000
0000
0000
,
0000
0000
0000
0000
,
0000
1000
0000
1000
,
0000
0001
0000
0001
,
0002
0000
0000
0000
,
0100
0100
0100
0003
,
0000
1000
0000
0100
,
0000
0001
0000
0100
,
0200
0000
0010
0000
,
0000
0000
0010
0300
,
0000
0001
0000
0100
,
0000
1000
0000
0010
,
0020
0000
0100
0000
,
0030
0000
0000
0002
,
1003
0000
0001
0000
,
1000
0100
0010
0001
,
0100
0000
0010
0000
,
0010
1000
0100
0010
,
0001
0000
1000
0000
,
0001
0010
0100
1000
,
0010
0000
0100
0000
,
0010
1000
0001
0010
,
0002
0003
1000
0000
,
0001
0100
0010
1000
,
0100
0000
0010
0000
,
0010
0001
0100
0010
,
1000
0000
0001
0000
,
1000
0010
0100
0001
,
0020
0000
0000
0000
,
0100
0100
0100
0030
,
0100
0000
0100
1000
,
0100
1000
0100
0000
,
0100
0000
0100
0001
,
0100
0001
0100
0000
,
0100
0000
0100
1000
,
0100
0001
0100
0000
,
0100
0000
0100
1000
,
0020
0000
0000
0030
,
1000
0000
0001
0000
,
1000
0010
1000
0100
,
0010
0000
0100
0000
,
0100
1000
0010
0100
,
0001
0000
1000
0000
,
0001
0100
0001
0010
,
0100
0000
0010
0000
,
0010
0001
0200
0300
,
0001
0000
1000
0000
,
0010
0100
0010
0100
,
0100
0000
0010
0000
,
1000
0001
1000
0001
,
1000
0000
0001
0000
,
0010
0100
0010
0100
,
0100
0000
0010
0000
,
1000
0001
1000
000M
,
1000
0100
1000
0000
,
0100
0010
0100
0000
,
0010
0001
0010
0000
,
0001
0100
0001
0000
,
0100
0010
0100
0000
,
0010
1000
0010
0000
,
1000
0010
0100
0001
,
2000
0000
0000
3000
,
0000
0000
1001
0000
,
0000
0000
1100
0000
,
0000
0000
1001
0000
,
0000
0000
0011
0000
,
0000
0000
0110
0000
,
0000
0000
1010
0000
,
1002
0000
0000
0000
,
0100
0100
0100
0003
,
0000
0001
0000
0100
,
0000
0010
0000
0100
,
0000
0001
0000
1000
,
0000
0100
0000
1000
,
0000
0001
0000
0010
,
0000
0100
0000
0010
,
0000
0001
0000
1000
,
0100
0100
0200
0300
,
0000
1000
0000
0001
,
0000
0010
0000
0001
,
0000
1000
0000
0010
,
0000
0100
0000
0010
,
0000
1000
0000
0001
,
0000
0100
0000
0001
,
0000
1000
0000
0001
,
0100
0100
0200
0000
,
0300
0000
0000
0000
;

//---------------dance-single - ----------------
#NOTES:
     dance-single:
     :
     Medium:
     6:
     0.443111,0.447959,0.210405,0.509044,0.217192,351.000000,31.000000,75.000000,1.000000,0.000000,1.000000,0.443111,0.447959,0.210405,0.509044,0.217192,351.000000,31.000000,75.000000,1.000000,0.000000,1.000000:
0000
0000
0000
0000
,
0000
0000
0000
0000
,
0000
0000
0000
0000
,
0000
0000
0000
0000
,
1000
0100
0010
0001
,
0100
0010
1000
0001
,
0020
0000
0000
0000
,
0100
0100
0100
0030
,
0001
1000
0020
1030
,
0001
0000
0000
0010
0000
0010
0200
0000
0000
0310
0000
0000
,
0001
1000
0200
1300
,
0001
0100
0020
1030
,
1000
0001
0020
0031
,
1000
0000
0000
0010
0000
0010
0200
0000
0000
0310
0000
0000
,
1000
0100
0001
0100
,
2000
0000
0000
3002
,
1003
0001
2100
3001
,
0100
0001
0102
1003
,
0100
1000
2100
3010
,
0100
0001
0102
0013
,
0100
1000
2010
3001
,
0010
0001
0012
1003
,
0010
1000
0001
0010
,
0100
0000
0000
0100
0000
0000
0100
0000
1000
0001
0000
0100
,
0002
0003
0201
0310
,
0100
0001
0201
0310
,
1000
0100
1200
0310
,
0100
1000
1200
0310
,
0001
0100
0210
0301
,
1000
0100
0210
1300
,
0020
0000
0000
0000
,
0100
0100
0100
0030
,
1001
0000
0000
1001
0000
0000
0000
0000
0001
0000
0000
1000
,
0000
0000
0010
0000
0000
0100
0001
0000
0000
0001
0000
0000
,
0101
0000
0000
1100
0000
0000
0000
0000
1000
0000
0000
0001
,
0000
0000
0010
0000
0000
0100
1000
0000
0000
1000
0000
0000
,
1010
0000
0000
0011
0000
0000
0000
0000
0010
0000
0000
0100
,
0000
0000
1000
0000
0000
0100
0010
0000
0000
0010
0000
0000
,
0110
0110
0010
0001
,
0200
0000
0000
0300
,
0001
0000
0001
0100
0000
0000
0002
0000
0000
1003
0000
0000
,
0001
0000
0001
0010
0000
0000
0020
0000
0000
0130
0000
0000
,
1000
0000
1000
0100
0000
0000
2000
0000
0000
3001
0000
0000
,
1000
0000
1000
0010
0000
0000
0020
0000
0000
0130
0000
0000
,
0001
0000
0100
0010
0000
0000
0200
0000
0000
0301
0000
0000
,
1000
0000
0100
0010
0000
0000
0200
0000
0000
1300
0000
0000
,
0001
0100
1000
0100
,
0004
0000
0000
0003
0000
0000
0000
0000
0000
0000
0000
0000
0010
0000
0000
0000
0000
0000
0000
0000
0000
0000
0000
0000
0100
0000
0000
0000
0000
0000
0000
0000
0100
0000
0000
0000
2000
0000
0000
0000
0000
0000
0000
0000
0000
0000
0000
0000
,
3001
0000
0000
0100
0000
0010
2000
0000
0000
3010
0000
0000
,
1000
0000
0000
0001
0000
0010
0002
0000
0000
0103
0000
0000
,
0001
0000
0000
1000
0000
0100
2000
0000
0000
3010
0000
0000
,
1000
0000
0000
0100
0000
0010
0002
0000
0000
0013
0000
0000
,
0001
0000
0000
1000
0000
1000
0200
0000
0000
0310
0000
0000
,
0001
0000
0000
1000
0000
1000
0020
0000
0000
0130
0000
0000
,
0001
0100
1000
0100
,
0010
0010
0010
00M0
,
1000
0000
0000
0100
0000
0010
0002
0000
0000
0013
0000
0000
,
0100
0000
0000
1000
0000
0100
0020
0000
0000
0031
0000
0000
,
0001
0000
0000
0100
0000
0010
2000
0000
0000
3010
0000
0000
,
0100
0000
0000
0001
0000
0100
0020
0000
0000
1030
0000
0000
,
1000
1000
0010
0010
,
0100
0100
0001
0001
,
0101
0000
0000
1001
0000
0000
1100
0000
0000
0000
0000
0100
,
0020
0000
0000
0030
,
0001
0000
0000
0002
0000
0000
0000
0000
0100
0000
0000
1000
,
0000
0000
0010
0000
0000
1000
0000
0000
0100
0003
0000
0000
,
1000
0000
0000
2000
0000
0000
0000
0000
0100
0000
0000
0001
,
0000
0000
0010
0000
0000
0001
0000
0000
0100
3000
0000
0000
,
0100
0000
0000
0020
0000
0000
0000
0000
0001
0000
0000
1000
,
0000
0000
0001
0000
0000
1000
0000
0000
0001
0030
0000
0000
,
0001
1000
0100
0020
,
0100
0100
0100
0030
,
2000
0000
0000
3001
0000
0001
0200
0000
0000
0310
0000
0000
,
2000
0000
0000
3001
0000
0001
0020
0000
0000
0130
0000
0000
,
2000
0000
0000
3001
0000
0001
0200
0000
0000
0310
0000
0000
,
2000
0100
0001
3100
,
0002
0000
0000
1003
0000
1000
0200
0000
0000
0310
0000
0000
,
0002
0000
0000
1003
0000
1000
0020
0000
0000
0130
0000
0000
,
0002
0000
0000
1003
0000
1000
0200
0000
0000
0310
0000
0000
,
0110
1001
0110
1001
,
2000
3020
0230
0302
,
1003
0000
1000
0100
0000
0100
0010
0000
0010
0001
0000
0000
,
0002
0023
0230
2300
,
3001
0000
0001
0100
0000
0100
0010
0000
0010
1000
0000
0000
,
2000
3200
0302
0203
,
1300
0000
1000
0001
0000
0001
0100
0000
0100
0010
0000
0000
,
2000
3020
0032
0023
,
1030
1100
0101
0011
,
0110
0000
0000
0000
;

//---------------dance-single - ----------------
#NOTES:
     dance-single:
     :
     Hard:
     9:
     0.649637,0.692724,0.169681,0.468320,0.868768,576.000000,25.000000,69.000000,1.000000,0.000000,2.000000,0.649637,0.692724,0.169681,0.468320,0.868768,576.000000,25.000000,69.000000,1.000000,0.000000,2.000000:
// measure 0
0000
0000
0000
0000
,  // measure 1
0000
0000
0000
0000
,  // measure 2
0000
0000
0000
0000
,  // measure 3
0000
0000
0000
0000
,  // measure 4
1000
0000
0000
0001
0000
0001
0100
0000
0000
0001
0000
0000
,  // measure 5
1000
0000
0000
0001
1000
0001
0100
0000
0000
0001
0000
0000
,  // measure 6
0020
0000
0000
0000
,  // measure 7
0100
0100
0100
0030
,  // measure 8
0001
0000
0000
0100
0000
0100
0020
0000
0000
1030
0000
0000
,  // measure 9
0001
0000
0000
0100
0000
0100
0020
0000
0000
0030
0000
0000
,  // measure 10
1000
0100
0020
0031
,  // measure 11
1000
0100
0020
0030
,  // measure 12
0001
0000
0000
1000
0000
0100
0020
0000
0000
0130
0000
0000
,  // measure 13
1000
0000
0000
0001
0000
0100
0020
0000
0000
0030
0000
0000
,  // measure 14
1000
0001
0020
0000
,  // measure 15
0100
0100
0200
0330
,  // measure 16
1000
0000
1000
0001
0000
0100
0001
0000
1000
0001
0000
0010
,  // measure 17
0001
0000
0000
0001
0100
0010
1000
0000
0001
0200
0000
0000
,  // measure 18
0301
0000
0001
1000
0000
0100
1000
0000
0001
1000
0000
0010
,  // measure 19
1000
0000
0000
1000
0001
0010
0100
0000
0010
0002
0000
0000
,  // measure 20
1003
0000
1000
0001
0000
1000
0010
0000
0010
0100
0000
0100
,  // measure 21
0001
0000
0000
0001
1000
0010
0200
0000
0000
0320
0000
0000
,  // measure 22
0130
0000
0001
0100
0000
0100
0010
0000
1000
0100
0000
0100
,  // measure 23
0040
0000
0000
0030
0000
0000
0000
0000
0000
0000
0000
0000
0110
0000
0000
0000
0000
0000
0000
0000
0000
0000
0000
0000
1001
0000
0000
0000
0000
0000
0000
0000
0001
0000
0000
0000
0100
0000
0000
0000
0010
0000
0000
0000
1000
0000
0000
0000
,  // measure 24
0200
0000
0000
0310
0000
0000
0001
0000
1000
0001
0000
0001
,  // measure 25
1000
0000
0000
0010
0100
0001
1000
0000
0000
0020
0000
0000
,  // measure 26
0130
0000
0100
0001
0000
0100
0010
0000
1000
0100
0000
0010
,  // measure 27
0100
0000
0000
0100
1000
0001
0020
0000
0000
0230
0000
0000
,  // measure 28
1300
0000
0001
1000
0000
1000
0010
0000
1000
0001
0000
0001
,  // measure 29
0010
0000
0000
0001
0100
0010
1000
0000
0001
0100
0000
0100
,  // measure 30
0020
0000
0000
0000
,  // measure 31
0100
0100
0100
0230
,  // measure 32
0302
0000
0000
0103
0010
0100
0020
0000
0000
2030
0000
0000
,  // measure 33
3002
0000
0000
0013
0100
0010
0200
0000
0000
0300
0000
0000
,  // measure 34
2000
0000
0000
3010
0100
0010
0200
0000
0000
0302
0000
0000
,  // measure 35
2003
0000
0000
3100
0010
0100
0010
0000
0001
1000
0000
0010
,  // measure 36
0200
0000
0000
0301
1000
0001
2000
0000
0000
3020
0000
0000
,  // measure 37
0230
0000
0000
0301
0010
0100
0020
0000
0000
0030
0000
0000
,  // measure 38
0001
0101
1001
1010
,  // measure 39
0220
0000
0000
0000
0000
0000
0330
0000
0000
1000
0100
0010
,  // measure 40
0001
0100
0010
0100
0000
0001
0010
0000
0100
1000
0000
0010
,  // measure 41
0100
0001
1000
0200
0000
0000
0310
0001
1000
0010
0000
0010
,  // measure 42
1000
0000
0001
0100
0000
0001
0010
0000
0100
1000
0000
0001
,  // measure 43
1000
0000
0000
0010
0100
0010
1000
0000
1000
0001
0000
0001
,  // measure 44
0010
0000
0001
0100
0010
0100
0001
0000
1000
0100
0010
0100
,  // measure 45
1000
0000
0001
0100
0010
1000
0200
0000
0000
0310
0000
0000
,  // measure 46
0001
1000
0100
0010
0000
0100
1000
0010
0100
0001
0000
0100
,  // measure 47
0040
0000
0000
0030
0000
0000
0000
0000
0000
0000
0000
0000
1000
0000
0000
0000
0010
0000
0000
0000
0100
0000
0000
0000
0010
0000
0000
0000
0100
0000
0000
0000
0001
0000
0000
0000
2000
0000
0000
0000
0000
0000
0000
0000
0000
0000
0000
0000
,  // measure 48
3001
0000
0000
0101
0000
0000
1010
0000
0000
0101
0000
0010
,  // measure 49
1000
0001
0100
0010
0000
0010
1000
0001
0010
0200
0000
0000
,  // measure 50
1300
0000
0000
1100
0000
0000
0011
0000
0000
1100
0000
0100
,  // measure 51
0010
0001
1000
0100
0000
0000
0100
1000
0010
0100
0001
0010
,  // measure 52
0001
0000
1000
0010
0000
0100
0001
0000
1000
0010
0000
0100
,  // measure 53
0001
0000
0010
0001
0000
1000
0100
0000
0010
0001
0000
1000
,  // measure 54
0100
0000
0100
1000
0000
1000
0001
0000
0001
0010
0000
0010
,  // measure 55
0001
0000
1000
0001
0000
1000
0001
0000
1000
000M
0000
1000
,  // measure 56
0001
0000
0001
0100
0010
1000
0100
1000
0010
0100
0010
1000
,  // measure 57
0100
0000
1000
0100
0000
0010
0100
0000
0001
0200
0000
0000
,  // measure 58
1300
0000
1000
0100
0010
0001
0100
0001
0010
0100
0010
0001
,  // measure 59
0100
0000
0100
0001
0000
0100
0010
0000
0010
1000
0001
1000
,  // measure 60
0100
0000
0000
0100
1000
0100
0010
0000
0000
1100
0000
0000
,  // measure 61
0101
0000
0000
0100
0001
0100
0010
0000
0000
1010
0000
0000
,  // measure 62
0011
0000
0000
1001
0000
0000
0110
0000
0000
1001
0000
0001
,  // measure 63
0100
0000
0001
1000
0000
0100
0010
0000
0001
1000
0000
1000
,  // measure 64
0200
2300
3020
0032
,  // measure 65
0203
0302
0023
2030
,  // measure 66
3200
0302
0023
2030
,  // measure 67
3200
2300
3020
0032
,  // measure 68
0203
0302
2003
3020
,  // measure 69
0230
0320
2030
3002
,  // measure 70
0023
0230
2300
3020
,  // measure 71
0130
0001
0100
0010
1000
0010
1000
0100
1000
0001
0010
0001
,  // measure 72
1000
1000
0100
0010
0000
0001
0100
0010
0100
0010
0000
1000
,  // measure 73
0001
0000
0001
0100
0000
0100
0010
1000
0010
0100
0001
0010
,  // measure 74
0100
0000
0100
1000
0000
0010
1000
0001
0100
0001
0000
0001
,  // measure 75
1000
0000
0010
1000
0000
0001
0010
0100
1000
0010
0100
0001
,  // measure 76
1000
0000
1000
0001
0100
0010
0100
0001
1000
0010
0000
1000
,  // measure 77
0010
0100
0001
0100
0000
0100
0001
1000
0010
1000
0001
0010
,  // measure 78
0100
0000
0100
1000
0000
0010
0100
0000
0100
0001
0000
0010
,  // measure 79
0100
0000
0000
1100
0000
0000
0011
0000
0000
0001
0100
0010
,  // measure 80
1000
0000
0000
0011
0000
0000
1000
0010
0100
0001
0100
0010
,  // measure 81
1000
0000
0000
0001
0010
0100
1000
0100
0010
0001
0000
0000
,  // measure 82
0001
0000
0000
1010
0000
0000
0001
1000
0010
0100
0010
1000
,  // measure 83
0001
0000
0000
1000
0001
0010
0100
0010
0001
1000
0000
0000
,  // measure 84
0110
0000
0000
0001
1000
0010
1000
0001
0010
0001
0000
0001
,  // measure 85
1000
0100
1000
0001
0100
0001
0100
0010
1000
0001
0000
0000
,  // measure 86
0110
0000
0000
1000
0001
1000
0001
0100
0010
1000
0001
0010
,  // measure 87
0001
0100
1000
0100
0010
1000
0100
0001
0100
0010
0001
1000
,  // measure 88
0020
0000
0000
0030
;
