#TITLE:Contrapasso;
#SUBTITLE:-paradiso-;
#ARTIST:t+pazolite;
#TITLETRANSLIT:;
#SUBTITLETRANSLIT:;
#ARTISTTRANSLIT:;
#GENRE:;
#CREDIT:;
#BANNER:Contrapasso -paradiso-.png;
#BACKGROUND:Contrapasso -paradiso--bg.png;
#LYRICSPATH:;
#CDTITLE:;
#MUSIC:Contrapasso -paradiso-.ogg;
#OFFSET:-1.003000;
#SAMPLESTART:89.882004;
#SAMPLELENGTH:15.802467;
#SELECTABLE:YES;
#BPMS:0.000000=121.500008
,50.000000=486.000031
,58.000000=243.000015
,186.000000=60.750004
,193.000000=121.500008
,195.000000=243.000015
,251.000000=121.500008
,255.000000=243.000015
,283.000000=486.000031
,291.000000=243.000015
,419.000000=121.500008
;
#STOPS:
;
#BGCHANGES:;
#KEYSOUNDS:;
#ATTACKS:;

//---------------dance-single - ----------------
#NOTES:
     dance-single:
     :
     Medium:
     9:
     0.505063,0.614346,0.218045,0.498388,0.015575,454.000000,426.000000,28.000000,64.000000,0.000000,0.000000,0.505063,0.614346,0.218045,0.498388,0.015575,454.000000,426.000000,28.000000,64.000000,0.000000,0.000000:
0000
0000
0000
0000
,
0000
0000
0000
0000
,
0020
0000
0130
0001
0200
0000
0301
1000
,
0002
2003
3002
0013
,
0200
0000
1300
0100
2000
0000
3001
0010
,
0002
0203
0320
1030
,
0010
0000
0100
0001
0010
0000
0001
1000
,
0010
0000
0100
0010
0100
0001
0010
0000
,
2002
3003
2000
3020
,
0130
0000
0010
0100
0001
0000
0100
0001
,
1000
0000
0001
1000
0010
1000
0010
0000
,
0110
0000
1000
0010
1000
0001
0100
0010
,
0200
0000
0000
0002
0300
0000
0003
0000
0200
0000
0000
0000
0000
0000
0000
0000
,
0000
0000
0000
0000
,
0300
0000
2000
0100
,
3001
0100
0200
0010
,
0001
0001
0310
1000
,
0010
0100
0001
1000
,
0020
1030
0020
0100
,
1030
0001
0001
0100
,
0001
1000
1010
0000
,
0011
0000
1001
0000
,
0220
0330
0002
1000
,
0103
0010
0020
1000
,
0100
0100
1030
0010
,
0100
0001
1000
0100
,
1000
0010
2000
0010
,
3100
0010
0010
0100
,
0010
0001
0011
0000
,
0101
0000
1100
0000
,
2002
0000
3003
0000
0010
0000
0100
0010
,
0000
1000
0000
0010
0000
1000
0001
0000
,
0100
0001
0010
0010
,
0001
0000
1000
0001
0000
1000
0000
0010
,
0100
0001
0100
0000
0010
0000
1000
0100
,
0000
1000
0000
0001
0000
1000
0010
0000
,
0100
0000
0010
0000
2000
0000
0000
0001
,
0001
3001
0100
0010
,
0220
0330
0100
0000
,
0100
0000
0001
0001
,
0000
0000
1000
0010
2000
0000
0000
0000
,
0200
0000
3000
0000
1300
0000
0001
1000
,
0001
0101
0200
0300
,
0002
0003
0020
0030
,
0200
0000
0310
0000
0002
0000
0000
1000
,
1000
0000
1003
0000
0010
0100
0010
0100
,
0000
0001
0010
0000
2002
0000
3003
0000
,
2020
3030
0022
0033
,
0220
0000
0330
0001
1000
0010
0100
0001
,
0000
1000
0000
0010
0100
0000
0001
0000
,
0000
1000
0010
0000
0100
0000
0010
0000
,
1000
0010
0000
0100
0000
0001
0000
0010
,
0010
0000
0001
0000
0010
0000
0100
0010
,
0000
0100
0000
1000
0001
1000
0000
0010
,
0100
0010
1000
2010
,
0010
0000
3010
0000
0001
0000
0000
0010
,
0100
0000
1000
0000
0001
0000
0010
0001
,
0000
0010
0100
0000
1000
0001
0000
0010
,
0000
0100
0010
0000
0001
0000
0000
1000
,
0010
0100
0000
0001
0000
1000
0000
0010
,
0100
0000
0001
0000
0010
0000
0100
0100
,
0000
0010
0000
0001
0010
0100
0000
1000
,
1000
0000
0000
0000
0001
0000
0000
1000
0000
0000
0001
0000
0000
0010
0100
0000
,
0010
0000
0001
0000
0000
1000
0100
0000
0010
0000
0100
0000
0020
0000
0000
0000
,
0100
1000
1000
0130
,
0010
0110
0100
2000
,
0001
0010
0010
3001
,
1001
0000
0010
0001
0010
0000
0200
0000
,
0010
1000
0310
2000
,
0001
0100
3001
0010
,
0001
0100
0010
2000
,
0000
0000
0000
0000
,
0000
3000
0000
0200
,
0010
1300
0010
0020
,
1000
0100
0100
1030
,
0001
0100
0001
0010
,
0100
2000
3100
2000
,
0001
3100
0010
0010
,
0001
0010
0100
1100
,
1000
1010
0010
0110
,
0100
2002
3003
0020
,
0100
1030
0001
0002
,
0100
0010
0010
0103
,
0010
1000
0010
0100
,
0001
0010
0100
0020
,
0001
0130
1000
1000
,
0001
1000
0010
1010
,
1000
1001
0001
0201
,
0000
0010
0010
0000
0310
0000
1000
0000
,
0001
1000
0100
1000
,
0010
0000
0100
0000
0001
0010
0001
0000
,
1000
0010
0100
0010
,
1000
0000
0010
0100
0001
0100
0010
0000
,
0100
0001
0100
0010
,
1000
0000
0001
0000
1000
0001
1000
0000
,
0000
0010
0000
0000
0100
0000
2010
0000
,
0000
0001
0001
0000
3001
0000
0010
0000
,
0010
0001
0001
1000
,
1000
0000
0100
0000
0100
1000
0001
0000
,
0001
1000
1000
0100
,
0100
0000
0010
0000
0010
0100
0010
0000
,
0001
0010
0001
0000
1000
0001
1000
0000
,
0100
1000
0100
0000
0100
0010
0100
0000
,
1000
0000
0001
0000
0010
0000
0001
1000
,
0010
0100
0001
0000
1001
0000
0200
0000
,
0000
0000
0000
0300
0000
0000
0000
0000
0000
0000
0000
0000
0000
0000
0000
0000
;

//---------------dance-single - ----------------
#NOTES:
     dance-single:
     :
     Hard:
     12:
     0.861054,0.995803,0.436090,0.186896,0.241407,774.000000,718.000000,56.000000,24.000000,15.000000,0.000000,0.861054,0.995803,0.436090,0.186896,0.241407,774.000000,718.000000,56.000000,24.000000,15.000000,0.000000:
0000
0000
0000
0000
,
0000
0000
0000
0000
,
0110
0100
0001
0010
0001
1000
0010
0100
,
0001
0100
0001
0100
0010
0100
0010
1000
,
0100
0010
0100
1000
0010
0100
0001
1000
,
0001
0100
0010
0100
0001
1000
0100
1000
,
0010
0000
0100
0010
0100
0000
0001
0000
0010
0000
0100
0010
0100
0000
1000
0000
,
0010
0000
0100
0010
0100
0000
0001
0000
0010
0001
0010
0001
0000
1000
0001
0000
,
1001
0000
1100
0101
,
0011
0000
0001
0010
0001
0000
0100
0000
0010
0000
1000
0010
1000
0000
0001
0000
,
0010
0000
0100
1000
0100
0000
0010
0000
0001
0100
0001
0100
0000
0010
1000
0000
,
1010
0000
0010
0000
0010
0000
0010
0100
0010
0000
0100
0000
0100
0000
0100
0000
,
0010
0000
0000
1000
0000
0000
0000
0000
0000
0001
0000
0000
0000
0000
0000
0010
0000
0000
0100
0000
0000
0000
0000
0000
0004
0000
0000
0000
0000
0000
0000
0000
4000
0000
0000
0000
0000
0000
0000
0000
0000
0000
0000
0000
0000
0000
0000
0000
,
0000
0000
3003
0000
,
1001
0000
0000
0000
0100
0010
0100
0010
,
0100
0010
1000
0010
1000
0001
1000
0001
,
0010
0001
0010
0010
0010
0001
0100
0001
,
0100
0010
0100
0010
1000
0010
0100
0010
,
1000
0000
0100
0000
0010
0000
0001
0000
0000
0001
0000
0000
0001
0000
0000
0100
0000
0000
0001
0000
0000
0100
0000
0000
,
0001
0010
0001
0010
0100
0010
0001
1000
,
0010
1000
0100
0100
0100
0000
0101
0001
,
0000
0011
0010
0000
1001
0000
1001
0000
,
0210
0010
0310
0000
0100
0001
0100
0010
,
0100
0001
0100
0010
1000
0010
1000
0100
,
1000
0001
1000
1000
1000
0010
0100
0010
,
0100
0001
0010
0001
1000
0001
1000
0100
,
0010
0000
0001
0000
1000
0000
0100
0000
0000
0100
0000
0000
0100
0000
0000
1000
0000
0000
0100
0000
0000
0010
0000
0000
,
0100
1000
0100
0010
0001
0100
0001
0010
,
0001
0100
0001
0001
0001
1000
0000
1001
,
0000
0011
0101
0101
,
2100
0000
3010
0000
1000
0010
0100
0010
,
1000
0001
0010
0100
0010
0001
0100
0010
,
1000
0001
0100
0100
0100
0010
1000
0001
,
0200
0301
0010
0001
1000
0200
1300
0010
,
1000
0000
0001
0000
0100
0000
0010
0000
0000
0010
0000
0000
0010
0000
0000
0100
0000
0000
0001
0000
0000
1000
0000
0000
,
0010
1000
0100
1000
0001
0100
0010
1000
,
0100
0010
0001
0010
0011
0000
0000
0100
,
0110
0000
0110
0000
1000
0001
1000
0000
,
2020
3030
1100
1000
,
1000
1000
0101
0101
,
0001
0000
0100
0100
0110
0000
0010
0000
,
1000
0001
1000
1000
0100
0000
0010
0100
,
0010
0001
0010
0000
0012
0000
1003
0000
,
2001
3100
1200
0310
,
0110
0000
1000
0001
1000
0000
0011
0000
,
0101
0000
1001
0000
0100
1000
1000
0100
,
1000
0000
0010
0000
0100
0000
0000
0000
2002
0000
0000
3003
0000
0100
0001
0010
,
0022
0000
0000
0000
0033
0000
0000
0100
0202
0000
0000
0000
0303
0010
1000
0100
,
2200
0000
0000
0000
3300
1000
0010
0100
0001
0010
0001
0100
0010
0000
1000
0000
,
0010
0100
0010
1000
0001
0000
0010
0010
,
0100
0010
0100
1000
0100
0000
1000
0010
,
0100
0100
0001
1000
0001
1000
0000
0010
,
0010
0000
1000
0010
0100
0000
0010
1000
,
0001
0100
0001
0010
0100
1000
0010
1000
,
1000
0000
0000
0010
0000
0000
0100
0000
0000
0001
0000
0000
0010
0000
0000
0001
0000
0000
2000
0000
0000
0000
0010
0000
,
0000
0000
0001
0000
0000
0000
3010
0000
0000
0000
0000
0000
1001
0000
0000
0000
0000
0000
0000
0000
0000
1000
0000
0000
,
0100
0010
0001
0100
0010
0100
0001
1000
,
0100
0010
0010
0100
1000
0001
0000
0100
,
0010
0100
0001
1000
0100
0000
MMMM
1000
,
0010
0010
0000
1000
0000
0010
0100
0001
,
0100
0010
1000
0100
0010
0000
0001
0001
,
1000
0001
1000
0010
1000
0100
0010
0100
,
0100
0000
0010
0000
0001
0000
0000
0001
0000
0000
0110
0000
0000
1000
1000
0000
,
0010
0000
0100
0100
0000
0001
0100
0010
1000
0010
0100
0001
1001
0000
0000
0000
,
1000
1000
1000
1000
,
0010
0000
0100
0010
0100
0010
0101
0000
,
0001
0001
0001
0001
,
2000
0000
3010
1000
0010
0000
1010
0000
,
0010
0000
0100
0010
0100
0000
1100
0000
,
1000
0000
0001
1000
0001
0000
0100
0010
,
1000
0000
0000
0001
0000
0000
0100
0000
0000
0001
0000
0000
1000
0000
0000
0100
0000
0000
0040
0000
0400
0000
0000
0000
,
0000
0000
0000
0330
,
0000
0000
0110
0000
0000
0000
1000
0001
,
0100
0010
0100
0010
1000
0001
1000
0010
,
1000
0100
0010
0001
1000
1000
1000
0010
,
0100
0001
1000
0010
0100
0001
0010
0100
,
0010
0000
0000
0001
0000
0000
1000
0000
0001
0000
0010
0000
0100
0000
0000
0100
0000
0000
0100
0000
0000
1000
0000
0000
,
0010
1000
0010
0100
0001
0100
0010
0100
,
0001
0010
0100
0001
0010
0010
0010
0000
,
1010
1000
0000
1001
0001
0000
0110
0000
,
0110
0000
0012
0010
0013
0000
0001
0100
,
0010
0100
0010
1000
0001
0100
0010
0100
,
0001
0100
0010
1000
0010
0010
0010
0100
,
0010
1000
0001
0100
0001
1000
0100
0100
,
0100
0000
1000
0000
0010
0000
0100
0000
0010
0100
0010
0100
0010
0000
1000
0000
,
0010
1000
0100
0100
1000
0100
1000
1000
,
0001
0001
0010
0010
0400
0000
1300
0001
,
0000
1001
0000
0000
0110
0000
000M
0M00
,
M000
00M0
000M
M000
00M0
0000
0100
0001
,
0100
0010
0100
0010
1000
1000
1000
0010
,
1000
0001
1000
0001
1000
0000
0010
0000
0100
0000
0100
0000
0100
0000
0001
0000
,
1000
0001
0100
0001
0010
0001
0100
0100
,
0010
0010
0100
0001
1000
1000
0010
0100
,
0010
0000
1000
0000
0010
0000
1000
0000
0000
0010
0000
0000
1000
0000
0000
1000
0000
0000
1000
0000
0000
0010
0000
0000
,
0100
0000
0001
0000
0100
0000
0010
0100
0010
0000
0010
0000
0010
0000
1000
0000
,
0000
1010
0000
0000
1100
0001
0101
0000
,
0101
0000
2002
0000
3003
0000
1000
0100
,
1000
0000
0010
0000
1000
0000
0000
0100
1000
0000
0001
0000
0010
0100
0010
0100
,
0010
0000
0001
0000
1000
0000
0001
1000
0001
0000
1000
0000
0100
0000
0010
0000
,
1000
0000
0000
0100
0000
0000
1000
0000
0010
0000
0100
0000
0001
0000
0000
0001
0000
0000
0010
0000
0000
0004
0000
0000
,
1003
0004
0103
0010
1000
0000
1000
1000
,
0001
0000
0001
0000
0100
0000
0001
0000
0100
0001
0100
0001
0100
0000
0010
0000
,
1000
0000
0010
0000
1000
0001
1000
0001
1000
0000
1000
0000
0010
0000
0010
0000
,
0100
0100
0001
0001
0010
0010
0100
1000
,
0010
0100
0001
1000
0010
0010
2002
0000
,
0000
3003
0000
0000
,
0000
0000
0000
0000
0000
0000
0000
0000
M00M
0MM0
0000
0000
0000
0000
0000
0000
;

//---------------dance-single - ----------------
#NOTES:
     dance-single:
     :
     Easy:
     5:
     0.305930,0.448647,0.093448,0.171321,0.000000,275.000000,263.000000,12.000000,22.000000,0.000000,0.000000,0.305930,0.448647,0.093448,0.171321,0.000000,275.000000,263.000000,12.000000,22.000000,0.000000,0.000000:
0000
0000
0000
0000
,
0000
0000
0000
0000
,
1000
1000
0001
0001
,
0100
0010
0100
0001
,
0100
0100
0010
0010
,
0001
1000
0001
1001
,
0100
0000
0010
0000
1000
0000
0010
1000
,
0010
0000
0100
0000
0001
0000
0100
0010
,
0100
0000
1000
0001
,
2000
0010
3010
0100
,
0010
0001
0010
0100
,
0210
0001
0301
0010
,
2000
0002
3003
0000
,
0000
0000
0000
0000
,
0000
0000
0100
0000
,
0010
0000
1000
0000
,
0001
0010
0001
0000
,
0100
0000
1000
0000
,
0010
0010
0100
0000
,
0001
0000
1000
0000
,
0100
0010
0100
0000
,
0001
0000
1000
0000
,
0010
0000
1000
0000
,
0010
0000
0100
0000
,
0010
0001
0010
0000
,
1000
0000
0001
0000
,
0100
1000
0100
0000
,
0010
0000
0001
0000
,
1000
0001
1000
0000
,
0010
0000
0100
0000
,
1001
0000
0010
0000
,
0001
0000
0010
0000
,
1000
1000
0010
0000
,
0100
0000
1000
0000
,
0010
0010
0100
0000
,
0001
0000
0010
0000
,
0001
0001
2000
0000
,
0001
0000
3001
0000
,
0110
0000
2000
0000
,
3000
0000
0020
0000
,
0030
0000
0100
0000
,
0001
0000
0200
0000
,
0300
0000
0001
0000
,
0010
0000
1000
0000
,
0010
0000
1000
0001
,
1000
0001
0200
0000
,
0300
0000
0110
0000
,
1000
0000
0001
0000
,
2000
3000
0110
0001
,
0000
0100
0010
0100
,
0000
1000
1000
0001
,
0000
0100
1000
0100
,
0000
0001
0001
0010
,
0000
0100
0000
1000
,
0010
0001
0010
1000
,
0000
1000
0000
0001
,
0000
1001
0000
0010
,
0010
0100
0000
0010
,
0001
0010
1000
0000
,
0100
0100
0000
0001
,
0100
0001
0000
0010
,
0000
1000
0000
0001
,
0100
0010
1000
0002
,
0000
0003
0000
0100
,
0000
0100
0000
0200
,
0000
0300
0000
0010
,
0000
0010
0000
0020
,
0000
0030
0000
2000
,
0000
3001
0000
0002
,
0000
0103
0000
0200
,
0000
0020
0000
0330
,
0000
0000
0000
0000
,
0000
0000
0000
0010
,
0000
1000
0000
0010
,
0000
0100
1000
0100
,
0000
0001
0000
0010
,
0000
0001
0001
1000
,
0000
0010
0000
0100
,
0000
0001
0100
0001
,
0000
0010
0000
1000
,
0000
0110
0000
0010
,
0000
1000
0000
0001
,
0000
1000
0010
1000
,
0000
0001
0000
0100
,
0000
0010
0010
1000
,
0000
0100
0000
0010
,
0000
0010
1000
0020
,
0000
0230
0000
0302
,
0000
1003
0000
0001
,
1000
0001
1000
0001
,
0010
0001
0000
0010
,
1000
0010
1000
0010
,
0100
0010
0000
0001
,
0100
1000
0100
0001
,
0010
0001
1000
0010
,
0000
1001
0000
0220
,
0000
0330
0000
0010
,
0001
0010
0001
1000
,
0001
1000
0001
0100
,
0010
0100
0010
1000
,
0010
1000
0000
1000
,
0001
0001
0010
0010
,
0100
0100
0010
0010
,
0000
0100
0000
1000
,
0000
1001
0000
0110
;

//---------------dance-single - ----------------
#NOTES:
     dance-single:
     :
     Beginner:
     3:
     0.231394,0.367074,0.070086,0.062299,0.000000,208.000000,199.000000,9.000000,8.000000,0.000000,0.000000,0.231394,0.367074,0.070086,0.062299,0.000000,208.000000,199.000000,9.000000,8.000000,0.000000,0.000000:
// measure 0
0000
0000
0000
0000
,  // measure 1
0000
0000
0000
0000
,  // measure 2
0010
0000
0100
0000
,  // measure 3
0010
0000
0010
0000
,  // measure 4
0001
0000
1000
0000
,  // measure 5
0001
0000
0001
0000
,  // measure 6
0100
0100
0100
0000
,  // measure 7
0010
0010
0010
0000
,  // measure 8
1001
0000
0000
0000
,  // measure 9
1000
0000
0001
0000
,  // measure 10
1000
0000
0001
0000
,  // measure 11
0110
0000
0010
0000
,  // measure 12
0100
0000
0000
0000
,  // measure 13
0000
0000
0000
0000
,  // measure 14
0000
0000
0010
0000
,  // measure 15
0100
0000
1000
0000
,  // measure 16
0100
0000
0010
0000
,  // measure 17
0100
0000
0001
0000
,  // measure 18
0001
0000
1000
0000
,  // measure 19
0010
0000
0100
0000
,  // measure 20
0010
0000
2000
0000
,  // measure 21
3000
0000
2000
0000
,  // measure 22
3000
0000
0100
0000
,  // measure 23
0001
0000
0100
0000
,  // measure 24
1000
0000
0100
0000
,  // measure 25
1000
0000
0001
0000
,  // measure 26
0001
0000
0010
0000
,  // measure 27
0100
0000
0010
0000
,  // measure 28
0001
0000
0200
0000
,  // measure 29
0300
0000
0200
0000
,  // measure 30
0300
0000
0010
0010
,  // measure 31
0010
0000
0100
0000
,  // measure 32
1000
0000
0100
0100
,  // measure 33
0100
0000
1000
0000
,  // measure 34
0001
0000
1000
1000
,  // measure 35
1000
0000
0001
0000
,  // measure 36
0100
0000
0002
0000
,  // measure 37
0003
0000
1000
0000
,  // measure 38
1001
0000
0001
0000
,  // measure 39
0000
0000
0001
0000
,  // measure 40
0000
0000
0010
0000
,  // measure 41
0000
0000
0010
0000
,  // measure 42
0000
0000
1000
0000
,  // measure 43
0100
0000
0001
0000
,  // measure 44
0100
0000
1000
1000
,  // measure 45
1000
0000
0020
0000
,  // measure 46
0030
0000
0110
0000
,  // measure 47
0000
0000
0000
0000
,  // measure 48
0000
0000
0000
0010
,  // measure 49
0000
0100
0000
0010
,  // measure 50
0000
0010
0000
1000
,  // measure 51
0000
0100
0000
1000
,  // measure 52
0000
1000
0000
0001
,  // measure 53
0000
1000
0000
0001
,  // measure 54
0000
0001
0000
0020
,  // measure 55
0000
0030
0000
0001
,  // measure 56
0000
1001
0000
0100
,  // measure 57
0000
1000
0000
0010
,  // measure 58
0000
0100
0100
0000
,  // measure 59
0001
0001
0000
0010
,  // measure 60
0000
1000
1000
1000
,  // measure 61
0000
0001
0000
0010
,  // measure 62
0000
0100
0100
0100
,  // measure 63
0000
0000
0000
1001
,  // measure 64
0000
0000
0000
0001
,  // measure 65
0000
1000
0000
0001
,  // measure 66
0000
0000
0000
0010
,  // measure 67
0000
0100
0000
0010
,  // measure 68
0000
0000
0000
0100
,  // measure 69
0000
0000
0000
1000
,  // measure 70
0000
0000
0000
0000
,  // measure 71
0000
0000
0000
0000
,  // measure 72
0000
0000
0000
0001
,  // measure 73
0000
1000
0000
0001
,  // measure 74
0000
1000
0000
0010
,  // measure 75
0000
1000
0000
0010
,  // measure 76
0000
1000
0000
0100
,  // measure 77
0000
1000
0000
0100
,  // measure 78
0000
1000
0000
0001
,  // measure 79
0000
0001
0000
1000
,  // measure 80
0000
1001
0000
0010
,  // measure 81
0000
0001
0000
0100
,  // measure 82
0000
1000
0000
0100
,  // measure 83
0000
0010
0000
1000
,  // measure 84
0000
0001
0000
0010
,  // measure 85
0000
0001
0000
1000
,  // measure 86
0000
0010
0000
0100
,  // measure 87
0000
0010
0000
0200
,  // measure 88
0000
0300
0000
1000
,  // measure 89
1000
1000
0000
0010
,  // measure 90
0000
0100
0000
0010
,  // measure 91
0010
0010
0000
0001
,  // measure 92
0000
0010
0000
0100
,  // measure 93
0100
0100
0000
1000
,  // measure 94
1000
1000
0000
0010
,  // measure 95
0000
0001
0000
0010
,  // measure 96
0000
0110
0000
0010
,  // measure 97
0010
0010
0000
0100
,  // measure 98
0100
0100
0000
1000
,  // measure 99
1000
1000
0000
0001
,  // measure 100
0001
0001
0000
0010
,  // measure 101
0010
0100
0100
0010
,  // measure 102
0010
1000
1000
0001
,  // measure 103
0001
1000
1000
0010
,  // measure 104
0000
0100
0000
1001
;
