#VERSION:0.83;
#TITLE:Celebrate;
#SUBTITLE:(Snail's House Remix);
#ARTIST:lapix feat. Shully;
#TITLETRANSLIT:;
#SUBTITLETRANSLIT:;
#ARTISTTRANSLIT:;
#GENRE:Future Bass;
#ORIGIN:;
#CREDIT:paperpeach (song), CuzcoBlocko (steps);
#BANNER:[Round H] - Celebrate (Snail's House Remix).png;
#BACKGROUND:[Round H] - Celebrate (Snail's House Remix)-bg.png;
#PREVIEWVID:;
#JACKET:[Round H] - Celebrate (Snail's House Remix)-jacket.png;
#CDIMAGE:;
#DISCIMAGE:;
#LYRICSPATH:;
#CDTITLE:cdtitle.png;
#MUSIC:[Round H] - Celebrate (Snail's House Remix).ogg;
#OFFSET:0.026000;
#SAMPLESTART:45.665493;
#SAMPLELENGTH:15.000000;
#SELECTABLE:YES;
#DISPLAYBPM:87.500000:175.000000;
#BPMS:0.000=175.000,
62.000=350.000,
66.000=87.500,
69.500=43.750,
69.625=131.250,
70.000=65.625,
70.188=32.813,
70.375=175.000,
70.625=262.500,
71.000=175.000,
75.000=87.500,
76.000=175.000,
82.000=87.500,
83.000=175.000,
83.500=262.500,
84.375=175.000,
84.750=116.667,
85.000=175.000,
89.000=87.500,
90.000=175.000,
96.000=87.500,
97.000=65.625,
97.188=32.813,
97.375=175.000,
97.625=262.500,
98.000=175.000,
102.000=87.500,
103.000=175.000,
109.021=5.526,
109.083=145.833,
109.500=262.500,
110.375=175.000,
110.750=116.667,
111.000=175.000,
115.000=87.500,
116.000=175.000,
124.000=65.625,
124.188=32.813,
124.375=175.000,
124.625=262.500,
125.000=175.000,
129.000=87.500,
130.000=175.000,
136.000=87.500,
137.000=175.000,
137.500=262.500,
138.375=175.000,
138.750=116.667,
139.000=175.000,
153.000=65.625,
153.188=32.813,
153.375=175.000,
153.625=262.500,
154.000=175.000,
158.000=87.500,
159.000=175.000,
181.000=350.000,
185.000=175.000,
185.375=87.500,
185.563=43.750,
185.750=87.500,
186.000=175.000,
190.000=87.500,
191.000=175.000,
197.000=87.500,
198.000=175.000,
198.500=262.500,
199.375=175.000,
199.750=116.667,
200.000=175.000,
204.000=87.500,
205.000=175.000,
211.000=87.500,
212.000=175.000,
212.375=87.500,
212.563=43.750,
212.750=87.500,
213.000=175.000,
217.000=87.500,
218.000=175.000,
224.000=87.500,
225.000=175.000,
225.500=262.500,
226.375=175.000,
226.750=116.667,
227.000=175.000,
231.000=87.500,
232.000=175.000,
238.000=87.500,
239.000=175.000,
239.375=58.333,
239.875=175.000,
244.021=5.526,
244.083=145.833,
244.500=175.000,
250.000=87.500,
251.000=175.000,
251.500=262.500,
252.188=175.000,
252.375=116.667,
252.625=175.000,
252.813=262.500,
253.000=175.000,
267.375=58.333,
267.875=175.000,
272.000=87.500,
273.000=175.000,
295.000=87.500,
324.000=20.000,
324.500=40.000,
325.000=60.000,
325.500=80.000,
326.000=100.000,
326.500=120.000,
327.000=140.000,
327.500=160.000,
328.000=180.000,
328.500=200.000,
329.000=222.000,
329.500=244.000,
330.000=266.000,
330.500=288.000,
331.000=312.000,
331.500=340.000,
332.000=368.000,
332.500=400.000,
333.000=525.000,
333.500=628.000,
334.000=87.500;
#STOPS:83.500=0.014,
83.625=0.014,
83.750=0.014,
83.875=0.014,
109.500=0.015,
109.625=0.014,
109.750=0.014,
109.875=0.014,
137.500=0.014,
137.625=0.014,
137.750=0.014,
137.875=0.014,
198.500=0.014,
198.625=0.014,
198.750=0.015,
198.875=0.014,
225.500=0.014,
225.625=0.014,
225.750=0.014,
225.875=0.014,
251.500=0.014,
251.625=0.014,
251.750=0.014,
251.875=0.014;
#DELAYS:;
#WARPS:;
#TIMESIGNATURES:0.000=4=4;
#TICKCOUNTS:0.000=4;
#COMBOS:0.000=1;
#SPEEDS:0.000=1.000=0.000=0;
#SCROLLS:0.000=1.000;
#FAKES:;
#LABELS:0.000=Hi.,
324.000=SIMFILE TYCOON 2017;
#BGCHANGES:;
#KEYSOUNDS:;
#ATTACKS:
;

//---------------dance-single - Chart inspired by Nee (Nezemarth) and Deep in the Night (Gameoson).----------------
#NOTEDATA:;
#CHARTNAME:ITG 08 X 13;
#STEPSTYPE:dance-single;
#DESCRIPTION:Chart inspired by Nee (Nezemarth) and Deep in the Night (Gameoson).;
#CHARTSTYLE:Pad;
#DIFFICULTY:Hard;
#METER:8;
#RADARVALUES:0.591712,0.654804,0.199614,0.634486,0.502599,581.000000,553.000000,28.000000,89.000000,185.000000,0.000000,13.000000,0.000000,0.000000,0.591712,0.654804,0.199614,0.634486,0.502599,581.000000,553.000000,28.000000,89.000000,185.000000,0.000000,13.000000,0.000000,0.000000;
#CREDIT:CuzcoBlocko;
#DISPLAYBPM:87.500000:175.000000;
#NOTES:
// measure 0
0000
0000
0000
0000
,  // measure 1
0000
0000
0000
0000
000M
0M00
00M0
0000
,  // measure 2
1020
0000
0000
0000
0000
0000
0130
0001
1000
0000
0100
0000
1000
0000
0100
0000
,  // measure 3
0010
0000
0000
0000
0001
0000
0000
0000
0002
0000
0000
00M0
00M0
00M0
00M0
0000
0103
0000
0000
0000
0010
0000
0000
0000
2000
0000
0000
0000
0000
0000
0000
0000
,  // measure 4
3100
0000
0000
0000
0100
0000
0010
0001
1000
0000
0010
0000
1000
0000
0010
0000
,  // measure 5
0100
0001
0002
0000
0013
0100
1000
0010
,  // measure 6
0200
0000
0001
0000
0310
1000
0001
0010
,  // measure 7
0100
1000
1000
0000
0040
0000
0130
0001
,  // measure 8
0020
1000
0001
0100
,  // measure 9
M031
0000
0000
0000
0000
0000
0000
0000
0000
0000
0000
0000
0001
0000
0000
0000
M000
0000
0000
0000
0000
0M00
0000
0000
1000
0000
00M0
0000
0000
0000
0000
0000
0000
0000
0000
0000
1M00
0000
0000
0000
0000
0000
0000
0000
00M0
0000
0000
0000
,  // measure 10
0010
0000
0000
0000
0100
0000
0010
1000
0001
0000
0100
0000
0001
0000
0100
0000
,  // measure 11
0010
0000
0000
0000
1000
0000
0000
0000
2000
0000
0000
00M0
00M0
00M0
00M0
0000
3100
0000
0000
0000
0010
0000
0000
0000
0002
0000
0000
0000
0000
0000
0000
0000
,  // measure 12
0103
0000
0000
0000
0100
0000
0010
1000
0001
0000
0010
0000
0001
0000
0010
0000
,  // measure 13
0100
1000
2000
0000
3010
0100
0001
0010
,  // measure 14
0200
1000
2300
0100
3100
0010
0001
1000
,  // measure 15
0040
0400
0000
0000
0000
0000
0000
0000
0000
0000
0000
0000
0000
0000
0000
0000
,  // measure 16
M000
0000
0000
0000
0000
0000
0000
0000
M330
0000
000M
M000
0000
0000
0000
0000
,  // measure 17
100M
0000
0000
0000
0000
0000
0000
0000
0000
0000
0000
0000
0001
0000
0000
0000
0000
0000
0000
0000
0000
0000
0000
0000
M010
0000
0000
0000
0000
0000
0000
0000
0000
0000
0000
0000
010M
0000
0000
0000
0000
0000
0000
0000
0000
0000
0000
0000
1000
0000
0000
0000
0000
0000
0000
0000
0000
0000
0000
0000
0010
0000
0000
0000
0000
0000
0000
0000
0000
0000
0000
0000
0200
0000
0000
0000
0000
0000
0300
0000
0000
0000
0000
0000
0000
0000
0000
0000
0000
0000
0000
0000
0000
0000
0000
0000
1002
0000
0000
0000
0000
0000
0000
0000
0000
0000
0000
0000
0000
00M0
0000
0000
0000
0000
0M00
0000
0000
0000
0000
0000
M000
0000
0000
0000
0000
0000
0000
0000
0000
0000
0000
0000
0000
0000
0000
0000
0000
0000
0000
0000
0000
0000
0000
0000
1003
0000
0000
0000
0000
0000
0000
0000
0000
0000
0000
0000
0000
0000
0000
0000
0000
0000
0000
0000
0000
0000
0000
0000
0100
0000
0000
0000
0000
0000
0000
0000
0000
0000
0000
0000
0000
0000
0000
0000
0000
0000
0000
0000
0000
0000
0000
0000
,  // measure 18
0010
0000
0001
0000
1000
0000
0100
0000
0010
0000
0001
0000
1000
0M00
00M0
000M
,  // measure 19
0010
0100
0001
1000
0010
0100
0001
1000
,  // measure 20
0100
0000
0000
0000
0010
0000
0000
0000
0001
0000
0000
0000
1000
0000
0000
0000
0100
00M0
0000
0000
M010
0000
0000
0000
0014
0000
0000
0000
0000
0000
0000
0000
,  // measure 21
0203
0000
M000
00M0
000M
0000
0000
0000
0310
0000
0000
0000
1000
0000
0000
0000
0001
0000
0000
0000
0010
0000
0000
0000
0100
0000
0000
0000
1000
0000
0000
0000
,  // measure 22
0001
0000
0000
0000
0000
0000
0010
0000
0000
0000
0000
0000
0100
0000
0000
1000
0000
0000
0001
0000
0000
M000
0M00
0000
1000
0000
0000
0000
0000
0000
0001
0000
0000
0000
0000
0000
0100
0000
0000
0000
0000
0000
0010
0000
0000
0000
0000
0000
,  // measure 23
1000
0001
0100
0010
1000
0001
0010
0100
,  // measure 24
1000
0000
0001
0000
0010
0000
0100
0000
2100
000M
00M0
0M00
0000
0000
0000
0000
3010
0000
0000
0000
0100
0000
0000
0000
0001
0000
0000
0000
0010
0000
0000
0000
,  // measure 25
0100
0000
1000
0000
0010
0000
0100
0000
0001
00M0
0M00
M000
0010
0000
0100
0000
,  // measure 26
1000
0001
0100
0010
1000
0100
0010
0001
,  // measure 27
1000
0000
0000
0000
0000
0000
0000
0000
0000
0000
0000
0000
0000
0000
0000
0000
0000
0000
0000
0000
0000
0000
0000
0000
0010
0000
0000
0000
0000
0000
0000
0000
0000
0000
0000
0000
0000
0000
0000
0000
0000
0000
0000
0000
0000
0000
0000
0000
0200
0300
0000
0000
0104
0000
0000
0000
0000
0000
0000
0000
0000
0000
0000
0000
0000
0000
0000
0000
0000
0000
0000
0000
0000
0000
0000
0000
0000
0000
0000
0000
0000
0000
0000
0000
0000
0000
0000
0000
0000
0000
0000
0000
0000
0000
0000
0000
0023
0000
0000
0000
0000
0000
0000
0000
0000
0000
0000
0000
M000
0000
0000
0000
0000
0000
0M00
0000
0000
0000
0000
0000
000M
0000
0000
0000
0000
0000
0000
0000
0000
0000
0000
0000
0000
0000
0000
0000
0000
0000
0000
0000
0000
0000
0000
0000
0130
0000
0000
0000
0000
0000
0000
0000
0000
0000
0000
0000
0000
0000
0000
0000
0000
0000
0000
0000
0000
0000
0000
0000
1000
0000
0000
0000
0000
0000
0000
0000
0000
0000
0000
0000
0000
0000
0000
0000
0000
0000
0000
0000
0000
0000
0000
0000
,  // measure 28
0010
0000
0100
0000
0001
0000
1000
0000
0100
0000
0010
0000
0001
0100
0001
0100
,  // measure 29
0010
1000
0001
0100
0010
1000
0001
0100
,  // measure 30
0010
1000
0100
0010
0001
1000
0001
0100
,  // measure 31
2000
0000
000M
00M0
0M00
0000
0000
0000
3010
0000
0000
0000
0001
0000
0000
0000
1000
0000
0000
0000
1010
0000
0000
0000
0000
0000
0000
0000
0010
0000
0000
0000
,  // measure 32
0100
0000
0001
0000
1000
0001
0010
0000
2010
0000
0000
0000
3100
0000
0000
0000
,  // measure 33
0100
0001
0010
0100
0000
1100
0000
1000
,  // measure 34
0001
0000
0000
0000
0000
0000
0000
0000
0000
0000
0000
0000
0100
0000
0000
0000
0000
0000
0000
0000
0000
0000
0000
0000
0010
0000
0000
0000
0000
0000
0000
0000
0000
0000
0000
0000
M000
0000
0000
0000
0M00
0000
0000
0000
0000
0000
0000
0000
4010
0000
0000
0000
0000
0000
0000
0000
0000
0000
0000
0000
0000
0000
0000
0000
0000
0000
0000
0000
0000
0000
0000
0000
0000
0000
0000
0000
0000
0000
0000
0000
0000
0000
0000
0000
0000
0000
0000
0000
0000
0000
0000
0000
0000
0000
0000
0000
3200
0000
0000
0000
0000
0000
0000
0000
0000
0000
0000
0000
000M
0000
0000
0000
0000
0000
00M0
0000
0000
0000
0000
0000
M000
0000
0000
0000
0000
0000
0000
0000
0000
0000
0000
0000
0000
0000
0000
0000
0000
0000
0000
0000
0000
0000
0000
0000
0310
0000
0000
0000
0000
0000
0000
0000
0000
0000
0000
0000
0000
0000
0000
0000
0000
0000
0000
0000
0000
0000
0000
0000
0000
0000
0000
0000
0000
0000
0000
0000
0000
0000
0000
0000
0000
0000
0000
0000
0000
0000
0000
0000
0000
0000
0000
0000
,  // measure 35
0001
0100
0010
1000
0100
0010
0001
0100
,  // measure 36
0010
0000
1010
0000
1000
0100
0001
0100
,  // measure 37
0010
0100
1000
0001
0100
1000
0100
0001
,  // measure 38
1000
0000
0000
0000
0100
0000
0000
0000
0002
M000
00M0
0M00
0000
0000
0000
0000
0013
0000
0000
0000
1000
0000
0000
0000
0001
0000
0000
0000
0011
0000
0000
0000
,  // measure 39
0000
0000
0010
0000
0001
0000
0010
0000
0100
1000
0001
0100
1000
0000
0000
0000
,  // measure 40
1020
0000
0031
0000
0001
0100
1000
0100
,  // measure 41
0010
0100
0001
1000
0100
0010
0012
0000
,  // measure 42
1003
0100
0010
0001
0100
0010
2010
0000
,  // measure 43
3001
0100
0010
1000
0100
0010
0001
0100
,  // measure 44
0100
0000
1000
0000
0001
0000
0010
0000
0010
0000
1000
0000
0400
0040
0000
0000
,  // measure 45
0000
0000
0000
0000
,  // measure 46
0000
0000
0000
0000
0000
0000
0000
0000
0000
0000
0000
0000
0000
0000
0000
0000
0000
0000
0000
0000
0000
0000
0000
0000
0000
0000
0000
0000
0000
0000
0000
0000
0000
0000
0000
0000
0000
0000
0000
0000
0000
0000
0000
0000
0000
0000
0000
0000
0000
0000
0000
0000
0030
0000
0000
0000
0300
0000
0000
0000
0000
0000
0000
0000
0000
0000
0000
0000
0000
0000
0000
0000
M00M
0000
0000
0000
0000
0000
0000
0000
0000
0000
0000
0000
0100
0000
0000
0000
0000
0000
0010
0000
0000
0000
0000
0000
0001
0000
0000
0000
0000
0000
0000
0000
0000
0000
0000
0000
0000
0000
0000
0000
0000
0000
0000
0000
0000
0000
0000
0000
0100
0000
0000
0000
0000
0000
0000
0000
0000
0000
0000
0000
0000
0000
0000
0000
0000
0000
0000
0000
0000
0000
0000
0000
0001
0000
0000
0000
0000
0000
0000
0000
0000
0000
0000
0000
0000
0000
0000
0000
0000
0000
0000
0000
0000
0000
0000
0000
0100
0000
0000
0000
0000
0000
0000
0000
0000
0000
0000
0000
0000
0000
0000
0000
0000
0000
0000
0000
0000
0000
0000
0000
,  // measure 47
1000
0000
0000
0000
0100
0000
0000
0000
0200
0000
0000
M000
M000
M000
M000
0000
0301
0000
10M0
0000
02MM
0000
0000
0300
0011
0000
0000
0000
0000
0000
0000
0000
,  // measure 48
0001
0000
0100
0010
1000
0000
0100
0000
1000
0000
0100
0000
0001
0000
0100
0000
,  // measure 49
0200
0000
0000
0000
0000
0000
0000
0000
1300
00M0
0001
0000
M1M0
0000
1000
0000
0400
0000
0000
0000
0000
0000
0000
0000
0302
0000
00M0
M000
0M00
0000
0000
0000
,  // measure 50
0013
0100
1000
0001
0100
0010
0020
0000
,  // measure 51
4030
0000
3MM1
0010
0021
0000
0000
0000
1000
0000
0000
0000
0001
0000
0000
0000
,  // measure 52
0130
0000
1000
0000
0010
0000
0100
0000
0001
0000
1000
0000
0100
0010
MM01
1000
,  // measure 53
1002
0000
00M0
0M00
M000
0000
0013
0100
1000
0000
0000
0000
0010
0000
0000
0000
1000
0000
0000
0000
0010
0000
0000
0000
0001
0000
0000
0000
0010
0000
0000
0000
,  // measure 54
0020
0000
0000
0000
1030
010M
M01M
0000
0012
0000
0000
0000
1003
0000
0010
0100
,  // measure 55
0001
0010
0001
0010
1000
0010
0020
0000
,  // measure 56
0031
0000
0100
0000
10MM
0000
0001
0000
0040
0000
0000
0000
0000
0000
0000
0000
2030
0000
000M
0M00
00M0
0000
0000
0000
3100
0000
0000
0000
0010
0000
0000
0000
,  // measure 57
0001
0000
1000
0000
0100
0000
0010
0000
0001
0000
1000
0000
0040
0000
0130
0001
,  // measure 58
1000
0100
0100
0001
1000
0010
0010
0001
,  // measure 59
0100
0000
0000
0000
0000
0000
0000
0000
0000
0000
0000
0000
0000
0000
0000
0000
0000
0000
0000
0000
0000
0000
0000
0000
0010
0000
0000
0000
0000
0000
0000
0000
0000
0000
0000
0000
0000
0000
0000
0000
0000
0000
0000
0000
0000
0000
0000
0000
1000
0000
0000
0000
0000
0000
0000
0000
0000
0000
0000
0000
0000
0000
0000
0000
0000
0000
0000
0000
0000
0000
0000
0000
0100
0000
0000
0000
0000
0000
0000
0000
0000
0000
0000
0000
0000
0000
0000
0000
0000
0000
0000
0000
0000
0000
0000
0000
0010
0000
0000
0000
0000
0000
0000
0000
0000
0000
0000
0000
0000
0000
0000
0000
0000
0000
0000
0000
0000
0000
0000
0000
0MM0
0000
0000
0000
0000
0000
0000
0000
0000
0000
0000
0000
0000
0000
0000
0000
0000
0000
0000
0000
0000
0000
0000
0000
2002
0000
0000
0000
0003
0000
0M00
0000
0000
0000
0000
0000
00M0
0000
0000
0000
0000
0000
000M
0000
0000
0000
0000
0000
0000
0000
0000
0000
0000
0000
0000
0000
0000
0000
0000
0000
0020
0000
0000
0000
3030
0000
0000
0000
0000
0000
0000
0000
,  // measure 60
0100
0000
0000
0000
0000
0000
0001
0000
0000
0000
0000
0000
0010
0000
0000
0000
0000
0000
0200
0300
0000
0000
0000
0000
1000
0000
0000
0000
0000
0000
0020
0030
0000
0000
0000
0000
0001
0000
0000
0000
0000
0000
0010
0000
0000
0000
0000
0000
,  // measure 61
1000
2001
3000
0000
0000
0000
0000
0000
0000
0000
0000
0000
1000
0000
0000
0000
0000
0000
0020
0030
0000
0000
0000
0000
0100
0000
0000
0000
0000
0000
0001
0000
0000
0000
0000
0000
0020
0030
0000
0000
0000
0000
1000
0000
0000
0000
0000
0000
,  // measure 62
0010
0000
0000
0000
0000
0000
0001
0000
0000
0000
0000
0000
0200
0300
0000
0000
0000
0000
0010
0000
0000
0000
0000
0000
1000
0000
0000
0100
0000
0000
0010
0000
0000
M000
0M00
0000
0024
0030
0000
0000
0000
0000
0000
0000
0000
0000
0000
0000
,  // measure 63
0203
0000
0000
0000
0000
0000
2300
3000
0000
0000
0000
0000
0001
0000
0000
0000
0000
0000
0010
0000
0000
0000
0000
0000
2000
3000
0000
0000
0000
0000
0100
0000
0000
0000
0000
0000
0010
0000
0000
0000
0000
0000
0002
0003
0000
0000
0000
0000
,  // measure 64
0100
0000
0000
0000
0000
0000
0010
0000
0000
0000
0000
0000
1000
0000
0000
0000
0000
0000
0100
0000
0000
0000
0000
0000
0010
0000
0000
0000
0000
0000
0100
0000
0000
0000
0000
0000
2000
3000
0000
0000
0000
0000
0010
0000
0000
0000
0000
0000
,  // measure 65
0001
0000
0000
0000
0000
0000
2000
3000
0000
0000
0000
0000
0100
0000
0000
0000
0000
0000
0001
0000
0000
0000
0000
0000
0020
0030
0000
0000
0000
0000
0100
0000
0000
0000
0000
0000
1000
0000
0000
0000
0000
0000
0002
0003
0000
0000
0000
0000
,  // measure 66
0100
0000
0000
0000
0000
0000
0000
0000
0000
0000
0000
0000
0000
0000
0000
0000
0000
0000
0000
0000
0000
0000
0000
0000
0010
0000
0000
0000
0000
0000
0000
0000
0000
0000
0000
0000
0000
0000
0000
0000
0000
0000
0000
0000
0000
0000
0000
0000
1000
0000
0000
0000
0000
0000
0000
0000
0000
0000
0000
0000
0000
0000
0000
0000
0000
0000
0000
0000
0000
0000
0000
0000
0010
0000
0000
0000
0000
0000
0000
0000
0000
0000
0000
0000
0000
0000
0000
0000
0000
0000
0000
0000
0000
0000
0000
0000
0100
0000
0000
0000
0000
0000
0000
0000
0000
0000
0000
0000
0000
0000
0000
0000
0000
0000
0000
0000
0000
0000
0000
0000
0001
0000
0000
0000
0000
0000
0000
0000
0000
0000
0000
0000
0000
0000
0000
0000
0000
0000
0000
0000
0000
0000
0000
0000
2002
0000
0000
0000
3000
0000
0000
0000
0000
0000
0000
0000
00M0
0000
0000
0000
0000
0000
0M00
0000
0000
0000
0000
0000
M000
0000
0000
0000
0000
0000
0000
0000
0000
0000
0000
0000
0023
0000
0000
0000
0030
0000
0000
0000
0000
0000
0000
0000
,  // measure 67
0100
0000
0000
0000
0000
0000
1000
0000
0000
0000
0000
0000
0001
0000
0000
0000
0000
0000
0200
0300
0000
0000
0000
0000
0010
0000
0000
0000
0000
0000
2000
3000
0000
0000
0000
0000
0001
0000
0000
0000
0000
0000
0010
0000
0000
0000
0000
0000
,  // measure 68
0100
0000
0000
1000
0000
0000
0001
0000
0000
0M00
M000
0000
0201
0300
0000
0000
0000
0000
0000
0000
0000
0000
0000
0000
0100
0000
0000
0000
0000
0000
0020
0030
0000
0000
0000
0000
1000
0000
0000
0000
0000
0000
0100
0000
0000
0000
0000
0000
,  // measure 69
0002
0003
0000
0000
0000
0000
0100
0000
0000
0000
0000
0000
1000
0000
0000
0000
0000
0000
0001
0000
0000
0000
0000
0000
0200
0300
0000
0000
0000
0000
0010
0000
0000
0000
0000
0000
1000
0000
0000
0000
0000
0000
0001
0000
0000
0000
0000
0000
,  // measure 70
0100
0000
0000
0000
0000
0000
0010
0000
0000
0000
0000
0000
2020
0030
0000
0000
0000
0000
0000
0000
0000
0000
0000
0000
3100
0000
0000
0000
0000
0000
0002
0003
0000
0000
0000
0000
1000
0000
0000
0000
0000
0000
0010
0000
0000
0000
0000
0000
,  // measure 71
0002
0003
0000
0000
0000
0000
0100
0000
0000
0000
0000
0000
0010
0000
0000
0000
0000
0000
2000
3000
0000
0000
0000
0000
0001
0000
0000
0000
0000
0000
0010
0000
0000
0000
0000
0000
0100
0000
0000
0000
0000
0000
1000
0000
0000
0000
0000
0000
,  // measure 72
0010
0000
0000
0000
0000
0000
0100
0000
0000
0000
0000
0000
0002
0003
0000
0000
0000
0000
0010
0000
0000
0000
0000
0000
0010
0000
0000
0000
0000
0000
2000
3000
0000
0000
0000
0000
0001
0000
0000
0000
0000
0000
0100
0000
0000
0000
0000
0000
,  // measure 73
0200
0300
0000
0000
0000
0000
1000
0000
0000
0000
0000
0000
0001
0000
0000
0000
0000
0000
0200
0300
0000
0000
0000
0000
0010
0000
0000
0000
0000
0000
1000
0000
0000
0000
0000
0000
0001
0000
0000
0010
0000
0000
0100
0000
0000
1000
0000
0000
,  // measure 74
2001
0000
0000
0000
0000
0000
0000
0000
0000
0000
0000
0000
0000
0000
3010
0100
,  // measure 75
0002
0013
2000
3100
,  // measure 76
0002
0000
0000
0000
0000
0000
0000
0000
0013
0000
0000
0000
0000
0000
0000
0000
0100
2000
0000
0000
0000
0000
0000
0000
3010
0000
0000
0000
0000
0000
0000
0000
,  // measure 77
0200
0300
0002
0023
,  // measure 78
2030
0000
3100
0000
0001
0010
0100
0010
,  // measure 79
0001
0000
0000
0000
0000
0000
2000
0000
0000
0000
0000
0000
0000
0000
0000
0000
0000
0000
0000
0000
0000
0000
0000
0000
3010
0000
0000
0000
0000
0000
0000
0000
0000
0000
0000
0000
0000
0000
0000
0000
0000
0000
0000
0000
0000
0000
0000
0000
0001
0000
0000
0000
0000
0000
0000
0000
0000
0000
0000
0000
0000
0000
0000
0000
0010
0000
0000
0000
0000
0000
0000
0000
0000
0000
0000
0000
0000
0000
0000
0000
0000
1000
0000
0000
0000
0000
0000
0000
0000
0000
0000
0000
0000
0000
0000
0000
0100
0000
0000
0000
0000
0000
0000
0000
2000
0000
0000
0000
0000
0000
0000
0000
0000
0000
0000
0000
0000
0000
0000
0000
0000
0000
0000
0000
0000
0000
0000
0000
0000
0000
0000
0000
0000
0000
0000
0000
0000
0000
0000
0000
0000
0000
0000
0000
3001
0000
0000
0000
0000
0000
0000
0000
0000
0000
0000
0000
0000
0000
0000
0000
0000
0000
0000
0000
0000
0000
0000
0000
0000
0000
0000
0000
0000
0000
0000
0000
0000
0000
0000
0000
0000
0000
0000
0000
0000
0000
0000
0000
0000
0000
0000
0000
,  // measure 80
0200
0000
0300
0000
2020
3030
2200
3300
,  // measure 81
0202
0000
0000
0000
00M0
00M0
00M0
0000
00M0
00M0
0000
M0M0
M0M0
0000
00M0
00M0
M0M0
00M0
0000
00M0
00M0
0000
00M0
M0M0
00M0
00M0
0000
00M0
0000
0000
0000
M0M0
,  // measure 82
0000
M0M0
00M0
M0M0
M0M0
0000
M0M0
00M0
M0M0
00M0
0000
M0M0
M0M0
M0M0
0000
M0M0
M0M0
M0M0
0000
M0M0
00M0
0000
0000
0000
00M0
00M0
M0M0
M0M0
M0M0
0000
M0M0
M0M0
,  // measure 83
M0M0
M0M0
M0M0
0000
00M0
M0M0
M0M0
M0M0
M0M0
0000
M0M0
M0M0
00M0
00M0
00M0
0000
0303
0000
0000
0000
0000
0000
0000
0000
0000
0000
0000
0000
0000
0000
0000
0000
;

//---------------dance-single - Fun song.----------------
#NOTEDATA:;
#CHARTNAME:ITG 08 X 13 (sans rolls);
#STEPSTYPE:dance-single;
#DESCRIPTION:Fun song.;
#CHARTSTYLE:Pad;
#DIFFICULTY:Edit;
#METER:8;
#RADARVALUES:0.605970,0.654804,0.199614,0.727164,0.523986,595.000000,567.000000,28.000000,102.000000,185.000000,0.000000,0.000000,0.000000,0.000000,0.605970,0.654804,0.199614,0.727164,0.523986,595.000000,567.000000,28.000000,102.000000,185.000000,0.000000,0.000000,0.000000,0.000000;
#CREDIT:CuzcoBlocko;
#DISPLAYBPM:87.500000:175.000000;
#NOTES:
// measure 0
0000
0000
0000
0000
,  // measure 1
0000
0000
0000
0000
000M
0M00
00M0
0000
,  // measure 2
1020
0000
0000
0000
0000
0000
0130
0001
1000
0000
0100
0000
1000
0000
0100
0000
,  // measure 3
0010
0000
0000
0000
0001
0000
0000
0000
0002
0000
0000
00M0
00M0
00M0
00M0
0000
0103
0000
0000
0000
0010
0000
0000
0000
2000
0000
0000
0000
0000
0000
0000
0000
,  // measure 4
3100
0000
0000
0000
0100
0000
0010
0001
1000
0000
0010
0000
1000
0000
0010
0000
,  // measure 5
0100
0001
0002
0000
0013
0100
1000
0010
,  // measure 6
0200
0000
0001
0000
0310
1000
0001
0010
,  // measure 7
0100
1000
1000
0000
0020
0000
0130
0001
,  // measure 8
0020
1000
0001
0100
,  // measure 9
M031
0000
0000
0000
0000
0000
0000
0000
0000
0000
0000
0000
0001
0000
0000
0000
M000
0000
0000
0000
0000
0M00
0000
0000
1000
0000
00M0
0000
0000
0000
0000
0000
0000
0000
0000
0000
1M00
0000
0000
0000
0000
0000
0000
0000
00M0
0000
0000
0000
,  // measure 10
0010
0000
0000
0000
0100
0000
0010
1000
0001
0000
0100
0000
0001
0000
0100
0000
,  // measure 11
0010
0000
0000
0000
1000
0000
0000
0000
2000
0000
0000
00M0
00M0
00M0
00M0
0000
3100
0000
0000
0000
0010
0000
0000
0000
0002
0000
0000
0000
0000
0000
0000
0000
,  // measure 12
0103
0000
0000
0000
0100
0000
0010
1000
0001
0000
0010
0000
0001
0000
0010
0000
,  // measure 13
0100
1000
2000
0000
3010
0100
0001
0010
,  // measure 14
0200
1000
2300
0100
3100
0010
0001
1000
,  // measure 15
0010
0100
0010
0100
0010
0100
0010
0200
0020
0000
0000
0000
0000
0000
0000
0000
,  // measure 16
M000
0000
0000
0000
0000
0000
0000
0000
M330
0000
000M
M000
0000
0000
0000
0000
,  // measure 17
100M
0000
0000
0000
0000
0000
0000
0000
0000
0000
0000
0000
0001
0000
0000
0000
0000
0000
0000
0000
0000
0000
0000
0000
M010
0000
0000
0000
0000
0000
0000
0000
0000
0000
0000
0000
010M
0000
0000
0000
0000
0000
0000
0000
0000
0000
0000
0000
1000
0000
0000
0000
0000
0000
0000
0000
0000
0000
0000
0000
0010
0000
0000
0000
0000
0000
0000
0000
0000
0000
0000
0000
0200
0000
0000
0000
0000
0000
0300
0000
0000
0000
0000
0000
0000
0000
0000
0000
0000
0000
0000
0000
0000
0000
0000
0000
1002
0000
0000
0000
0000
0000
0000
0000
0000
0000
0000
0000
0000
00M0
0000
0000
0000
0000
0M00
0000
0000
0000
0000
0000
M000
0000
0000
0000
0000
0000
0000
0000
0000
0000
0000
0000
0000
0000
0000
0000
0000
0000
0000
0000
0000
0000
0000
0000
1003
0000
0000
0000
0000
0000
0000
0000
0000
0000
0000
0000
0000
0000
0000
0000
0000
0000
0000
0000
0000
0000
0000
0000
0100
0000
0000
0000
0000
0000
0000
0000
0000
0000
0000
0000
0000
0000
0000
0000
0000
0000
0000
0000
0000
0000
0000
0000
,  // measure 18
0010
0000
0001
0000
1000
0000
0100
0000
0010
0000
0001
0000
1000
0M00
00M0
000M
,  // measure 19
0010
0100
0001
1000
0010
0100
0001
1000
,  // measure 20
0100
0000
0000
0000
0010
0000
0000
0000
0001
0000
0000
0000
1000
0000
0000
0000
0100
00M0
0000
0000
M010
0000
0000
0000
0012
0000
0000
0000
0000
0000
0000
0000
,  // measure 21
0203
0000
M000
00M0
000M
0000
0000
0000
0310
0000
0000
0000
1000
0000
0000
0000
0001
0000
0000
0000
0010
0000
0000
0000
0100
0000
0000
0000
1000
0000
0000
0000
,  // measure 22
0001
0000
0000
0000
0000
0000
0010
0000
0000
0000
0000
0000
0100
0000
0000
1000
0000
0000
0001
0000
0000
M000
0M00
0000
1000
0000
0000
0000
0000
0000
0001
0000
0000
0000
0000
0000
0100
0000
0000
0000
0000
0000
0010
0000
0000
0000
0000
0000
,  // measure 23
1000
0001
0100
0010
1000
0001
0010
0100
,  // measure 24
1000
0000
0001
0000
0010
0000
0100
0000
2100
000M
00M0
0M00
0000
0000
0000
0000
3010
0000
0000
0000
0100
0000
0000
0000
0001
0000
0000
0000
0010
0000
0000
0000
,  // measure 25
0100
0000
1000
0000
0010
0000
0100
0000
0001
00M0
0M00
M000
0010
0000
0100
0000
,  // measure 26
1000
0001
0100
0010
1000
0100
0010
0001
,  // measure 27
1000
0000
0000
0000
0000
0000
0000
0000
0000
0000
0000
0000
0000
0000
0000
0000
0000
0000
0000
0000
0000
0000
0000
0000
0010
0000
0000
0000
0000
0000
0000
0000
0000
0000
0000
0000
0000
0000
0000
0000
0000
0000
0000
0000
0000
0000
0000
0000
0200
0300
0000
0000
0102
0000
0000
0000
0000
0000
0000
0000
0000
0000
0000
0000
0000
0000
0000
0000
0000
0000
0000
0000
0000
0000
0000
0000
0000
0000
0000
0000
0000
0000
0000
0000
0000
0000
0000
0000
0000
0000
0000
0000
0000
0000
0000
0000
0023
0000
0000
0000
0000
0000
0000
0000
0000
0000
0000
0000
M000
0000
0000
0000
0000
0000
0M00
0000
0000
0000
0000
0000
000M
0000
0000
0000
0000
0000
0000
0000
0000
0000
0000
0000
0000
0000
0000
0000
0000
0000
0000
0000
0000
0000
0000
0000
0130
0000
0000
0000
0000
0000
0000
0000
0000
0000
0000
0000
0000
0000
0000
0000
0000
0000
0000
0000
0000
0000
0000
0000
1000
0000
0000
0000
0000
0000
0000
0000
0000
0000
0000
0000
0000
0000
0000
0000
0000
0000
0000
0000
0000
0000
0000
0000
,  // measure 28
0010
0000
0100
0000
0001
0000
1000
0000
0100
0000
0010
0000
0001
0100
0001
0100
,  // measure 29
0010
1000
0001
0100
0010
1000
0001
0100
,  // measure 30
0010
1000
0100
0010
0001
1000
0001
0100
,  // measure 31
2000
0000
000M
00M0
0M00
0000
0000
0000
3010
0000
0000
0000
0001
0000
0000
0000
1000
0000
0000
0000
1010
0000
0000
0000
0000
0000
0000
0000
0010
0000
0000
0000
,  // measure 32
0100
0000
0001
0000
1000
0001
0010
0000
2010
0000
0000
0000
3100
0000
0000
0000
,  // measure 33
0100
0001
0010
0100
0000
1100
0000
1000
,  // measure 34
0001
0000
0000
0000
0000
0000
0000
0000
0000
0000
0000
0000
0100
0000
0000
0000
0000
0000
0000
0000
0000
0000
0000
0000
0010
0000
0000
0000
0000
0000
0000
0000
0000
0000
0000
0000
M000
0000
0000
0000
0M00
0000
0000
0000
0000
0000
0000
0000
2010
0000
0000
0000
0000
0000
0000
0000
0000
0000
0000
0000
0000
0000
0000
0000
0000
0000
0000
0000
0000
0000
0000
0000
0000
0000
0000
0000
0000
0000
0000
0000
0000
0000
0000
0000
0000
0000
0000
0000
0000
0000
0000
0000
0000
0000
0000
0000
3200
0000
0000
0000
0000
0000
0000
0000
0000
0000
0000
0000
000M
0000
0000
0000
0000
0000
00M0
0000
0000
0000
0000
0000
M000
0000
0000
0000
0000
0000
0000
0000
0000
0000
0000
0000
0000
0000
0000
0000
0000
0000
0000
0000
0000
0000
0000
0000
0310
0000
0000
0000
0000
0000
0000
0000
0000
0000
0000
0000
0000
0000
0000
0000
0000
0000
0000
0000
0000
0000
0000
0000
0000
0000
0000
0000
0000
0000
0000
0000
0000
0000
0000
0000
0000
0000
0000
0000
0000
0000
0000
0000
0000
0000
0000
0000
,  // measure 35
0001
0100
0010
1000
0100
0010
0001
0100
,  // measure 36
0010
0000
1010
0000
1000
0100
0001
0100
,  // measure 37
0010
0100
1000
0001
0100
1000
0100
0001
,  // measure 38
1000
0000
0000
0000
0100
0000
0000
0000
0002
M000
00M0
0M00
0000
0000
0000
0000
0013
0000
0000
0000
1000
0000
0000
0000
0001
0000
0000
0000
0011
0000
0000
0000
,  // measure 39
0000
0000
0010
0000
0001
0000
0010
0000
0100
1000
0001
0100
1000
0000
0000
0000
,  // measure 40
1020
0000
0031
0000
0001
0100
1000
0100
,  // measure 41
0010
0100
0001
1000
0100
0010
0012
0000
,  // measure 42
1003
0100
0010
0001
0100
0010
2010
0000
,  // measure 43
3001
0100
0010
1000
0100
0010
0001
0100
,  // measure 44
0100
0000
1000
0000
0001
0000
0010
0000
0010
0000
1000
0000
0100
0010
0100
0010
,  // measure 45
0100
0010
0100
0020
0200
0000
0000
0000
0000
0000
0000
0000
0000
0000
0000
0000
,  // measure 46
0000
0000
0000
0000
0000
0000
0000
0000
0330
0000
0000
0000
M00M
0000
0100
0010
0001
0000
0000
0000
0100
0000
0000
0000
0001
0000
0000
0000
0100
0000
0000
0000
,  // measure 47
1000
0000
0000
0000
0100
0000
0000
0000
0200
0000
0000
M000
M000
M000
M000
0000
0301
0000
10M0
0000
02MM
0000
0000
0300
0011
0000
0000
0000
0000
0000
0000
0000
,  // measure 48
0001
0000
0100
0010
1000
0000
0100
0000
1000
0000
0100
0000
0001
0000
0100
0000
,  // measure 49
0200
0000
0000
0000
0000
0000
0000
0000
1300
00M0
0001
0000
M1M0
0000
1000
0000
0200
0000
0000
0000
0000
0000
0000
0000
0302
0000
00M0
M000
0M00
0000
0000
0000
,  // measure 50
0013
0100
1000
0001
0100
0010
0020
0000
,  // measure 51
2030
0000
3MM1
0010
0021
0000
0000
0000
1000
0000
0000
0000
0001
0000
0000
0000
,  // measure 52
0130
0000
1000
0000
0010
0000
0100
0000
0001
0000
1000
0000
0100
0010
MM01
1000
,  // measure 53
1002
0000
00M0
0M00
M000
0000
0013
0100
1000
0000
0000
0000
0010
0000
0000
0000
1000
0000
0000
0000
0010
0000
0000
0000
0001
0000
0000
0000
0010
0000
0000
0000
,  // measure 54
0020
0000
0000
0000
1030
010M
M01M
0000
0012
0000
0000
0000
1003
0000
0010
0100
,  // measure 55
0001
0010
0001
0010
1000
0010
0020
0000
,  // measure 56
0031
0000
0100
0000
10MM
0000
0001
0000
0020
0000
0000
0000
0000
0000
0000
0000
2030
0000
000M
0M00
00M0
0000
0000
0000
3100
0000
0000
0000
0010
0000
0000
0000
,  // measure 57
0001
0000
1000
0000
0100
0000
0010
0000
0001
0000
1000
0000
0020
0000
0130
0001
,  // measure 58
1000
0100
0100
0001
1000
0010
0010
0001
,  // measure 59
0100
0000
0000
0000
0000
0000
0000
0000
0000
0000
0000
0000
0000
0000
0000
0000
0000
0000
0000
0000
0000
0000
0000
0000
0010
0000
0000
0000
0000
0000
0000
0000
0000
0000
0000
0000
0000
0000
0000
0000
0000
0000
0000
0000
0000
0000
0000
0000
1000
0000
0000
0000
0000
0000
0000
0000
0000
0000
0000
0000
0000
0000
0000
0000
0000
0000
0000
0000
0000
0000
0000
0000
0100
0000
0000
0000
0000
0000
0000
0000
0000
0000
0000
0000
0000
0000
0000
0000
0000
0000
0000
0000
0000
0000
0000
0000
0010
0000
0000
0000
0000
0000
0000
0000
0000
0000
0000
0000
0000
0000
0000
0000
0000
0000
0000
0000
0000
0000
0000
0000
0MM0
0000
0000
0000
0000
0000
0000
0000
0000
0000
0000
0000
0000
0000
0000
0000
0000
0000
0000
0000
0000
0000
0000
0000
2002
0000
0000
0000
0003
0000
0M00
0000
0000
0000
0000
0000
00M0
0000
0000
0000
0000
0000
000M
0000
0000
0000
0000
0000
0000
0000
0000
0000
0000
0000
0000
0000
0000
0000
0000
0000
0020
0000
0000
0000
3030
0000
0000
0000
0000
0000
0000
0000
,  // measure 60
0100
0000
0000
0000
0000
0000
0001
0000
0000
0000
0000
0000
0010
0000
0000
0000
0000
0000
0200
0300
0000
0000
0000
0000
1000
0000
0000
0000
0000
0000
0020
0030
0000
0000
0000
0000
0001
0000
0000
0000
0000
0000
0010
0000
0000
0000
0000
0000
,  // measure 61
1000
2001
3000
0000
0000
0000
0000
0000
0000
0000
0000
0000
1000
0000
0000
0000
0000
0000
0020
0030
0000
0000
0000
0000
0100
0000
0000
0000
0000
0000
0001
0000
0000
0000
0000
0000
0020
0030
0000
0000
0000
0000
1000
0000
0000
0000
0000
0000
,  // measure 62
0010
0000
0000
0000
0000
0000
0001
0000
0000
0000
0000
0000
0200
0300
0000
0000
0000
0000
0010
0000
0000
0000
0000
0000
1000
0000
0000
0100
0000
0000
0010
0000
0000
M000
0M00
0000
0022
0030
0000
0000
0000
0000
0000
0000
0000
0000
0000
0000
,  // measure 63
0203
0000
0000
0000
0000
0000
2300
3000
0000
0000
0000
0000
0001
0000
0000
0000
0000
0000
0010
0000
0000
0000
0000
0000
2000
3000
0000
0000
0000
0000
0100
0000
0000
0000
0000
0000
0010
0000
0000
0000
0000
0000
0002
0003
0000
0000
0000
0000
,  // measure 64
0100
0000
0000
0000
0000
0000
0010
0000
0000
0000
0000
0000
1000
0000
0000
0000
0000
0000
0100
0000
0000
0000
0000
0000
0010
0000
0000
0000
0000
0000
0100
0000
0000
0000
0000
0000
2000
3000
0000
0000
0000
0000
0010
0000
0000
0000
0000
0000
,  // measure 65
0001
0000
0000
0000
0000
0000
2000
3000
0000
0000
0000
0000
0100
0000
0000
0000
0000
0000
0001
0000
0000
0000
0000
0000
0020
0030
0000
0000
0000
0000
0100
0000
0000
0000
0000
0000
1000
0000
0000
0000
0000
0000
0002
0003
0000
0000
0000
0000
,  // measure 66
0100
0000
0000
0000
0000
0000
0000
0000
0000
0000
0000
0000
0000
0000
0000
0000
0000
0000
0000
0000
0000
0000
0000
0000
0010
0000
0000
0000
0000
0000
0000
0000
0000
0000
0000
0000
0000
0000
0000
0000
0000
0000
0000
0000
0000
0000
0000
0000
1000
0000
0000
0000
0000
0000
0000
0000
0000
0000
0000
0000
0000
0000
0000
0000
0000
0000
0000
0000
0000
0000
0000
0000
0010
0000
0000
0000
0000
0000
0000
0000
0000
0000
0000
0000
0000
0000
0000
0000
0000
0000
0000
0000
0000
0000
0000
0000
0100
0000
0000
0000
0000
0000
0000
0000
0000
0000
0000
0000
0000
0000
0000
0000
0000
0000
0000
0000
0000
0000
0000
0000
0001
0000
0000
0000
0000
0000
0000
0000
0000
0000
0000
0000
0000
0000
0000
0000
0000
0000
0000
0000
0000
0000
0000
0000
2002
0000
0000
0000
3000
0000
0000
0000
0000
0000
0000
0000
00M0
0000
0000
0000
0000
0000
0M00
0000
0000
0000
0000
0000
M000
0000
0000
0000
0000
0000
0000
0000
0000
0000
0000
0000
0023
0000
0000
0000
0030
0000
0000
0000
0000
0000
0000
0000
,  // measure 67
0100
0000
0000
0000
0000
0000
1000
0000
0000
0000
0000
0000
0001
0000
0000
0000
0000
0000
0200
0300
0000
0000
0000
0000
0010
0000
0000
0000
0000
0000
2000
3000
0000
0000
0000
0000
0001
0000
0000
0000
0000
0000
0010
0000
0000
0000
0000
0000
,  // measure 68
0100
0000
0000
1000
0000
0000
0001
0000
0000
0M00
M000
0000
0201
0300
0000
0000
0000
0000
0000
0000
0000
0000
0000
0000
0100
0000
0000
0000
0000
0000
0020
0030
0000
0000
0000
0000
1000
0000
0000
0000
0000
0000
0100
0000
0000
0000
0000
0000
,  // measure 69
0002
0003
0000
0000
0000
0000
0100
0000
0000
0000
0000
0000
1000
0000
0000
0000
0000
0000
0001
0000
0000
0000
0000
0000
0200
0300
0000
0000
0000
0000
0010
0000
0000
0000
0000
0000
1000
0000
0000
0000
0000
0000
0001
0000
0000
0000
0000
0000
,  // measure 70
0100
0000
0000
0000
0000
0000
0010
0000
0000
0000
0000
0000
2020
0030
0000
0000
0000
0000
0000
0000
0000
0000
0000
0000
3100
0000
0000
0000
0000
0000
0002
0003
0000
0000
0000
0000
1000
0000
0000
0000
0000
0000
0010
0000
0000
0000
0000
0000
,  // measure 71
0002
0003
0000
0000
0000
0000
0100
0000
0000
0000
0000
0000
0010
0000
0000
0000
0000
0000
2000
3000
0000
0000
0000
0000
0001
0000
0000
0000
0000
0000
0010
0000
0000
0000
0000
0000
0100
0000
0000
0000
0000
0000
1000
0000
0000
0000
0000
0000
,  // measure 72
0010
0000
0000
0000
0000
0000
0100
0000
0000
0000
0000
0000
0002
0003
0000
0000
0000
0000
0010
0000
0000
0000
0000
0000
0010
0000
0000
0000
0000
0000
2000
3000
0000
0000
0000
0000
0001
0000
0000
0000
0000
0000
0100
0000
0000
0000
0000
0000
,  // measure 73
0200
0300
0000
0000
0000
0000
1000
0000
0000
0000
0000
0000
0001
0000
0000
0000
0000
0000
0200
0300
0000
0000
0000
0000
0010
0000
0000
0000
0000
0000
1000
0000
0000
0000
0000
0000
0001
0000
0000
0010
0000
0000
0100
0000
0000
1000
0000
0000
,  // measure 74
2001
0000
0000
0000
0000
0000
0000
0000
0000
0000
0000
0000
0000
0000
3010
0100
,  // measure 75
0002
0013
2000
3100
,  // measure 76
0002
0000
0000
0000
0000
0000
0000
0000
0013
0000
0000
0000
0000
0000
0000
0000
0100
2000
0000
0000
0000
0000
0000
0000
3010
0000
0000
0000
0000
0000
0000
0000
,  // measure 77
0200
0300
0002
0023
,  // measure 78
2030
0000
3100
0000
0001
0010
0100
0010
,  // measure 79
0001
0000
0000
0000
0000
0000
2000
0000
0000
0000
0000
0000
0000
0000
0000
0000
0000
0000
0000
0000
0000
0000
0000
0000
3010
0000
0000
0000
0000
0000
0000
0000
0000
0000
0000
0000
0000
0000
0000
0000
0000
0000
0000
0000
0000
0000
0000
0000
0001
0000
0000
0000
0000
0000
0000
0000
0000
0000
0000
0000
0000
0000
0000
0000
0010
0000
0000
0000
0000
0000
0000
0000
0000
0000
0000
0000
0000
0000
0000
0000
0000
1000
0000
0000
0000
0000
0000
0000
0000
0000
0000
0000
0000
0000
0000
0000
0100
0000
0000
0000
0000
0000
0000
0000
2000
0000
0000
0000
0000
0000
0000
0000
0000
0000
0000
0000
0000
0000
0000
0000
0000
0000
0000
0000
0000
0000
0000
0000
0000
0000
0000
0000
0000
0000
0000
0000
0000
0000
0000
0000
0000
0000
0000
0000
3001
0000
0000
0000
0000
0000
0000
0000
0000
0000
0000
0000
0000
0000
0000
0000
0000
0000
0000
0000
0000
0000
0000
0000
0000
0000
0000
0000
0000
0000
0000
0000
0000
0000
0000
0000
0000
0000
0000
0000
0000
0000
0000
0000
0000
0000
0000
0000
,  // measure 80
0200
0000
0300
0000
2020
3030
2200
3300
,  // measure 81
0202
0000
0000
0000
00M0
00M0
00M0
0000
00M0
00M0
0000
M0M0
M0M0
0000
00M0
00M0
M0M0
00M0
0000
00M0
00M0
0000
00M0
M0M0
00M0
00M0
0000
00M0
0000
0000
0000
M0M0
,  // measure 82
0000
M0M0
00M0
M0M0
M0M0
0000
M0M0
00M0
M0M0
00M0
0000
M0M0
M0M0
M0M0
0000
M0M0
M0M0
M0M0
0000
M0M0
00M0
0000
0000
0000
00M0
00M0
M0M0
M0M0
M0M0
0000
M0M0
M0M0
,  // measure 83
M0M0
M0M0
M0M0
0000
00M0
M0M0
M0M0
M0M0
M0M0
0000
M0M0
M0M0
00M0
00M0
00M0
0000
0303
0000
0000
0000
0000
0000
0000
0000
0000
0000
0000
0000
0000
0000
0000
0000
;

//---------------dance-single - Ready for ACTIVATION 2.0? =3----------------
#NOTEDATA:;
#CHARTNAME:ITG 07 X 11;
#STEPSTYPE:dance-single;
#DESCRIPTION:Ready for ACTIVATION 2.0? =3;
#CHARTSTYLE:Pad;
#DIFFICULTY:Medium;
#METER:1;
#RADARVALUES:0.517366,0.565512,0.420614,0.712906,0.074855,508.000000,449.000000,59.000000,100.000000,30.000000,0.000000,0.000000,0.000000,0.000000,0.517366,0.565512,0.420614,0.712906,0.074855,508.000000,449.000000,59.000000,100.000000,30.000000,0.000000,0.000000,0.000000,0.000000;
#CREDIT:CuzcoBlocko;
#DISPLAYBPM:87.500000:175.000000;
#NOTES:
// measure 0
0000
0000
0000
0000
,  // measure 1
0000
0000
0000
0000
,  // measure 2
1001
0000
0000
0001
1000
0100
1000
0100
,  // measure 3
0020
0001
0230
1300
,  // measure 4
1001
0000
0000
1000
0001
0100
0001
0100
,  // measure 5
0020
0000
1000
0000
0230
0000
0301
1000
,  // measure 6
0200
0000
0000
0000
0300
0010
0001
1000
,  // measure 7
0002
0103
2000
3010
,  // measure 8
0002
0010
1000
0010
,  // measure 9
1003
0100
0010
0100
,  // measure 10
0011
0000
0001
0010
0100
1000
0100
1000
,  // measure 11
0020
0001
0230
1000
,  // measure 12
0301
0000
1000
0010
0100
0001
0100
0001
,  // measure 13
0020
0000
1000
0000
0230
0000
1300
0001
,  // measure 14
0200
0000
1000
0000
0310
1000
0001
0010
,  // measure 15
0200
1000
2300
0001
0002
0000
0000
0000
,  // measure 16
0000
0000
3003
0000
,  // measure 17
0001
0010
0100
1000
0001
0010
0M00
00M0
2000
0000
0000
3000
1001
0000
0000
0000
,  // measure 18
0001
0000
0100
0000
0010
0000
1000
0000
0001
0000
0000
0000
0022
0003
0030
0000
,  // measure 19
0010
0100
1000
0000
1010
0000
0010
0100
,  // measure 20
0001
1000
0100
0000
0220
0330
0100
0000
,  // measure 21
MMMM
0000
1001
0000
1000
0001
0010
0100
,  // measure 22
1000
0000
1020
0100
1030
0001
0010
0000
,  // measure 23
0110
0000
0100
1000
0001
0100
0010
0000
,  // measure 24
2010
3100
0220
0330
1001
0000
1000
0100
,  // measure 25
0010
0000
0001
0000
0100
0000
0000
0000
2020
0030
3000
0000
0001
0000
1000
0000
,  // measure 26
0100
0000
0110
0000
0001
0010
1000
0010
,  // measure 27
0001
0000
0000
0000
0000
0000
0000
0000
0000
0000
0000
0000
0201
0310
0000
0000
0000
0000
0000
0000
0000
0000
0000
0000
MMMM
0000
0000
0000
0000
0000
0000
0000
0000
0000
0000
0000
1001
0000
0000
0000
0000
0000
0000
0000
0000
0000
0000
0000
,  // measure 28
1000
0010
0001
0010
1000
0000
2100
0001
,  // measure 29
3100
0010
0100
0010
0001
0010
0001
0010
,  // measure 30
0001
1000
0001
0100
0010
1000
0100
0000
,  // measure 31
0201
0000
1300
0000
1000
0010
0000
0010
,  // measure 32
0100
0000
0001
0000
1000
0001
0010
0000
1020
0000
0000
0000
0031
0000
0000
0000
,  // measure 33
0001
0100
0010
1000
0000
1001
0000
1000
,  // measure 34
0200
0001
0310
0000
MMMM
0000
1001
0000
,  // measure 35
0001
0100
0010
0000
1000
0100
0010
0000
,  // measure 36
0001
0000
1001
0000
1000
0001
0100
0000
,  // measure 37
1000
0100
0001
0000
1000
0100
0010
0001
,  // measure 38
0100
0000
1200
0000
0301
0000
0001
0010
,  // measure 39
0000
0000
0010
0000
0100
0000
1000
0000
0001
0100
0010
0000
1010
0000
0000
0000
,  // measure 40
0021
0000
1030
0000
1000
0100
0001
0100
,  // measure 41
0010
0100
1000
0001
0100
0000
0210
0000
,  // measure 42
1300
0100
0001
0000
0010
0000
0210
0000
,  // measure 43
0301
0100
1000
0000
0001
0100
0010
0100
,  // measure 44
0010
0100
0010
1000
0010
1000
0001
1000
,  // measure 45
0001
0200
0020
0000
0000
0000
0000
0000
,  // measure 46
0000
0000
0000
0000
0330
0000
0000
0010
1000
0000
0001
0000
0010
0000
0000
0000
,  // measure 47
2010
0000
3100
0000
0102
1003
2010
0000
,  // measure 48
3100
0001
0100
1000
0010
0000
0012
0000
,  // measure 49
0103
0000
0000
0000
2100
0000
3010
0001
0010
0000
0000
0000
MMMM
0000
0000
0000
,  // measure 50
0001
1000
0010
0100
0001
0010
0001
0000
,  // measure 51
0120
0000
0031
1000
0020
0000
0000
0000
0001
0000
0000
0000
1000
0000
0000
0000
,  // measure 52
0130
0000
0001
0100
0010
1000
0002
0013
,  // measure 53
0210
0000
0000
0310
0001
0000
1000
0000
0010
0000
0000
0000
0021
0000
0000
0000
,  // measure 54
1030
0000
1200
0301
1100
0000
1000
0010
,  // measure 55
0100
0001
0010
0000
1020
0000
0031
0000
,  // measure 56
0201
0000
1300
0100
0101
0000
0000
0000
MMMM
0000
0000
0000
1000
0000
0001
0000
,  // measure 57
0010
0000
0100
0000
1000
0000
0000
0000
1010
0000
0000
0000
0120
0000
1030
0001
,  // measure 58
0010
0100
0010
0100
1000
0100
1000
0100
,  // measure 59
0010
0000
0001
0000
0010
0000
0001
0000
0100
0000
0M0M
0000
2010
0000
0000
3002
,  // measure 60
0013
0000
0100
2000
3000
1020
0000
0130
,  // measure 61
0001
0012
0000
0000
0000
0000
0000
0000
0000
0000
0000
0000
1003
0000
0000
0000
0000
0000
0020
0000
0000
0000
0000
0000
0031
0000
0000
0000
0000
0000
0000
0000
0000
0000
0000
0000
2010
0000
0000
0000
0000
0000
0000
0000
0000
0000
0000
0000
,  // measure 62
3001
0000
0010
0000
0200
0000
0000
0000
1300
0010
1000
0000
1002
0003
0000
0000
,  // measure 63
MMM0
0020
0130
0000
2001
0000
3100
0020
,  // measure 64
0031
0000
1000
0010
0100
0001
2000
0000
,  // measure 65
3100
0002
0103
0000
2100
0000
3010
0100
,  // measure 66
0001
0000
0000
0000
1000
0000
0100
0000
1000
0000
0100
0000
0020
0000
MM0M
0032
,  // measure 67
0103
0000
0120
0000
1030
0100
0010
0100
,  // measure 68
1000
0001
1000
0000
2001
0000
0000
0000
3010
0000
0200
0000
0301
0000
0000
0000
,  // measure 69
0021
0000
0130
1000
0002
0013
0100
1000
,  // measure 70
0010
0000
1020
0000
0031
0020
1030
0000
,  // measure 71
1002
0000
0013
0100
2000
0000
3001
0100
,  // measure 72
0010
1000
0002
0013
0001
0020
1030
0010
,  // measure 73
2000
0000
3010
0000
0001
0000
0010
0000
0001
0000
1000
0000
0001
0100
0001
0000
,  // measure 74
2002
0000
0000
0000
0000
0000
3003
0001
,  // measure 75
0200
0310
2000
3001
,  // measure 76
0020
0001
0230
0001
,  // measure 77
0320
0000
0032
0203
,  // measure 78
0320
0000
1000
0000
0230
0301
0100
0001
,  // measure 79
1000
0000
0000
0000
0000
0000
0000
0000
0000
0000
0000
0000
0000
0000
0000
0000
0000
0000
0000
0000
0000
0000
0000
0000
0100
0000
0000
0000
0000
0000
0000
0000
0000
0000
0000
0000
0000
0000
0000
0000
0000
0000
0000
0000
0000
0000
0000
0000
0001
0000
0000
0000
0000
0000
0000
0000
0000
0000
0000
0000
0000
0000
0000
0000
0100
0000
0000
0000
0000
0000
0000
0000
0000
0000
0000
0000
0000
0000
0000
0000
0000
1000
0000
0000
0000
0000
0000
0000
0000
0000
0000
0000
0000
0000
0000
0000
0002
0000
0000
0000
0000
0000
0000
0000
0000
0000
0000
0000
0000
0000
0000
0000
0000
0000
0000
0000
0000
0000
0000
0000
0000
0000
0000
0000
0000
0000
0000
0000
0000
0000
0000
0000
0000
0000
0000
0000
0000
0000
0000
0000
0000
0000
0000
0000
0103
0000
0000
0000
0000
0000
0000
0000
0000
0000
0000
0000
0000
0000
0000
0000
0000
0000
0000
0000
0000
0000
0000
0000
0000
0000
0000
0000
0000
0000
0000
0000
0000
0000
0000
0000
0000
0000
0000
0000
0000
0000
0000
0000
0000
0000
0000
0000
,  // measure 80
0020
0000
0030
0000
2020
3030
2002
3003
,  // measure 81
2200
0000
0000
0000
,  // measure 82
0000
0000
0000
0000
,  // measure 83
0000
0000
3300
0000
;

//---------------dance-single - Hmmmm----------------
#NOTEDATA:;
#CHARTNAME:ITG 02 X 04;
#STEPSTYPE:dance-single;
#DESCRIPTION:Hmmmm;
#CHARTSTYLE:Pad;
#DIFFICULTY:Beginner;
#METER:2;
#RADARVALUES:0.177208,0.263775,0.256646,0.000000,0.007129,174.000000,138.000000,36.000000,0.000000,0.000000,0.000000,0.000000,0.000000,0.000000,0.177208,0.263775,0.256646,0.000000,0.007129,174.000000,138.000000,36.000000,0.000000,0.000000,0.000000,0.000000,0.000000,0.000000;
#CREDIT:CuzcoBlocko;
#DISPLAYBPM:87.500000:175.000000;
#NOTES:
// measure 0
0000
0000
0000
0000
,  // measure 1
0000
0000
0000
0000
,  // measure 2
1000
0000
0000
0000
,  // measure 3
0000
0000
0000
0000
,  // measure 4
0100
0000
0000
0000
,  // measure 5
0000
0000
0000
0000
,  // measure 6
0010
0000
0000
0000
,  // measure 7
0000
0000
0000
0000
,  // measure 8
0001
0000
0000
0000
,  // measure 9
0000
0000
0000
0000
,  // measure 10
1000
0000
0000
0000
,  // measure 11
0010
0000
0000
0000
,  // measure 12
0100
0000
0000
0000
,  // measure 13
0001
0000
0000
0000
,  // measure 14
1000
0000
1000
0000
,  // measure 15
0001
0000
0001
0000
,  // measure 16
0000
0000
0000
0000
,  // measure 17
0000
0000
0000
1001
,  // measure 18
0000
0001
0000
0000
,  // measure 19
1001
0000
1000
0000
,  // measure 20
1000
0000
0000
0110
,  // measure 21
0000
0010
0000
0010
,  // measure 22
0000
0000
0110
0000
,  // measure 23
0100
0000
0100
0000
,  // measure 24
0000
1001
1000
0000
,  // measure 25
1000
0000
0000
1001
,  // measure 26
0000
0001
0000
0001
,  // measure 27
0000
0000
0000
0000
0000
0000
0000
0000
0000
0000
0000
0000
0000
0110
0000
0000
0000
0000
0000
0000
0000
0000
0000
0000
0000
0000
0000
0000
0000
0000
0000
0000
0000
0000
0000
0000
0010
0000
0000
0000
0000
0000
0000
0000
0000
0000
0000
0000
,  // measure 28
0000
0010
0000
0000
,  // measure 29
0110
0000
0100
0000
,  // measure 30
0100
0000
0010
0000
,  // measure 31
1001
0000
0001
0000
,  // measure 32
0001
0100
0110
0000
,  // measure 33
0010
0000
0010
0000
,  // measure 34
1000
0100
0000
0110
,  // measure 35
0000
0010
0000
0001
,  // measure 36
0000
1000
0000
0100
,  // measure 37
0000
0010
0000
0001
,  // measure 38
0000
1001
0001
0000
,  // measure 39
0100
0000
0010
0110
,  // measure 40
0000
0010
0000
1000
,  // measure 41
0000
0100
0000
1001
,  // measure 42
0000
0100
0000
0110
,  // measure 43
0000
0001
0000
1001
,  // measure 44
0000
1001
0000
1001
,  // measure 45
0000
1001
0000
0000
,  // measure 46
0000
0000
0010
0010
,  // measure 47
0010
0000
0100
1001
,  // measure 48
0000
0010
0010
0010
,  // measure 49
0000
0100
1001
0000
,  // measure 50
0001
0001
0001
0000
,  // measure 51
1000
1001
0000
1000
,  // measure 52
1000
1000
0000
0001
,  // measure 53
1001
0001
1000
0001
,  // measure 54
0000
1001
0110
0000
,  // measure 55
0001
1000
0001
0000
,  // measure 56
1000
0110
0000
0010
,  // measure 57
0100
0010
0000
0100
,  // measure 58
1001
0000
0010
0000
,  // measure 59
0010
0000
0000
1001
,  // measure 60
0001
0000
0000
0001
0000
0000
0000
0000
,  // measure 61
0000
1001
0000
0000
0000
0000
0000
0000
0000
0000
0000
0000
0000
0000
0000
0000
0000
0000
1000
0000
0000
0000
0000
0000
0000
0000
0000
0000
0000
0000
0000
0000
0000
0000
0000
0000
1000
0000
0000
0000
0000
0000
0000
0000
0000
0000
0000
0000
,  // measure 62
0000
0000
0000
0001
0000
0000
0110
0000
,  // measure 63
0000
0010
0000
0000
0010
0000
0000
0010
,  // measure 64
0000
0000
0000
1001
,  // measure 65
0000
0010
0000
0000
0010
0000
0000
0100
,  // measure 66
0000
0000
0000
0010
,  // measure 67
1001
0000
0000
1000
0000
0000
0000
0000
,  // measure 68
0001
0000
1001
0000
0000
0001
0000
0000
,  // measure 69
0001
0000
1000
0000
,  // measure 70
0000
0000
0110
0000
0000
0010
0000
0000
,  // measure 71
0010
0000
0000
0010
0000
0000
0010
0000
,  // measure 72
0000
0000
1001
0000
0000
0010
0000
0000
,  // measure 73
0010
0000
0000
0010
0000
0000
0000
0000
,  // measure 74
0110
0000
0000
0000
;

//---------------dance-single - Spin It! (wheel sound effect)----------------
#NOTEDATA:;
#CHARTNAME:ITG 05 X 08;
#STEPSTYPE:dance-single;
#DESCRIPTION:Spin It! (wheel sound effect);
#CHARTSTYLE:Pad;
#DIFFICULTY:Easy;
#METER:1;
#RADARVALUES:0.313679,0.404218,0.242388,0.306549,0.032081,308.000000,274.000000,34.000000,43.000000,38.000000,0.000000,0.000000,0.000000,0.000000,0.313679,0.404218,0.242388,0.306549,0.032081,308.000000,274.000000,34.000000,43.000000,38.000000,0.000000,0.000000,0.000000,0.000000;
#CREDIT:CuzcoBlocko;
#DISPLAYBPM:87.500000:175.000000;
#NOTES:
// measure 0
0000
0000
0000
0000
,  // measure 1
0000
0000
0000
0000
,  // measure 2
2002
0000
0000
0000
,  // measure 3
3000
0000
0000
0003
,  // measure 4
0200
0000
0000
0300
,  // measure 5
0020
0000
0000
0030
,  // measure 6
2000
0000
0000
3000
,  // measure 7
0200
0000
0000
0300
,  // measure 8
0002
0000
0000
0003
,  // measure 9
0010
0000
1000
0000
,  // measure 10
0001
0000
0010
0100
,  // measure 11
0020
0030
0002
0003
,  // measure 12
1000
0000
0010
0100
,  // measure 13
0020
0030
2000
3000
,  // measure 14
1000
0100
0001
0010
,  // measure 15
1000
2000
0002
0000
,  // measure 16
0000
0000
3003
0000
,  // measure 17
0000
0000
2001
3001
,  // measure 18
0010
0100
1000
0001
,  // measure 19
1001
1000
0010
0100
,  // measure 20
0001
1000
0100
0220
,  // measure 21
0330
1001
0001
0100
,  // measure 22
0010
1000
1001
1000
,  // measure 23
0100
0010
0001
1000
,  // measure 24
0100
0012
0103
1000
,  // measure 25
0010
0001
1000
2001
,  // measure 26
3100
0001
0010
1000
,  // measure 27
0100
0000
0000
0000
0000
0000
0000
0000
0000
0000
0000
0000
0010
0012
0000
0000
0000
0000
0000
0000
0000
0000
0000
0000
1000
0000
0000
0000
0000
0000
0000
0000
0000
0000
0000
0000
0103
0000
0000
0000
0000
0000
0000
0000
0000
0000
0000
0000
,  // measure 28
1000
0010
0001
0100
,  // measure 29
1010
1000
0100
1000
,  // measure 30
0100
0001
0010
1000
,  // measure 31
1002
0000
0103
0000
0100
0020
0000
0000
,  // measure 32
1030
0000
0100
0001
0020
0000
0000
0000
,  // measure 33
1030
0000
0001
0010
0000
0100
0000
1000
,  // measure 34
0001
0100
2010
0000
0001
0000
3100
0000
,  // measure 35
0010
0000
0001
0000
0100
0010
0000
0000
,  // measure 36
1000
0100
0001
0010
,  // measure 37
1000
0002
0000
0000
0103
0000
0010
0000
,  // measure 38
1000
0000
2001
0000
3100
0000
0100
0020
,  // measure 39
0000
0000
0031
0000
0100
1000
0010
0000
,  // measure 40
0011
0000
1001
0000
0001
0200
0010
0000
,  // measure 41
0010
0301
1000
1001
,  // measure 42
1000
0100
1000
0000
0100
0000
1001
0000
,  // measure 43
0001
0100
0001
0000
0100
0000
0010
0000
,  // measure 44
1000
0000
0010
0000
1000
0000
0001
0010
,  // measure 45
0001
0010
0002
0000
0000
0000
0000
0000
,  // measure 46
0000
1003
0001
0100
,  // measure 47
2010
0000
3001
0000
0012
1000
0103
0000
,  // measure 48
0000
0010
1000
0000
0100
0000
0012
0000
,  // measure 49
1003
0000
1020
0100
2030
0000
3100
0000
,  // measure 50
0011
0001
0100
1000
,  // measure 51
0010
0001
2000
0000
0010
0000
0010
0000
,  // measure 52
0001
0000
3001
0000
0010
0000
2100
0001
,  // measure 53
3100
0000
0000
0100
1000
0000
0000
0000
1000
0000
0000
0000
0010
0000
0000
0000
,  // measure 54
0001
0000
0100
1000
1001
0000
0000
1000
,  // measure 55
0001
0001
0010
1000
,  // measure 56
0100
0001
0102
0000
0013
0000
1100
0000
,  // measure 57
1000
0000
0100
0000
0001
0000
0010
1000
,  // measure 58
0002
0010
0010
1000
,  // measure 59
2003
0000
0010
0000
3010
0000
0202
0303
,  // measure 60
0001
0000
0010
0100
1000
0000
0010
0000
,  // measure 61
0100
0101
0000
0000
0000
0000
0000
0000
0000
0000
0000
0000
0001
0000
0000
0000
0000
0000
0000
0000
0000
0000
0000
0000
0010
0000
0000
0000
0000
0000
0000
0000
0000
0000
0000
0000
1000
0000
0000
0000
0000
0000
0010
0000
0000
0000
0000
0000
,  // measure 62
0001
0100
0010
1020
,  // measure 63
0100
0000
1030
0000
0100
0010
0001
0000
,  // measure 64
0100
0010
1000
1001
,  // measure 65
1000
0000
0100
0000
0010
0001
0100
0000
,  // measure 66
1000
0010
0001
1200
,  // measure 67
0310
0000
0001
1000
0010
0000
0100
0000
,  // measure 68
0001
1000
2001
0000
3100
0000
0010
0000
,  // measure 69
0001
1000
0100
0000
0001
0000
0100
0000
,  // measure 70
1000
1010
1000
0100
,  // measure 71
0010
0001
0010
0000
0100
0000
1000
0000
,  // measure 72
0001
0100
1000
0010
,  // measure 73
0001
0100
1000
0010
,  // measure 74
M11M
0000
0000
0000
0000
0000
0000
0000
0000
0000
0000
0000
0000
0000
00M0
0M00
,  // measure 75
000M
00M0
M000
0M00
,  // measure 76
000M
0000
0000
0000
0000
0000
0000
0000
00M0
0000
0000
0000
0000
0000
0000
0000
0M00
M000
0000
0000
0000
0000
0000
0000
00M0
0000
0000
0000
0000
0000
0000
0000
,  // measure 77
0M00
0000
000M
00M0
,  // measure 78
M000
0000
0M00
0000
000M
00M0
0M00
00M0
,  // measure 79
000M
0000
0000
0000
0000
0000
M000
0000
0000
0000
0000
0000
0000
0000
0000
0000
0000
0000
0000
0000
0000
0000
0000
0000
00M0
0000
0000
0000
0000
0000
0000
0000
0000
0000
0000
0000
0000
0000
0000
0000
0000
0000
0000
0000
0000
0000
0000
0000
000M
0000
0000
0000
0000
0000
0000
0000
0000
0000
0000
0000
0000
0000
0000
0000
00M0
0000
0000
0000
0000
0000
0000
0000
0000
0000
0000
0000
0000
0000
0000
0000
0000
M000
0000
0000
0000
0000
0000
0000
0000
0000
0000
0000
0000
0000
0000
0000
0M00
0000
0000
0000
0000
0000
0000
0000
M000
0000
0000
0000
0000
0000
0000
0000
0000
0000
0000
0000
0000
0000
0000
0000
0000
0000
0000
0000
0000
0000
0000
0000
0000
0000
0000
0000
0000
0000
0000
0000
0000
0000
0000
0000
0000
0000
0000
0000
000M
0000
0000
0000
0000
0000
0000
0000
0000
0000
0000
0000
0000
0000
0000
0000
0000
0000
0000
0000
0000
0000
0000
0000
0000
0000
0000
0000
0000
0000
0000
0000
0000
0000
0000
0000
0000
0000
0000
0000
0000
0000
0000
0000
0000
0000
0000
0000
,  // measure 80
0M00
0000
M0M0
MM00
,  // measure 81
0M0M
0000
0000
0000
;
