#TITLE:tears of the dream;
#SUBTITLE:;
#ARTIST:uma;
#TITLETRANSLIT:;
#SUBTITLETRANSLIT:;
#ARTISTTRANSLIT:;
#GENRE:;
#CREDIT:;
#BANNER:[Round G] - tears of the dream.png;
#BACKGROUND:[Round G] - tears of the dream-bg.png;
#LYRICSPATH:;
#CDTITLE:;
#MUSIC:[Round G] - tears of the dream.ogg;
#OFFSET:-0.970000;
#SAMPLESTART:44.513000;
#SAMPLELENGTH:15.000000;
#SELECTABLE:YES;
#BPMS:0.000000=175.000000
;
#STOPS:
;
#BGCHANGES:;
#KEYSOUNDS:;
#ATTACKS:;

//---------------dance-single - ----------------
#NOTES:
     dance-single:
     :
     Beginner:
     2:
     0.132553,0.165692,0.024854,0.000000,0.000000,109.000000,3.000000,0.000000,0.000000,0.000000,0.000000,0.132553,0.165692,0.024854,0.000000,0.000000,109.000000,3.000000,0.000000,0.000000,0.000000,0.000000:
0000
0000
0000
0000
,
0000
0000
0000
0000
,
0000
0000
0000
0000
,
0000
0000
0000
0000
,
0001
0000
0000
0000
,
1000
0000
0000
0000
,
0001
0000
1000
0000
,
1001
0000
0000
0000
,
0010
0000
0000
0000
,
0000
0000
0000
0000
,
0100
0000
0000
0000
,
0000
0000
0000
0000
,
0010
0000
0000
0000
,
0000
0000
0000
0000
,
0100
0000
0000
0000
,
0000
0000
0000
0000
,
0001
0000
0000
0000
,
1000
0000
0000
0000
,
0010
0000
0000
0000
,
0100
0000
0000
0000
,
1000
0000
0000
0000
,
0001
0000
0000
0000
,
0010
0000
0000
0000
,
0100
0000
0000
0000
,
1001
0000
0000
0000
,
0000
0000
0000
0000
,
0000
0000
0000
0000
,
0000
0000
0000
0100
,
0100
0000
0000
0000
,
0000
0000
0000
0100
,
0100
0000
0100
0000
,
0010
0000
0000
0000
,
1000
0000
1000
0000
,
0001
0000
0001
0000
,
1000
0000
1000
0000
,
0001
0001
0001
0000
,
0010
0000
0010
0000
,
0100
0000
0100
0000
,
0010
0000
0100
0000
,
0010
0100
0010
0000
,
0001
0000
0001
0000
,
1000
0000
1000
0000
,
0001
0000
0001
0000
,
1000
1000
1000
0000
,
0010
0000
0010
0000
,
0100
0000
0100
0000
,
0010
0000
0100
0000
,
0010
0100
0010
0000
,
1000
0000
0000
0000
,
0000
0000
0000
0000
,
0000
0000
0000
0000
,
0000
0000
0000
0000
,
0000
0000
0000
0000
,
0000
0000
0000
0000
,
0000
0000
0000
0000
,
0001
0001
0001
0000
,
1000
0000
0000
0000
,
0100
0000
0000
0000
,
0010
0000
0000
0000
,
0001
0000
0000
0000
,
0001
0000
0000
0000
,
0010
0000
0000
0000
,
0100
0000
0000
0000
,
1000
0000
0000
0000
,
1000
0000
1000
0000
,
0001
0000
0001
0000
,
1000
0000
1000
0000
,
0001
0001
0001
0000
,
0010
0000
0010
0000
,
0100
0000
0100
0000
,
0010
0000
0100
0000
,
0010
0100
0010
0000
,
0001
0000
0001
0000
,
1000
0000
1000
0000
,
0001
0000
0001
0000
,
1000
1000
1000
0000
,
0010
0000
0010
0000
,
0100
0000
0100
0000
,
0010
0000
0100
0000
,
0010
0100
0010
0000
,
1001
0000
0000
0000
;

//---------------dance-single - ----------------
#NOTES:
     dance-single:
     :
     Easy:
     3:
     0.220133,0.231969,0.024854,0.033138,0.000000,179.000000,3.000000,4.000000,0.000000,0.000000,0.000000,0.220133,0.231969,0.024854,0.033138,0.000000,179.000000,3.000000,4.000000,0.000000,0.000000,0.000000:
0000
0000
0000
0000
,
0000
0000
0000
0000
,
0000
0000
0000
0000
,
0000
0000
0000
0000
,
1000
0100
0010
0000
,
0100
0010
0001
0000
,
0010
0001
0100
0000
,
0002
0000
0000
0003
,
1000
0000
0000
0000
,
0001
0000
0000
0000
,
0100
0000
0000
0000
,
0010
0000
0000
0000
,
1000
0000
0000
0000
,
0001
0000
0000
0000
,
0010
0000
0000
0000
,
0100
0000
0000
0000
,
1000
0000
0100
0000
,
1000
0001
1000
0000
,
0001
0000
1000
0000
,
0001
0010
0001
0000
,
1000
0000
0010
0000
,
1000
0100
1000
0000
,
0001
0000
1000
0000
,
0001
0100
0010
0000
,
1001
0001
0000
1000
,
0000
0001
0000
1000
,
0000
0001
0000
1000
,
0000
0001
0000
1000
,
1000
0010
0000
0100
,
0000
0010
0000
0100
,
0100
0010
0100
0010
,
1000
0001
0010
0000
,
1000
0000
1000
0000
,
0001
0100
0001
0100
,
0010
0000
0010
0000
,
1000
0100
1000
0001
,
0100
0000
0100
0000
,
0001
0100
0010
1000
,
0001
0000
0001
0000
,
1000
0001
0010
0000
,
0001
0000
0001
0000
,
1000
0100
1000
0010
,
1000
0000
1000
0000
,
0001
0010
0001
0100
,
0001
0000
1000
0000
,
0010
0100
0010
1000
,
0001
0000
1000
0000
,
0001
1000
0010
0000
,
2002
0000
0000
0000
,
0000
0000
0000
3003
,
0000
0000
0000
0000
,
0000
0000
0000
0000
,
1000
0000
0100
0000
,
1000
0000
0001
0000
,
0100
0000
0001
0000
,
0010
0010
0010
0000
,
0000
1000
0000
0001
,
0000
1000
0000
0001
,
0000
0100
0000
0010
,
0000
0100
0000
0010
,
0000
1000
0000
0001
,
0000
1000
0000
0001
,
0000
0010
0000
0100
,
0200
0000
0000
0300
,
1000
0000
0001
0000
,
1000
0010
1000
0010
,
0100
0000
0010
0000
,
1000
0100
1000
0100
,
0010
0000
0001
0000
,
0100
0001
0100
0001
,
1000
0000
0001
0000
,
1000
0001
0010
0000
,
0000
0001
1000
0000
,
0001
0010
0100
0010
,
0001
0000
0100
0000
,
0010
1000
0100
1000
,
0010
0000
0100
0000
,
0001
1000
0100
0010
,
0001
0001
1000
1000
,
0001
1000
0010
0000
,
1001
0000
0000
0000
;

//---------------dance-single - ----------------
#NOTES:
     dance-single:
     :
     Medium:
     5:
     0.414230,0.430799,0.132553,0.381091,0.000000,288.000000,16.000000,46.000000,0.000000,0.000000,0.000000,0.414230,0.430799,0.132553,0.381091,0.000000,288.000000,16.000000,46.000000,0.000000,0.000000,0.000000:
0000
0000
0000
0000
,
0000
0000
0000
0000
,
0000
0000
0000
0000
,
0000
0000
0000
0000
,
1000
0100
1000
0001
,
1000
0000
0010
0000
1000
0001
0100
0000
,
0001
0100
0001
1000
,
0001
0010
0001
0000
0001
1000
0010
0000
,
2000
0000
0000
0000
,
3200
0000
0000
0000
,
0320
0000
0000
0000
,
0031
0100
1000
0100
,
0002
0100
0000
0103
,
0200
0010
0000
0310
,
0020
1000
0000
1030
,
1000
0001
0020
0030
,
0100
1000
0002
0000
,
0103
0001
0020
0000
,
0031
1000
0200
0000
,
0310
0100
2000
0000
,
3002
0000
2003
0000
,
3001
0001
0200
0000
,
0320
0000
0230
0000
,
0301
1000
2002
3003
,
1001
1000
0100
1000
,
0001
1000
0010
0100
,
0001
0100
0001
1000
,
0001
0010
0100
0110
,
2002
3003
0001
1000
,
0010
0100
0001
0101
,
2200
3300
0022
0033
,
0001
0000
0001
1000
0200
0000
0300
0000
,
1000
0000
0100
0010
0100
0000
0100
0000
,
1000
0010
0100
0000
0001
0000
0100
0001
,
0010
0000
0100
0000
1000
0000
0100
1000
,
0001
0000
1000
0000
0010
0000
1000
0100
,
0001
0100
1000
0010
,
0100
0001
0100
0010
1000
0000
0010
0000
,
0100
0001
1000
0100
,
1000
1100
2002
3003
,
0001
0000
0100
0010
0100
0000
0100
0000
,
0001
0010
0100
0000
1000
0000
0100
1000
,
0010
0000
0100
0000
0001
0000
0100
0001
,
1000
0000
0001
0000
0010
0000
0001
0100
,
1000
0100
0001
0010
,
0100
1000
0100
0010
0001
0000
0010
0000
,
0100
1000
0001
0100
,
0001
0101
2002
3003
,
2000
0000
0000
0000
,
3020
0000
0000
0000
,
0230
0000
0000
0000
,
0302
0000
0000
0000
,
0023
0000
0230
0000
,
1300
0010
0100
0000
,
0002
0000
2003
0000
,
3001
0010
0001
0010
0100
0000
0000
0000
,
1000
1000
0001
0001
,
0100
0100
0010
0010
,
1000
1000
0001
0001
,
0010
0010
0100
0100
,
1000
1000
0010
0010
,
0100
0100
0001
0001
,
1000
0100
0010
0001
,
0010
0000
0010
0100
2000
0000
3000
0000
,
0001
0000
1000
0000
0001
0100
0010
0000
,
1000
0001
0100
0000
0100
0000
0010
0000
,
1000
0000
0001
0000
0010
0001
0100
0000
,
0100
1000
0010
0000
0010
0000
0100
0000
,
0001
0000
0100
0000
0010
1000
0001
0000
,
0010
0001
1000
0000
1000
0000
0100
0000
,
0020
0130
0200
0310
,
0001
0101
2002
3003
,
1000
0000
0001
0000
1000
0100
0010
0000
,
0001
1000
0100
0000
0100
0000
0010
0000
,
0001
0000
1000
0000
0010
1000
0100
0000
,
0100
0001
0010
0000
0010
0000
0100
0000
,
1000
0000
0100
0000
0010
0001
1000
0000
,
0010
1000
0001
0000
0001
0000
0100
0000
,
0020
0130
0200
0310
,
1000
1100
2002
3003
,
1001
0000
0000
0000
;

//---------------dance-single - ----------------
#NOTES:
     dance-single:
     :
     Hard:
     8:
     0.668685,0.629629,0.273392,0.712475,0.066277,446.000000,33.000000,86.000000,0.000000,0.000000,0.000000,0.668685,0.629629,0.273392,0.712475,0.066277,446.000000,33.000000,86.000000,0.000000,0.000000,0.000000:
// measure 0
0000
0000
0000
0000
,  // measure 1
0000
0000
0000
0000
,  // measure 2
0000
0000
0000
0000
,  // measure 3
0000
0000
0000
0000
,  // measure 4
1000
0001
0100
0000
0001
1000
0010
0000
,  // measure 5
1000
0001
0100
0000
0001
1000
0100
1000
,  // measure 6
0010
1010
0101
1010
,  // measure 7
0010
1000
0001
0100
0001
0010
0100
0000
,  // measure 8
2000
0000
0000
0000
,  // measure 9
3200
0000
0000
0000
,  // measure 10
0320
0000
0000
0000
,  // measure 11
0032
0000
0000
0000
,  // measure 12
2003
0100
0001
0100
,  // measure 13
3020
1000
0001
1000
,  // measure 14
0230
1000
0010
0001
,  // measure 15
0302
0100
2000
3003
,  // measure 16
1000
0000
0001
0100
0001
0000
1000
0000
,  // measure 17
0100
1000
0001
1000
0010
0000
0100
0001
,  // measure 18
0010
0000
0010
0001
0100
0000
0100
0001
,  // measure 19
1000
0000
1100
0000
0011
0000
0001
0100
,  // measure 20
0010
0000
1000
0100
1000
0000
0010
0000
,  // measure 21
0100
0001
1000
0001
0010
0000
0100
1000
,  // measure 22
0010
0000
0010
1000
0100
0000
0010
0000
,  // measure 23
0001
1000
0001
2000
0002
0000
3003
0000
,  // measure 24
0210
0001
0320
1000
,  // measure 25
0230
0001
0310
1000
,  // measure 26
0200
1000
0320
0001
,  // measure 27
0230
1000
0310
0011
,  // measure 28
2001
0100
0001
0100
,  // measure 29
3002
1000
0013
0110
,  // measure 30
2002
3003
0220
0330
,  // measure 31
0001
0100
0001
1000
0020
0000
1030
0100
,  // measure 32
0020
0000
0031
1000
0200
0000
0320
0000
,  // measure 33
0031
0000
1000
0010
1000
0000
0001
0000
0200
0000
0000
0000
0310
0000
1000
0000
,  // measure 34
0001
0000
0010
0100
0010
0000
0001
0000
2000
0000
0000
0000
3100
0000
0010
0000
,  // measure 35
0100
1000
0010
0100
0002
0000
1003
0100
,  // measure 36
0020
0000
0031
1000
0020
0000
0230
0000
,  // measure 37
0301
0000
1000
0100
1000
0000
0001
0000
0020
0000
0000
0000
0130
0000
1000
0000
,  // measure 38
0020
0000
1030
0001
0100
0010
1000
0100
,  // measure 39
1100
1000
1001
0001
0201
0000
0301
1000
,  // measure 40
0020
0000
1030
0001
0200
0000
0320
0000
,  // measure 41
1030
0000
0001
0010
0001
0000
1000
0000
0200
0000
0000
0000
1300
0000
0001
0000
,  // measure 42
0100
0000
0010
1000
0010
0000
0100
0000
0002
0000
0000
0000
0013
0000
0100
0000
,  // measure 43
1000
0010
0100
0001
2000
0000
3001
0100
,  // measure 44
0020
0000
1030
0010
0200
0000
0320
0000
,  // measure 45
1030
0000
0100
0010
0100
0000
1000
0000
0200
0000
0000
0000
0310
0000
0001
0000
,  // measure 46
0100
0101
1010
0110
,  // measure 47
1001
0001
1000
0100
0020
0000
0030
0000
,  // measure 48
0002
0000
0203
0000
0320
0000
1030
0100
,  // measure 49
1000
0001
1000
0100
0020
0000
0031
1000
,  // measure 50
0200
0000
2300
0000
3020
0000
0130
0001
,  // measure 51
1000
0001
0100
0010
2000
0000
3010
0100
,  // measure 52
0002
0000
2003
0000
3020
0000
1030
0001
,  // measure 53
0100
0010
0100
0001
0020
0000
0031
1000
,  // measure 54
1200
0310
0201
0310
,  // measure 55
1000
0000
0010
0000
0001
0000
0010
0000
2000
0000
0000
0000
3000
0000
0001
0100
,  // measure 56
0020
0000
0000
0000
0130
0000
0001
0000
1000
0000
0100
0000
0010
0000
0100
1000
,  // measure 57
0001
0010
0001
0100
0020
0000
0130
0001
,  // measure 58
2000
0000
0000
0000
3002
0000
0000
0000
1003
0000
0010
0100
0010
0000
1000
0000
,  // measure 59
0001
0010
0100
1000
0020
0000
0130
0001
,  // measure 60
0020
0000
0000
0000
0031
0000
1000
0000
0010
0000
0100
0000
0010
0000
1000
0001
,  // measure 61
0100
0100
0001
1000
0020
0000
0130
0100
,  // measure 62
0002
0000
1003
0001
1000
0001
0100
0010
,  // measure 63
1000
0100
0010
0001
1001
0000
1000
0001
,  // measure 64
0020
0000
0000
0000
0031
0000
0100
0000
0010
0000
0100
0000
0001
0000
1000
0010
,  // measure 65
0100
0001
1000
0100
0020
0000
0130
1000
,  // measure 66
0002
0000
0000
0000
2003
0000
0000
0000
3001
0000
0100
0001
1000
0000
0010
0000
,  // measure 67
1000
0001
0100
0001
0020
0000
0031
1000
,  // measure 68
0200
0000
0000
0000
1300
0000
0010
0000
0100
0000
0010
0000
0100
0000
0001
1000
,  // measure 69
0010
0010
0100
0001
2000
0000
3100
0010
,  // measure 70
0002
0000
1003
0010
0100
0100
0001
0010
,  // measure 71
0011
0001
1001
1000
1020
0000
1030
0100
,  // measure 72
0020
0000
0000
0000
0130
0000
1000
0000
0001
0000
1000
0000
0010
0000
0100
0001
,  // measure 73
1000
0010
1000
0001
0200
0000
0301
1000
,  // measure 74
0200
0000
0000
0000
0320
0000
0000
0000
0130
0000
1000
0001
0010
0000
0001
0000
,  // measure 75
1000
0010
0100
0001
2000
0000
3001
0100
,  // measure 76
0102
0000
1003
0100
2100
0000
3001
0100
,  // measure 77
0010
0000
1000
0000
0100
0010
0100
0000
1001
0000
0000
0000
0001
0000
1000
0000
,  // measure 78
0110
0000
0010
0100
0001
1000
0100
1000
,  // measure 79
1100
0100
0110
0010
0011
0000
0110
0000
,  // measure 80
1001
0000
0000
0000
;
