#TITLE:VOLTEXES II;
#SUBTITLE:;
#ARTIST:Sota Fujimori;
#TITLETRANSLIT:;
#SUBTITLETRANSLIT:;
#ARTISTTRANSLIT:;
#GENRE:Techno;
#CREDIT:;
#BANNER:[Round G] - VOLTEXES II.png;
#BACKGROUND:[Round G] - VOLTEXES II-bg.png;
#LYRICSPATH:;
#CDTITLE:cdtitle.png;
#MUSIC:[Round G] - VOLTEXES II.ogg;
#OFFSET:-1.633000;
#SAMPLESTART:102.857002;
#SAMPLELENGTH:15.000000;
#SELECTABLE:YES;
#BPMS:0.000000=147.000000
;
#STOPS:
;
#BGCHANGES:;
#KEYSOUNDS:;
#ATTACKS:;

//---------------dance-single - ----------------
#NOTES:
     dance-single:
     :
     Beginner:
     2:
     0.129215,0.177340,0.014244,0.014244,0.000000,127.000000,125.000000,2.000000,2.000000,0.000000,0.000000,0.129215,0.177340,0.014244,0.014244,0.000000,127.000000,125.000000,2.000000,2.000000,0.000000,0.000000:
0000
0000
0000
0000
,
0000
0000
0000
0000
,
0000
0000
0000
0000
,
0000
0000
0000
0000
,
1000
0000
0000
0000
,
0001
0000
0000
0000
,
0100
0000
0000
0000
,
0010
0000
0000
0000
,
1000
0000
0100
0000
,
0001
0000
0000
0000
,
0001
0000
0010
0000
,
1000
0000
0000
0000
,
0001
0000
0100
0000
,
1000
0000
0000
0000
,
1000
0000
0010
0000
,
0001
0000
0000
0000
,
1001
0000
0000
0000
,
1000
0000
0000
0000
,
0100
0000
0000
0000
,
0010
0000
0000
0000
,
0001
0000
0000
0000
,
0001
0000
0000
0000
,
0100
0000
0000
0000
,
0010
0000
0000
0000
,
1000
0000
0000
0000
,
0100
0000
0100
0000
,
0100
0000
0100
0000
,
0200
0000
0300
0000
,
1000
0000
1000
0000
,
0000
0100
0100
0000
,
0010
0000
0010
0000
,
0000
0001
0001
0000
,
1000
0000
1000
0000
,
0000
0010
0010
0000
,
0100
0000
0100
0000
,
0001
0000
0001
0000
,
0001
0000
0001
0000
,
0000
0100
0100
0000
,
0010
0000
0010
0000
,
0000
1000
1000
0000
,
0001
0000
0001
0000
,
0000
0010
0010
0000
,
0100
0000
0100
0000
,
1000
0000
1000
0000
,
1001
0000
0000
0000
,
0001
0000
0000
0010
,
0010
0000
0000
1000
,
1000
0000
0000
0100
,
0100
0000
0000
1000
,
1000
0000
0000
0010
,
0010
0000
0000
0001
,
0001
0000
0000
0100
,
0100
0000
0000
0001
,
0001
0000
0000
0100
,
0100
0000
0000
1000
,
1000
0000
0000
0010
,
0010
0000
0000
1000
,
1000
0000
0000
0100
,
0100
0000
0000
0001
,
0001
0000
0000
0010
,
0010
0000
0000
0001
,
0001
0000
0000
0000
,
1000
0000
1000
0000
,
1000
0000
0000
0000
,
0010
0000
0010
0000
,
0010
0000
0000
0000
,
0100
0000
0100
0000
,
0100
0000
0000
0000
,
0001
0000
0001
0000
,
0001
0000
0000
0000
,
1000
0000
1000
0000
,
1000
0000
0000
0000
,
0100
0000
0100
0000
,
0100
0000
0000
0000
,
0010
0000
0010
0000
,
0010
0000
0000
0000
,
0001
0000
0001
0000
,
0001
0000
0000
0000
,
0100
0000
0000
0000
,
0010
0000
0000
0000
,
0100
0000
0100
0000
,
0200
0000
0000
0000
,
0000
0000
0000
0000
,
0300
0000
0000
0000
;

//---------------dance-single - ----------------
#NOTES:
     dance-single:
     :
     Easy:
     4:
     0.272675,0.325124,0.106832,0.099709,0.000000,268.000000,253.000000,15.000000,14.000000,0.000000,0.000000,0.272675,0.325124,0.106832,0.099709,0.000000,268.000000,253.000000,15.000000,14.000000,0.000000,0.000000:
0000
0000
0000
0000
,
0000
0000
0000
0000
,
0000
0000
0000
0000
,
0000
0000
0000
0000
,
1000
0100
0010
0000
,
0001
0100
0010
0000
,
1000
0010
0100
0000
,
0001
0010
0100
0000
,
1000
1000
0010
0100
,
0001
0000
1000
0000
,
0001
0001
0010
0100
,
1000
0000
0001
0000
,
0100
0001
0010
0001
,
0100
0000
0010
1000
,
0100
1000
0010
1000
,
0100
0000
0010
0001
,
1001
1000
0001
1001
,
1000
0010
0000
0010
,
0001
0010
0000
0010
,
1000
0100
0000
0100
,
0001
0100
0000
0100
,
1000
0010
0100
0001
,
1000
0100
0000
0010
,
0001
0010
0100
1000
,
0001
0100
0000
0010
,
1001
0000
1001
0000
,
1001
0000
0001
0010
,
0110
0000
0110
0000
,
1002
0000
0013
0000
,
0010
0100
1000
0001
,
0020
0000
0130
0000
,
1000
0001
0010
0001
,
0200
0000
0310
0000
,
1000
0100
0001
0100
,
2000
0000
3010
1000
,
0001
0010
0100
0000
,
2001
0000
3010
0000
,
0010
0100
0001
1000
,
0020
0000
0130
0000
,
0001
1000
0010
1000
,
0200
0000
0310
0000
,
0001
0100
1000
0100
,
0002
0000
0013
0001
,
1000
0010
0100
0001
,
1001
0100
0010
1001
,
1000
0010
0001
0000
,
0100
0001
0010
0000
,
1000
0100
0001
0000
,
0010
0001
0100
1000
,
0001
0010
1000
0000
,
0100
1000
0010
0000
,
0001
0100
1000
0000
,
0010
1000
0100
0001
,
1000
0100
0001
0100
,
1000
0000
0010
0100
,
0001
0010
1000
0010
,
0001
0000
0010
0100
,
1000
0010
0001
0010
,
1000
0000
0100
0010
,
0001
0100
1000
0100
,
0001
0000
0100
0010
,
1001
0010
0100
1001
,
0001
0010
1000
0100
,
0001
0010
0100
1000
,
0001
0100
1000
0100
,
0001
0010
0100
0000
,
1000
0010
0001
0100
,
1000
0010
0100
0001
,
1000
0100
0001
0100
,
1000
0010
0100
0000
,
0001
0010
0100
0010
,
0001
1000
0100
0010
,
0100
0100
0010
0010
,
0002
0000
2000
3003
,
1000
0010
0100
0010
,
1000
0001
0100
0010
,
0100
0100
0010
0010
,
2000
0000
0002
3003
,
1001
0000
1000
0000
,
0010
0000
0100
0000
,
0001
0010
0100
1000
,
2002
0000
0000
0000
,
0000
0000
0000
0000
,
3003
0000
0000
0000
;

//---------------dance-single - ----------------
#NOTES:
     dance-single:
     :
     Medium:
     7:
     0.415117,0.443351,0.128198,0.227907,0.000000,408.000000,390.000000,18.000000,32.000000,0.000000,0.000000,0.415117,0.443351,0.128198,0.227907,0.000000,408.000000,390.000000,18.000000,32.000000,0.000000,0.000000:
0000
0000
0000
0000
,
0000
0000
0000
0000
,
0000
0000
0000
0000
,
0000
0000
0000
0000
,
1000
0000
0010
0100
0010
0000
1000
0000
,
0001
0000
0010
0100
0010
0000
0001
0000
,
1000
0000
0100
0010
0100
0000
1000
0000
,
0001
0000
0100
0010
0100
0000
0001
0000
,
1000
1000
0100
0010
,
0001
0001
0100
0010
,
1000
1000
0001
0001
,
0100
0010
0100
0000
0001
1000
0001
0000
,
1000
0000
0100
0010
0100
0000
1000
0001
,
1000
0000
0010
0100
0010
0000
0100
0000
,
0001
0000
0100
0010
0100
0000
0001
1000
,
0001
0000
0010
0100
0010
0000
0100
0000
,
1001
0000
1000
0010
0100
0000
1001
0000
,
0001
0000
0010
0001
0100
0000
0100
0010
,
1000
0000
0010
1000
0100
0000
0100
0010
,
0001
0000
0100
0001
0010
0000
0010
0100
,
1000
0000
0100
1000
0010
0000
0010
0100
,
0001
0000
0010
0001
0000
0100
0010
0000
,
1000
0100
0001
0100
,
1000
0000
0010
1000
0000
0100
0010
0000
,
0001
0100
1000
0100
,
0202
0303
2020
3030
,
2200
3300
0010
0001
,
1000
0000
0010
0000
0100
0001
1000
0000
,
1002
0100
0103
0001
,
1000
0100
0110
1001
,
0001
0000
0010
0000
0100
1000
0100
0000
,
0010
0000
0001
0000
1000
0100
1000
0000
,
0020
0100
0130
0001
,
1000
0000
0100
0000
0010
0001
0010
0001
,
1000
0000
0010
0100
0010
0000
1000
0001
,
1000
0100
0010
0001
,
2001
0100
3100
1000
,
0001
0100
0110
1001
,
1000
0000
0010
0000
0100
0001
0100
0000
,
0010
0000
1000
0000
0001
0100
0001
0000
,
0020
0100
0130
1000
,
0001
0000
0100
0000
0010
1000
0010
1000
,
0001
0000
0010
0100
0010
0000
0001
1000
,
0001
0100
0010
1000
,
1001
0000
0001
0010
0100
0000
1001
0000
,
0001
0000
0100
0000
0010
1000
0010
0000
,
1000
0000
0010
0100
0000
0001
1000
0100
,
0010
0001
0100
0000
0010
1000
0100
0000
,
1000
0000
0010
0100
0001
1000
0010
0000
,
1000
0000
0100
0000
0010
0001
0010
0000
,
0001
0000
0010
0100
0000
1000
0001
0100
,
0010
1000
0100
0000
0010
0001
0100
0000
,
0001
0000
0010
0100
1000
0000
0001
0000
,
1000
0010
0001
0000
0010
0000
1000
0000
,
0001
0100
1000
0000
0100
0001
1000
0000
,
0100
0010
0001
0000
0100
0000
0010
0000
,
1000
0100
0001
0000
0100
1000
0001
0000
,
0001
0010
1000
0000
0010
0000
0001
0000
,
1000
0100
0001
0000
0100
1000
0001
0000
,
0100
0010
1000
0000
0100
0000
0010
0000
,
0001
0100
1000
0000
0100
0001
1000
0000
,
1001
0000
0010
0100
0010
0000
1001
0000
,
0001
0100
0020
0000
1030
0000
0001
0000
,
0100
0010
0100
0010
1000
0000
0001
0000
,
1000
0100
0020
0000
0031
0000
1000
0000
,
0100
0010
0100
0010
0001
0000
1000
0000
,
0010
0100
0002
0000
1003
0000
0001
0000
,
0100
0010
0100
0000
0001
0100
0001
0000
,
0010
0100
2000
0000
3001
0000
1000
0000
,
0100
0010
0100
0000
1000
0100
1000
0000
,
0001
0200
0000
0320
0000
2030
0000
3100
,
0000
1000
0010
0000
0100
0000
0001
0000
,
1000
0200
0000
0320
0000
0032
0000
2003
,
0000
3010
0100
0000
0002
0000
1003
0000
,
1000
0200
0000
0320
0000
0032
0000
0103
,
0000
0001
0010
0000
0100
0000
1000
0000
,
0001
0200
0000
0320
0000
2030
0000
3002
,
0000
0013
0100
0000
2000
0000
3001
0000
,
1001
0000
1000
0010
0000
0100
0001
0000
,
1000
0000
0100
0010
0001
0000
1001
0000
,
1000
0010
0100
0001
0100
0010
1000
0000
,
2002
0000
0000
0000
,
0000
0000
0000
0000
,
3003
0000
0000
0000
;

//---------------dance-single - ----------------
#NOTES:
     dance-single:
     :
     Hard:
     9:
     0.569768,0.561578,0.163808,0.420204,0.270640,560.000000,537.000000,23.000000,59.000000,0.000000,0.000000,0.569768,0.561578,0.163808,0.420204,0.270640,560.000000,537.000000,23.000000,59.000000,0.000000,0.000000:
0000
0000
0000
0000
,
0000
0000
0000
0000
,
0000
0000
0000
0000
,
0000
0000
0000
0000
,
1000
0000
0001
0000
0100
0000
0000
0010
0000
0000
1000
0000
0001
0000
0100
0000
,
0001
0000
1000
0000
0100
0000
0000
0010
0000
0000
0001
0000
1000
0000
0100
0000
,
1000
0000
0010
0000
0100
0000
0000
0001
0000
0000
1000
0000
0100
0000
0010
0000
,
0001
0000
0010
0000
0100
0000
0000
1000
0000
0000
0001
0000
0100
0000
0010
0000
,
1000
0000
0001
0000
0000
0100
0000
0000
1000
0000
0000
0100
0000
0001
0000
0000
,
1000
0100
0010
0001
1000
0010
0001
0010
,
1000
0000
0000
0010
0000
0000
0100
0000
0001
0000
0000
0010
0000
0000
0100
0000
,
1000
1000
0001
0100
1000
0100
0010
1000
,
0001
0000
0000
0010
0000
0000
1000
0000
0001
0000
0000
0100
0000
0000
1000
0000
,
0001
0000
0000
0100
0000
0010
0000
0000
1000
0000
0000
0100
0000
0010
0000
0000
,
0001
0100
0000
0000
0010
0000
1000
0000
0100
0000
0001
0000
0100
0000
1000
0000
,
0001
0100
0010
0100
0001
0010
0100
1000
,
1002
0000
0103
0001
1000
0100
0010
0000
,
1001
0000
0000
1000
0000
0000
0010
0000
0100
0000
0000
0001
0000
0000
1000
0000
,
0100
0000
0000
0010
0000
0000
0001
0000
0100
0000
0010
0000
1000
0000
0100
0000
,
1000
0000
0000
0001
0000
0000
0010
0000
0100
0000
0000
1000
0000
0000
0001
0000
,
0100
0000
0000
0010
0000
0000
1000
0000
0100
0000
0010
0000
0001
0000
0100
0000
,
0020
0000
1030
0002
0000
0013
0200
0000
,
1300
0010
0001
0000
1000
0100
0001
0000
,
0020
0000
0031
2000
0000
3010
0200
0000
,
0301
0010
1000
0000
0001
0100
1000
0000
,
2002
0000
3003
0001
0202
0000
0303
0100
,
0220
0000
0330
0010
1000
1000
0001
0001
,
1000
0000
0000
0010
0000
0000
0100
0000
0001
0000
0010
0000
0100
0000
1000
0000
,
0001
0000
0000
0100
0000
0000
0010
0000
2010
0000
0000
0000
3002
0000
0000
0000
,
0103
0000
0010
0000
1000
0100
1000
0000
2002
0000
3003
0000
0202
0000
0303
0000
,
0010
0000
0000
1000
0000
0000
0001
0000
2001
0000
0000
0000
0010
0000
3010
0000
,
1000
0000
0100
0000
0010
0000
0001
0000
0000
0100
0000
0000
0020
0000
0000
0000
0000
0000
1000
0000
0000
1030
0000
0000
,
0001
0000
0000
0010
0000
0000
0100
0000
0120
0000
0000
0000
0032
0000
0000
0000
,
1003
0000
0010
0000
1000
0000
0001
0000
0010
0000
0001
0000
1000
0000
0000
0010
0000
0000
0001
0000
0000
0010
0000
0000
,
1000
0000
0100
1000
0000
0000
0001
0000
0100
0000
0010
0000
1000
0000
1000
0000
,
0001
0000
0100
0000
0001
0000
0200
0000
0000
0000
0000
0000
0310
0000
0000
1000
0000
0000
0001
0000
0000
0000
0000
0000
,
1000
0000
0000
0100
0000
0000
0010
0000
0012
0000
0000
0000
2003
0000
0000
0000
,
3100
0000
0010
0000
0001
0100
0001
0000
2002
0000
3003
0000
2200
0000
3300
0000
,
0010
0000
0001
0000
0000
1000
0000
0000
1002
0000
0000
0000
0010
0000
0013
0000
,
0001
0000
0100
0000
0010
0000
1000
0000
0000
0100
0000
0000
0020
0000
0000
0000
0000
0000
0001
0000
0000
0031
0000
0000
,
1000
0000
0000
0010
0000
0000
0100
0000
0120
0000
0000
0000
2030
0000
0000
0000
,
3001
0000
0010
0000
0001
0000
1000
0000
0010
0000
1000
0000
0001
0000
0000
0010
0000
0000
1000
0000
0000
0010
0000
0000
,
0001
0000
0100
0001
0000
0000
1000
0000
0100
0000
0010
0000
0001
0000
0001
0000
,
1000
0000
0100
0000
1000
0000
0200
0000
0000
0000
0000
0000
0310
0000
0000
0001
0000
0000
1000
0000
0000
0000
0000
0000
,
1002
0000
0013
0100
1000
0001
0100
0000
,
0001
0000
0000
0010
0001
0000
0100
0000
0010
0000
1000
0000
0002
0000
0000
0000
,
1003
0000
0000
0100
1000
0000
0010
0000
0100
0000
0001
0000
0020
0000
0000
0000
,
0130
0000
0000
1000
0100
0000
0010
0000
0001
0000
0100
0000
0020
0000
0000
0000
,
1030
0000
0000
0100
1000
0000
0010
0000
0001
0000
0010
0000
2000
0000
0000
0000
,
3001
0000
0000
1000
0010
0000
0100
0000
0001
0000
1000
0000
0200
0000
0000
0000
,
1300
0000
0000
0001
0010
0000
0100
0000
1000
0000
0001
0000
0200
0000
0000
0000
,
0310
0000
0000
1000
0100
0000
1000
0000
0001
0000
0100
0000
0020
0000
0000
0000
,
0130
0000
0000
0001
1000
0000
0100
0000
0010
0000
0010
0000
0100
0000
0100
0000
,
1000
0000
0000
0010
0100
0000
0001
0000
0010
0000
1000
0000
0010
0000
0001
0000
,
0100
0000
0000
0010
1000
0000
0100
0000
0001
0000
0100
0000
2000
0000
0000
0000
,
3001
0000
0000
0010
0100
0000
1000
0000
0010
0000
0001
0000
0010
0000
1000
0000
,
0100
0000
0000
0010
0001
0000
0100
0000
1000
0000
0100
0000
0002
0000
0000
0000
,
1003
0000
0000
0010
0100
0000
0001
0000
0010
0000
1000
0000
0010
0000
0001
0000
,
0100
0000
0000
0010
1000
0000
0001
0000
0010
0000
0100
0000
2000
0000
0000
0000
,
3001
0000
0000
0010
0100
0000
1000
0000
0010
0000
0001
0000
0010
0000
1000
0000
,
0100
0000
0000
0010
0001
0000
1000
0000
0010
0000
0100
0000
0001
0000
0000
0000
,
2001
0000
3010
0001
0100
1000
0001
0000
,
1000
0010
0200
0000
0301
1000
0100
0010
,
0001
0100
1000
0100
0001
0010
0100
1000
,
0001
0010
0200
0000
1300
0001
0100
0010
,
1000
0100
0001
0100
1000
0010
0100
0001
,
1000
0100
0002
0000
1003
0010
0001
0100
,
0010
1000
0001
0010
0001
0100
0010
1000
,
0001
0100
2000
0000
3001
0010
1000
0100
,
0010
0000
0001
0000
1000
0000
0010
1000
0000
0100
0000
0010
0100
0000
1000
0000
,
0002
0000
0103
0020
0000
1030
0100
0001
,
0100
1000
0010
0100
0001
0010
1000
0010
,
0001
0100
0000
0110
0000
1010
0000
1000
,
0001
0000
0100
0000
0010
1000
0010
1000
0002
0000
0000
0000
0103
0000
0001
0000
,
2000
0000
3100
0020
0000
0031
0100
1000
,
0100
0001
0010
0100
1000
0010
0001
0010
,
1000
0100
0000
0110
0000
0011
0000
0001
,
1000
0000
0100
0000
0010
0001
0010
0001
2000
0000
0000
0000
3100
0000
1000
0000
,
1001
0000
0000
0001
0100
0000
0001
0000
0000
0000
1000
0000
0100
0000
0010
0000
,
0001
0100
0000
0010
1000
0001
0010
0100
,
1000
0000
1000
0000
0001
0000
0001
0000
0100
0010
0000
0100
0000
0010
0100
0000
,
2002
0000
0000
0000
,
0000
0000
0000
0000
,
3003
0000
0000
0000
;

//---------------dance-single - ----------------
#NOTES:
     dance-single:
     :
     Challenge:
     10:
     0.720350,0.738918,0.163808,0.135320,0.591134,708.000000,685.000000,23.000000,19.000000,0.000000,0.000000,0.720350,0.738918,0.163808,0.135320,0.591134,708.000000,685.000000,23.000000,19.000000,0.000000,0.000000:
// measure 0
0000
0000
0000
0000
,  // measure 1
0000
0000
0000
0000
,  // measure 2
0000
0000
0000
0000
,  // measure 3
0000
0000
0000
0000
,  // measure 4
1000
0000
0010
0000
0100
0001
0000
0200
0000
0000
0310
0000
1000
0000
0100
0000
,  // measure 5
0010
0000
0001
0000
1000
0010
0000
2000
0000
0000
3001
0000
1000
0000
0100
0000
,  // measure 6
0010
0000
0001
0000
0100
0010
0000
0200
0000
0000
0301
0000
0010
0000
0100
0000
,  // measure 7
1000
0000
0001
0000
0100
0010
0000
0100
0000
0001
0000
2000
0000
0000
3001
0000
,  // measure 8
1000
0000
0010
0000
0100
0001
0000
0000
1000
0000
0100
0000
0010
0001
0000
0000
,  // measure 9
1000
0000
0010
0000
0100
0001
0100
0000
0010
0000
1000
0000
0100
0000
0010
0000
,  // measure 10
0001
0100
0001
0000
1000
0000
0010
0000
0100
0000
0001
0000
1000
0000
0100
0000
,  // measure 11
1000
0010
1000
0000
0001
0000
0100
0000
0010
0000
1000
0000
0001
0000
0100
0000
,  // measure 12
0001
0000
0000
0100
0000
1000
0100
0000
0001
0000
0000
0010
0000
1000
0010
0000
,  // measure 13
0001
0000
0100
0000
0010
1000
0010
0000
1000
0000
0100
0000
0010
0001
0010
0000
,  // measure 14
0001
0100
0000
0001
1000
0000
0100
0000
0010
0000
0001
0000
0100
0000
0010
0000
,  // measure 15
1000
0100
0000
1000
0001
0000
0100
0000
0010
0000
1000
0000
0100
0000
0010
0000
,  // measure 16
0012
0000
0000
0000
0103
0001
0100
0000
0010
1000
0010
1000
0001
0000
0000
0000
,  // measure 17
1001
0000
0000
1000
0010
0000
0100
0000
0001
0000
1000
0100
0000
1000
0001
0000
,  // measure 18
1000
0000
0000
0001
0010
0000
0100
0000
1000
0000
0001
0100
0000
0001
1000
0000
,  // measure 19
0100
0000
0000
0010
0100
0000
1000
0000
0001
0100
0000
0010
0100
0000
0001
0000
,  // measure 20
0100
0000
0000
0010
0100
0000
0001
0000
1000
0100
0000
0010
0100
0000
1000
0000
,  // measure 21
0001
0100
1000
0001
0010
1000
0100
0010
,  // measure 22
0001
0000
0100
0000
0010
1000
0000
0010
0100
0000
0001
0000
0010
0000
0100
0000
,  // measure 23
1000
0100
0001
1000
0010
0001
0100
0010
,  // measure 24
1000
0000
0100
0000
0001
0000
0100
0000
1000
0010
0000
0100
0001
0000
1000
0000
,  // measure 25
0002
0000
0000
0013
0000
0100
1000
0000
0020
0000
0000
0130
0000
0001
0010
0000
,  // measure 26
0200
0000
0000
1300
0000
0010
0100
0000
0001
0010
0001
0000
1000
0010
1000
0000
,  // measure 27
0002
0000
0000
0103
0000
0001
0010
0001
0010
0100
1000
0100
1000
0000
0001
0000
,  // measure 28
0011
0000
0000
1100
0000
0000
1000
0000
1001
0000
0001
0000
0100
0000
1000
0000
,  // measure 29
0100
0000
0001
0000
0010
0100
0010
0100
1000
0010
0000
0000
0010
0100
0000
0000
,  // measure 30
0101
0000
0000
1001
0000
0000
1000
0000
1100
0000
0100
0000
1000
0010
1000
0010
,  // measure 31
0100
0000
0000
0000
0001
0000
0000
0000
1000
0000
0000
0000
0100
0000
0000
0000
0000
0000
0010
0000
0000
0000
0000
0000
0001
0000
0000
0000
0000
0000
1000
0000
0000
0000
0000
0000
0010
0000
0000
0100
0000
0000
0010
0000
0000
0000
0000
0000
,  // measure 32
0110
0000
0000
1001
0000
0000
0001
0000
0011
0000
0010
0100
0000
0100
1000
0001
,  // measure 33
1000
0000
0000
0000
0100
0000
0000
0000
0001
0000
0000
0000
0100
0000
0000
0000
1000
0000
0000
0000
0010
0000
0000
0000
0100
0000
0000
0000
0000
0000
0001
0000
0000
0000
0000
0000
0010
0000
0000
0100
0000
0000
0010
0000
0000
0100
0000
0000
,  // measure 34
1000
0000
0001
0100
0000
0010
0100
0000
0001
0000
1000
0000
0100
0010
0100
0010
,  // measure 35
0001
0000
0100
0000
1000
0000
0100
0000
0000
0001
0000
0000
0010
0000
0000
0100
0000
0000
1000
0000
0000
0001
0000
0000
,  // measure 36
1001
0000
0000
1100
0000
0000
0011
0000
0101
0000
0100
0000
0010
0000
1000
0000
,  // measure 37
0001
0000
0010
0000
1000
0000
0010
0000
0001
0100
0000
0000
0010
1000
0000
0000
,  // measure 38
0001
0000
1000
0000
0100
0000
0001
0000
0100
0000
0100
0000
1000
0010
1000
0010
,  // measure 39
0100
0000
0000
0000
0001
0000
0000
0000
0010
0000
0000
0000
0100
0000
0000
0000
0000
0000
1000
0000
0000
0000
0000
0000
0001
0000
0000
0000
0000
0000
0100
0000
0000
0000
0000
0000
0010
0000
0000
1000
0000
0000
0010
0000
0000
1000
0000
0000
,  // measure 40
0001
0000
0010
0001
0000
0010
0100
0000
1000
0000
0001
0000
0100
0000
0010
0000
,  // measure 41
1000
0000
0000
0000
0100
0000
0000
0000
0010
0000
0000
0000
0001
0000
0000
0000
0010
0000
0000
0000
0100
0000
0000
0000
1000
0000
0000
0000
0000
0000
0010
0000
0000
0000
0000
0000
0100
0000
0000
0001
0000
0000
0100
0000
0000
0001
0000
0000
,  // measure 42
1000
0000
0100
1000
0000
0001
0100
0000
0010
1000
0010
1000
0001
0000
0100
0000
,  // measure 43
0001
0000
0010
0000
1000
0000
0010
0000
0000
0001
0000
0000
0100
0000
0000
0010
0000
0000
1000
0000
0000
0001
0000
0000
,  // measure 44
2001
0000
0000
0000
3010
1000
0010
1000
0100
0010
0100
0010
0001
0000
0000
0000
,  // measure 45
1000
0010
0000
1000
0100
0000
0010
0000
0001
0000
0100
0000
1000
0000
0100
0000
,  // measure 46
0001
0000
0000
0010
0001
0000
0100
0000
0010
0000
1000
0000
0100
0000
0001
0000
,  // measure 47
0100
1000
0000
0010
0000
0100
0001
0000
1000
0000
0100
0000
0001
0000
0100
0000
,  // measure 48
1000
0000
0000
0010
1000
0000
0100
0000
0010
0000
0001
0100
0001
0000
1000
0000
,  // measure 49
0001
0010
0000
0001
0100
0000
0010
0000
1000
0000
0100
0000
0001
0000
0100
0000
,  // measure 50
1000
0000
0000
0010
1000
0000
0100
0000
0010
0000
0001
0000
0100
0000
1000
0000
,  // measure 51
0100
0001
0000
0010
0000
0100
1000
0000
0001
0000
0100
0000
1000
0000
0100
0000
,  // measure 52
0001
0010
0001
0100
0010
0010
1000
1000
,  // measure 53
0001
0100
0000
0001
0010
0000
0100
0000
1000
0000
0010
0000
0001
0000
0010
0000
,  // measure 54
1000
0000
0000
0100
1000
0000
0010
0000
0100
0000
0001
0000
0010
0000
1000
0000
,  // measure 55
0010
0001
0000
0100
0000
0010
1000
0000
0001
0000
0010
0000
1000
0000
0010
0000
,  // measure 56
0001
0000
0000
0100
0001
0000
0010
0000
0100
0000
1000
0010
1000
0000
0001
0000
,  // measure 57
1000
0100
0000
1000
0010
0000
0100
0000
0001
0000
0010
0000
1000
0000
0010
0000
,  // measure 58
0001
0000
0000
0100
0001
0000
0010
0000
0100
0000
1000
0000
0010
0000
0001
0000
,  // measure 59
0010
1000
0000
0100
0000
0010
0001
0000
1000
0000
0010
0000
0001
0000
0010
0000
,  // measure 60
1000
0100
1000
0010
0100
0001
0010
0100
,  // measure 61
2100
0000
0000
0000
3001
1000
0001
1000
0010
0100
0010
0100
0001
0000
0000
0000
,  // measure 62
0001
1000
1020
0000
0130
0001
0010
0100
,  // measure 63
1000
0000
0010
0000
0100
0001
0100
0000
0010
0000
1000
0000
0100
0010
0100
0000
,  // measure 64
1000
0001
0021
0000
0130
1000
0010
0100
,  // measure 65
0001
0000
0010
0000
0100
1000
0100
0000
0010
0000
0001
0000
0100
0010
0100
0000
,  // measure 66
0001
1000
1020
0000
0130
0001
1000
0100
,  // measure 67
0010
0000
0001
0000
0100
0010
0100
0010
0000
1000
0000
0100
1000
0000
0001
0000
,  // measure 68
0100
0010
1000
0100
0001
0100
1000
0010
,  // measure 69
0100
0000
0001
0000
1000
0000
0010
0100
0000
0001
0000
0100
0010
0100
0010
0000
,  // measure 70
1000
0100
0001
1000
0010
0001
0100
0010
,  // measure 71
1000
0100
0001
0100
1000
0010
0100
0001
,  // measure 72
1000
0010
0001
1000
0100
0001
0010
0100
,  // measure 73
1000
0000
0001
0000
0100
0010
0100
0010
2000
0000
0000
0000
3100
0000
1000
0000
,  // measure 74
0001
0100
1000
0001
0010
1000
0100
0010
,  // measure 75
0001
0100
1000
0100
0001
0010
0100
1000
,  // measure 76
0001
0010
1000
0001
0100
1000
0010
0100
,  // measure 77
0001
0000
1000
0000
0100
0010
0100
0010
0002
0000
0000
0000
0103
0000
0001
0000
,  // measure 78
1001
0000
0000
1000
0001
0000
0100
0000
1000
0000
0100
0000
0010
0000
1000
0000
,  // measure 79
0001
0000
0010
0100
0000
0000
0010
0000
0001
0000
0100
0000
0120
0000
0000
0000
,  // measure 80
1030
0010
1000
0000
0001
0100
0001
0000
0010
0100
0000
0010
0000
0100
0010
0000
,  // measure 81
2002
0000
0000
0000
,  // measure 82
0000
0000
0000
0000
,  // measure 83
3003
0000
0000
0000
;
