#TITLE:Us Against the World;
#SUBTITLE:;
#ARTIST:Darren Styles;
#TITLETRANSLIT:;
#SUBTITLETRANSLIT:;
#ARTISTTRANSLIT:;
#GENRE:Hardcore;
#CREDIT:TiKAL+;
#BANNER:[Round G] - Us Against The World.png;
#BACKGROUND:[Round G] - Us Against The World-bg.png;
#LYRICSPATH:;
#CDTITLE:cdtitle.png;
#MUSIC:[Round G] - Us Against The World.ogg;
#OFFSET:0.045;
#SAMPLESTART:88.239;
#SAMPLELENGTH:22.588;
#SELECTABLE:YES;
#DISPLAYBPM:85.000:170.000;
#BPMS:0.000=85.000,15.250=95.860,16.000=82.243,17.000=83.177,19.333=96.330,20.000=85.264,21.000=87.525,23.500=88.324,24.000=76.997,25.000=96.239,26.000=81.121,27.000=78.964,28.000=88.072,31.500=84.103,32.000=74.640,32.667=84.881,33.000=87.431,35.500=73.345,35.750=95.235,36.000=79.785,36.750=83.333,37.000=88.934,39.500=75.222,40.000=82.804,41.000=88.703,42.000=81.026,43.000=83.782,43.500=72.118,44.500=86.107,46.000=339.688,48.000=169.844,49.000=84.922,50.000=85.000,82.000=170.000,210.000=85.000,210.250=170.000,210.500=340.000,211.000=170.000;
#STOPS:;
#BGCHANGES:;
#KEYSOUNDS:;

//---------------dance-single - TiKAL----------------
#NOTES:
     dance-single:
     TiKAL:
     Easy:
     3:
     0.175,0.187,0.133,0.018,0.000:
0000
0000
0000
0000
,
0000
0000
0000
0000
,
0000
0000
0000
0000
,
0000
0000
0000
0000
,
1000
0000
0000
0000
,
0100
0000
0000
0000
,
0010
0000
0010
0000
,
0001
0000
0000
0000
,
0001
0000
0000
0000
,
0100
0000
0000
0000
,
0010
0000
0010
0000
,
1000
0000
0000
0000
,
0000
0000
0001
0000
,
0000
0000
0001
0000
,
0000
0000
1000
0000
,
0000
0000
1000
0000
,
0010
0000
1000
0000
,
0000
0000
1000
0000
,
0000
0000
0001
0000
,
0000
0000
0001
0000
,
0100
0000
0110
0000
,
0000
0000
1000
0001
,
1000
0000
0110
0000
,
0000
0000
0001
1000
,
0001
0000
1001
0000
,
0000
0000
0100
0010
,
0100
0000
1001
0000
,
0000
0000
0010
0100
,
0010
0000
1010
0000
,
0100
0000
0001
0100
,
0001
0000
0011
0000
,
0100
0000
1000
0001
,
1000
0000
1100
0000
,
0010
0000
0001
0100
,
0001
0000
0101
0000
,
0010
0000
1000
0100
,
1000
0000
0001
0000
,
1000
0000
0010
0000
,
0100
0000
0001
0000
,
0010
0000
0100
0000
,
1000
0000
0001
0000
,
0001
0000
1000
0000
,
1000
0000
0001
1000
,
0001
1000
0002
0000
,
0000
0003
1001
0000
,
1000
1000
0001
0100
,
0001
0000
1001
0000
,
0001
0001
1000
0100
,
1000
0000
0110
0000
,
0001
0001
0010
0001
,
0010
0000
0110
0000
,
0100
0100
1000
0100
,
1000
0000
1001
0000
,
0001
0010
0100
0100
,
1000
0000
1001
0000
,
1000
0100
0010
0010
,
0001
0000
0101
0000
,
0010
1000
0001
0100
,
0001
0000
1000
0001
,
1000
0001
2000
0000
,
0000
3001
0000
0000
;

//---------------dance-single - TiKAL----------------
#NOTES:
     dance-single:
     TiKAL:
     Medium:
     6:
     0.281,0.373,0.204,0.133,0.000:
0000
0000
0000
0000
,
0000
0000
0000
0000
,
0000
0000
0000
0000
,
0000
0000
0000
0000
,
1000
1000
0000
0000
,
0001
0001
0000
0000
,
0100
0100
0010
0010
,
2000
0000
3000
0000
,
0001
0001
0000
0000
,
1000
1000
0000
0000
,
0010
0010
0100
0100
,
0002
0000
0003
0000
,
0000
0000
1000
0000
,
0100
0000
0010
0000
,
0001
0000
1000
0000
,
0010
0000
0100
0000
,
0001
1000
0001
0000
,
0010
0000
0100
0000
,
1000
0000
0001
0000
,
0100
0000
0010
0000
,
1000
0001
1002
0000
,
0100
0203
0000
0010
,
0310
0000
2001
0000
,
0010
3020
0000
0100
,
0130
0001
0021
0000
,
0100
0230
0000
1000
,
1300
0000
1020
0000
,
0100
0230
0000
0001
,
0301
0000
1001
0000
,
1000
0100
1000
0001
,
0010
0000
1001
0000
,
0001
0100
0001
1000
,
0010
0100
0110
0000
,
0010
1000
0001
0100
,
0001
0000
0110
0000
,
0100
0001
1000
0010
,
1000
0000
0001
0010
,
0100
1000
0001
0100
,
0010
1000
0001
0100
,
0001
1000
0010
1000
,
0100
0010
0001
0001
,
1000
1000
0010
0010
,
0100
0100
0001
1000
,
0001
1000
0001
1000
0002
0000
0000
0000
,
0000
1003
1001
0001
,
0100
0000
0010
0000
1000
0001
1000
0000
,
0100
0010
0110
0010
,
0001
0000
1000
0000
0001
0100
0001
0000
,
0100
0010
0110
0010
,
1000
0000
0100
0000
0010
0001
1000
0000
,
0001
1000
1001
0001
,
0100
0010
2000
3200
,
0320
0031
1000
1001
,
0001
0100
0001
0000
1000
0010
1000
0000
,
0001
0010
0110
0100
,
1000
0100
1000
0000
0001
0010
0001
0000
,
1000
0010
1010
1010
,
0101
0101
0011
0011
,
1100
1100
0001
1000
,
0001
1000
0001
2000
0000
0000
0000
0000
,
3000
1001
0000
0000
;

//---------------dance-single - TiKAL----------------
#NOTES:
     dance-single:
     TiKAL:
     Hard:
     8:
     0.419,0.427,0.221,0.106,0.022:
0000
0000
0000
0000
,
0000
0000
0000
0000
,
0000
0000
0000
0000
,
0000
0000
0000
0000
,
1000
0000
0100
1000
0000
0000
0000
0000
0000
0000
0000
0000
,
0001
0000
0000
0100
0001
0000
0000
0000
0000
0000
0000
0000
0000
0000
0000
0000
,
0100
0000
0000
0000
0010
0000
0100
0000
0000
0000
0000
0000
0010
0000
0000
0100
0000
0000
0010
0000
0000
0000
0000
0000
,
2000
0000
3000
0000
,
0001
0000
0100
0001
0000
0000
0000
0000
0000
0000
0000
0000
,
1000
0000
0000
0100
1000
0000
0000
0000
0000
0000
0000
0000
0000
0000
0000
0000
,
0010
0010
0010
0000
0100
0100
0100
0000
,
0002
0000
0003
0000
,
0000
0000
1000
1000
,
0100
1000
0100
0010
0001
0000
0001
0000
,
0010
0000
0010
0100
1000
0000
1000
0000
,
0010
1000
0010
0100
0001
0000
0100
0000
,
0001
0100
0001
1000
0001
0000
0001
0000
,
0010
0001
0010
0100
1000
0000
1000
0000
,
0100
0000
0100
0010
0001
0000
0001
0000
,
0100
0001
0100
0010
1000
0000
0010
0000
,
1000
0010
1000
0001
1001
0000
0000
0001
,
0100
0010
0100
0010
0000
1000
0001
0000
,
2000
0000
3000
0000
0110
0000
0000
1000
,
0100
0010
0100
0010
0000
0001
1000
0000
,
1010
0000
0101
0000
1001
0000
0000
0001
,
0010
0100
0010
0100
0000
1000
0001
0000
,
1001
0000
0000
1000
0100
0000
0000
0010
,
0001
0010
0100
1000
0000
0001
0100
0000
,
0110
0000
1001
1000
,
0001
0100
0001
0000
1000
0010
1000
0000
,
0001
0010
0100
1000
,
0001
0100
0001
0000
1000
0010
1000
0000
,
0001
0000
1000
0001
1000
0000
0010
0000
,
0100
0010
0100
0000
0001
1000
0001
0000
,
1000
0000
0100
0010
0001
0000
0010
0000
,
0100
1000
0001
0000
0200
0000
0302
0000
,
2003
0000
3100
0000
0010
0001
0010
0001
,
1000
0010
1000
0010
0100
0001
0100
0001
,
1000
0100
1000
0100
0010
0100
0010
0100
,
1000
0001
1000
0001
0100
0010
0100
0010
,
1000
0100
0010
0001
1000
0010
1000
0000
,
0001
0100
0001
0000
1000
0100
1000
0000
,
0001
0010
0001
0000
1000
0010
0100
0001
,
1000
0100
0010
0001
2000
0000
0000
0000
,
3001
1001
0110
0101
,
0001
0100
0010
0000
1000
0010
0100
0000
,
0101
1001
1100
1001
,
1000
0010
0100
0000
0001
0100
0010
0000
,
1010
0000
1000
0001
1001
0000
0011
0000
,
0001
0100
0010
0000
1000
0100
0010
0000
,
0011
0000
1000
0010
0100
0000
0101
0000
,
0001
0010
0100
0000
2000
0000
3200
0000
,
0320
0000
0000
0000
0031
0000
0000
0000
2000
3000
0000
0000
0001
0000
0100
0000
,
0010
0100
0001
1000
0100
0010
0010
0000
,
0011
0000
1100
0000
1001
0000
0001
0100
,
0010
1000
0100
0010
0001
0100
0100
0000
,
1010
0000
0100
0001
1000
0100
1000
0000
,
0001
0100
0001
0000
1000
0010
1000
0000
,
0001
0010
0001
0000
1000
0100
0010
0001
,
1000
0010
0200
0000
0300
0000
0000
0000
,
0001
1000
1001
0000
0000
0000
0000
0000
;

//---------------dance-single - TiKAL----------------
#NOTES:
     dance-single:
     TiKAL:
     Challenge:
     11:
     0.729,0.857,0.496,0.629,0.576:
0000
0000
0000
0000
,
0000
0000
0000
0000
,
0000
0000
0000
0000
,
0000
0000
0000
0000
0000
0000
0000
0000
0000
0000
0000
0000
0000
1000
0100
0000
,
0010
0000
0100
0020
0000
0000
0030
0000
0000
0000
0010
0000
,
0001
0000
0000
1000
0002
0000
0000
0000
0003
0000
0000
0000
0000
0000
1000
0001
,
1000
0000
0000
0000
0010
0000
0100
0000
0000
0001
0000
0000
1000
0000
0000
0100
0000
0000
0010
0000
0000
0001
0000
0000
,
2000
0000
0000
0000
0000
0000
3000
0000
0000
0000
0000
0000
0000
0000
1000
0001
,
1000
0000
0000
0000
0000
0000
0000
0000
0010
0000
0000
0000
0200
0000
0000
0000
0000
0000
0000
0000
0000
0000
0000
0000
0300
0000
0000
0000
0000
0000
0000
0000
0000
0000
0000
0000
0000
0000
0000
0000
0000
0000
0001
0000
0000
1000
0000
0000
,
0001
0000
0000
0100
0020
0000
0000
0000
0000
0030
0000
0000
0000
0000
1000
0001
,
1000
0000
0010
0000
0100
0000
0000
0001
1000
0000
0100
0000
0010
0000
0002
0000
,
0000
2000
0000
0000
3003
0000
0000
0000
,
0000
0000
0000
0000
0000
0000
0000
0000
0000
0000
0000
0000
0000
1000
0100
1000
,
0001
0100
0010
1000
0002
0000
2000
0000
0000
0000
0003
0000
3100
0000
0010
0000
,
0001
0000
1000
0000
0001
0000
0100
0000
0001
0000
0010
0000
0200
0000
0000
2000
0000
0000
0000
0000
0300
0000
0000
0000
3001
0000
0000
0000
0100
0000
0010
0000
,
1000
0100
0010
0001
1000
0000
0002
0200
0000
0000
0003
0000
0310
1000
0001
2000
,
0000
0000
3100
0020
0000
0000
0032
2000
0000
0000
0003
0000
3100
0010
0001
1000
,
0010
0000
0100
0000
0001
0000
1000
0000
0001
0000
0000
0020
0000
0000
0200
0000
0000
0000
0000
0000
0030
0000
0000
0000
1300
0000
0001
0000
0100
0000
0001
0000
,
0010
0000
0100
0000
1000
0000
0001
0000
0100
0000
0000
0000
0020
0000
0000
2000
0000
0000
0000
0000
0030
0000
0000
0000
3001
0000
0010
0000
0001
0000
1000
0000
,
0010
0000
0100
0000
0001
0000
1000
0000
0001
0000
0000
0200
0000
0000
0020
0000
0000
0000
0000
0000
0300
0000
0000
0000
1030
0000
0100
0000
0010
0000
0002
0000
,
0000
0000
0013
0200
0000
0000
1300
0001
10M1
0000
0000
0000
0000
0000
1000
0100
,
1000
0000
0001
0000
0010
0000
0001
0000
0000
0000
1000
0010
1000
0000
0000
0000
,
0202
0000
0000
0000
0303
0000
0000
0000
0110
0000
0000
0000
0000
0000
0001
0100
,
0001
0000
1000
0000
0010
0000
0100
0000
0000
0000
0001
1000
0001
0000
0000
0000
,
0011
0000
0000
0000
1100
0000
1000
0000
1001
0000
0000
0000
0000
0000
0001
0010
,
0001
0000
0100
0000
0010
0000
1000
0000
0000
0000
0001
0100
0001
0000
0000
0000
,
2020
0000
0000
0000
3030
0000
1000
0100
0010
0000
0000
0000
0000
0000
0001
1000
,
0001
0000
0100
0000
0010
0000
1000
0000
0000
0000
0001
1000
0001
0000
0000
0000
,
2100
0000
0000
0000
3001
0000
0000
0000
0110
0000
0000
0000
1000
0000
0001
0010
,
0001
0000
1000
0000
0100
0000
1000
0000
0001
0000
0100
0001
0100
0000
0000
0000
,
1020
0000
0000
0000
0130
0000
0000
0000
0110
0000
0000
0000
0001
0000
1000
0010
,
1000
0000
0001
0000
0100
0000
0010
0000
1000
0000
0001
1000
0001
0000
0000
0000
,
1100
0000
0000
0000
0011
0000
0001
0000
1001
0000
0000
0000
0001
0000
1000
0100
,
1000
0000
0010
0000
0100
0000
0001
0000
0100
0000
0010
1000
0010
0000
0000
0000
,
0202
0000
0000
0000
0303
0000
0001
0010
0100
0000
0000
0000
1000
0000
0001
1000
,
0001
0010
0100
1000
1100
0000
1001
0000
,
0101
0000
0000
0000
0220
0000
0000
0330
1000
0001
0100
0010
1000
0100
0010
0100
,
1000
0001
0010
0001
0100
0010
1000
0100
1000
0001
0100
0010
1000
0001
0010
0100
,
1000
0100
0010
0001
0100
0010
1000
0001
0010
0001
1000
0010
1000
0100
0010
0001
,
1000
0001
0100
0010
0100
0010
1000
0001
0010
0100
1000
0001
0100
0010
1000
0001
,
1000
0100
0010
0100
1000
0001
0010
0100
1000
0000
1000
0000
0001
0000
0001
0000
,
0100
0100
0010
0010
1000
1000
0100
0100
,
0010
0000
0010
0000
0001
0000
0001
0000
1000
0001
1000
0100
0010
0001
1000
0001
,
0010
0100
1000
0001
1000
0010
0100
0001
1000
0000
0010
1000
0010
0000
0000
0000
,
0110
0000
0100
0000
0202
0000
0000
0303
1001
0000
0000
0000
0101
0000
0100
0010
,
0200
0000
0302
0000
2003
0000
3200
0300
0110
0000
0010
0001
0010
0000
0000
0000
,
0110
0000
0000
0000
1100
0000
0000
0000
1001
0000
0000
0000
0101
0000
0001
0100
,
0020
0000
2030
0000
3002
0000
0203
0300
0101
0000
0001
1000
0100
0000
0000
0000
,
1100
0000
0000
0000
1001
0000
0001
0000
0101
0000
0000
0000
0110
0000
0010
1000
,
0020
0000
0230
0000
0302
0000
2003
3000
1100
0000
0100
0010
0100
0000
0000
0000
,
0011
0000
0000
0000
1001
0000
1000
0100
1000
0000
0000
0000
1001
0000
0001
0100
,
0020
0000
2030
0000
3002
0000
0203
0300
0110
0000
0000
0000
1010
0000
0000
0000
,
1001
0000
0000
0000
0022
0000
0000
0033
2000
3000
0000
0000
1001
0000
0001
0100
,
0020
0000
2030
0000
3200
0000
0320
0030
0011
0000
0001
1000
0100
0000
0000
0000
,
1100
0000
0000
0000
1010
0000
0000
0000
0101
0000
0000
0000
0011
0000
0001
1000
,
0002
0000
0203
0000
0320
0000
2030
3000
1100
0000
0100
0010
0001
0000
0000
0000
,
0101
0000
0000
0000
0110
0000
0010
0000
1010
0000
0000
0000
1001
0000
0001
0100
,
0002
0000
2003
0000
3200
0000
0320
0030
0011
0000
0001
1000
0001
0000
0000
0000
,
0101
0000
0000
0000
0110
0000
0010
1000
0001
0010
0100
1000
0001
0100
0010
1000
,
0001
0000
0000
0100
0000
0000
0001
0000
0000
1000
0000
0000
0040
0000
0400
0000
0000
0000
0000
0000
0000
0000
0030
0000
0300
0000
0000
0000
0000
0000
0001
0000
0000
1000
0000
0000
0001
0000
0000
0000
0000
0000
0000
0000
0000
0000
0000
0000
,
0020
0030
0000
0000
0100
0000
0000
0000
0220
0000
0000
0000
0000
0000
0000
0000
0330
0000
0000
0000
0000
0000
0000
0000
0000
0000
0000
0000
0000
0000
0000
0000
;
