#TITLE:Time Circuits;
#SUBTITLE:;
#ARTIST:Nhato;
#TITLETRANSLIT:;
#SUBTITLETRANSLIT:;
#ARTISTTRANSLIT:;
#GENRE:;
#CREDIT:;
#BANNER:Time Circuits.png;
#BACKGROUND:Time Circuits-bg.png;
#LYRICSPATH:;
#CDTITLE:;
#MUSIC:Time Circuits.ogg;
#OFFSET:-3.373000;
#SAMPLESTART:35.382000;
#SAMPLELENGTH:16.000000;
#SELECTABLE:YES;
#BPMS:0.000000=150.000000
;
#STOPS:
;
#BGCHANGES:;
#KEYSOUNDS:;
#ATTACKS:;

//---------------dance-single - ----------------
#NOTES:
     dance-single:
     :
     Hard:
     9:
     0.503974,0.751768,0.451733,0.387199,0.053778,492.000000,429.000000,63.000000,54.000000,0.000000,0.000000,0.503974,0.751768,0.451733,0.387199,0.053778,492.000000,429.000000,63.000000,54.000000,0.000000,0.000000:
0000
0000
0000
0000
,
0000
0000
0000
0000
,
0000
0000
0000
0000
,
0010
0100
0010
0000
0100
0000
0001
1000
0001
0000
1000
0000
0010
0100
0001
0000
,
1001
0000
0010
0000
0001
0100
0001
0000
,
1000
0000
0010
0100
0000
0100
0000
0020
,
1000
0000
0130
0000
0010
0100
0010
0000
,
1000
0000
0001
0000
1000
0010
0100
0010
,
0110
0000
0010
0000
0100
0001
0100
0000
,
0001
0000
1000
0010
0000
0010
0000
0200
,
0010
0000
0301
0000
0100
0010
0100
0000
,
0001
0000
0010
0000
0100
1000
0010
0000
,
1010
0000
0001
0100
0101
0000
0010
0001
,
0011
0000
0100
0010
0110
0000
1000
0100
,
1100
0000
0010
0100
0110
0000
0001
0010
,
0011
0000
1000
0001
1001
0000
0100
0010
,
0110
0110
1010
1010
,
0101
0101
1001
1001
,
1100
1000
1010
0010
0110
0100
0101
0001
,
0010
0100
0010
0100
0010
0100
0010
0100
0010
0000
0000
0000
0110
0000
0000
0000
,
2001
0001
0010
0001
,
0100
0000
0001
0001
3000
0100
0001
0020
,
0000
0100
0100
0000
0031
1000
0100
1000
,
0010
0000
0100
0000
0001
0000
0010
0000
0000
0000
0100
1000
0001
0000
0200
0000
,
0000
0010
0010
0000
0001
0000
1000
0000
,
0301
0010
0100
1000
0000
0001
1000
0020
,
0000
0130
0001
0100
0000
0010
0000
1010
,
0000
1000
0100
2000
0000
0000
3001
0000
,
0010
0100
0210
0000
0001
0000
1000
0000
,
0010
0000
1000
1000
0300
0100
1000
0020
,
0000
0100
0100
0000
1030
0001
0100
0010
,
0100
0001
1000
0100
0000
0010
0001
2000
,
0000
0001
0001
0000
3010
0100
0001
0020
,
0000
0031
1000
0200
0000
0300
0000
1002
,
0000
1000
0103
0000
0101
0000
0010
0000
,
0011
0000
1010
0000
1000
0001
0000
0210
,
0000
0010
0000
0001
,
0000
0000
0000
0010
0000
0000
0300
0000
1000
0000
0001
0000
,
0102
0100
0000
1000
,
0003
1000
0010
0100
0010
1000
0001
0100
,
2001
0000
0000
0020
3000
0000
1000
0000
,
0030
1000
0002
0203
,
0302
0010
0000
0013
,
2200
3300
0202
0303
,
0002
0000
0103
0000
0010
0100
0010
2000
,
0000
0010
3010
0100
0010
0100
0001
0020
,
0000
0000
0031
2000
0000
3100
1000
0200
,
0000
0010
1000
1300
,
0010
0100
0001
0020
0000
0130
0010
0002
,
0000
1003
0010
0200
0000
0301
1000
0020
,
0000
0130
0010
0200
0000
0301
1000
0002
,
0000
0013
0001
0020
0000
0130
1000
0200
,
0010
0001
0010
2300
,
0001
0010
0100
3001
,
1001
2002
0000
3003
0000
0000
0000
0000
,
0100
0110
0000
1001
0000
1001
0000
0021
,
0000
0000
0031
0000
1000
0010
1000
0000
,
0010
0000
0100
0001
0000
0001
0000
2000
,
0001
0000
3100
0000
0010
0100
0010
0000
,
0001
0000
0010
0000
0100
1000
0001
1000
,
1100
1100
1001
1001
,
0101
0101
1010
1010
,
0011
0001
0101
0100
0110
0010
1010
1000
,
0001
1000
0001
1000
0001
1000
0001
1000
0001
0000
0000
0000
1001
0000
0000
0000
,
0210
0010
0001
0010
,
1000
0000
0010
0010
0300
1000
0001
0020
,
0000
0001
0001
0000
0130
1000
0010
1000
,
0001
0000
0100
0000
0010
0000
1000
0000
0000
0000
0001
0010
0100
0000
0020
0000
,
0000
0100
0100
0000
0001
0000
1000
0000
,
0031
1000
0001
0100
0000
0010
0100
0002
,
0000
0103
0010
0100
0000
0001
0000
0101
,
0000
1000
0010
0200
0000
0000
0310
0000
,
1000
0001
1002
0000
0010
0000
1000
0000
,
0100
0000
1000
1000
0003
0001
0010
0200
,
0000
0010
0010
0000
1300
0010
0100
0001
,
0100
0010
1000
0001
0000
0010
0001
2000
,
0000
0010
0010
0000
3001
0100
0010
0200
,
0000
0301
1000
0020
0000
0030
0000
1200
,
0000
1000
0310
0000
0011
0000
1000
0000
,
1010
0000
0110
0000
0100
0010
0000
1002
,
0000
0000
1003
0010
0000
0100
0010
0100
,
0000
0000
0001
0100
0000
0001
1000
0001
,
0000
0000
1000
0100
0000
1000
0010
1000
,
0000
0000
0010
0100
0000
0010
0100
0101
;

//---------------dance-single - ----------------
#NOTES:
     dance-single:
     :
     Medium:
     5:
     0.324715,0.360311,0.164918,0.337007,0.000000,317.000000,294.000000,23.000000,47.000000,0.000000,0.000000,0.324715,0.360311,0.164918,0.337007,0.000000,317.000000,294.000000,23.000000,47.000000,0.000000,0.000000:
// measure 0
0000
0000
0000
0000
,  // measure 1
0000
0000
0000
0000
,  // measure 2
0000
0000
0000
0000
,  // measure 3
1000
0000
0001
1000
0001
0000
0110
0000
,  // measure 4
0200
0010
0001
0301
,  // measure 5
0010
0000
0001
0000
1000
0001
1000
0000
,  // measure 6
0020
1000
0100
0130
,  // measure 7
0001
0000
0100
0000
0010
0100
0010
0000
,  // measure 8
2000
0001
0010
3010
,  // measure 9
0100
0000
0010
0000
1000
0010
1000
0000
,  // measure 10
0002
0100
1000
1003
,  // measure 11
0010
0000
1000
0000
0001
0100
0001
0000
,  // measure 12
0020
0031
0011
0010
,  // measure 13
0200
0310
0110
0100
,  // measure 14
2000
3100
1100
1000
,  // measure 15
0002
1003
1001
0001
,  // measure 16
1000
1000
0010
0010
,  // measure 17
0100
0100
0001
0001
,  // measure 18
0010
0001
0100
0010
,  // measure 19
1000
0010
1000
0010
1000
0000
1010
0000
,  // measure 20
0200
0300
0010
1000
,  // measure 21
0010
0000
0100
0000
0100
0000
0001
0100
,  // measure 22
0002
0003
0010
0100
,  // measure 23
0010
0000
0001
0000
1000
0001
1000
0000
,  // measure 24
0020
0030
0100
0001
,  // measure 25
1000
0000
0010
0000
0010
0000
0100
0010
,  // measure 26
0100
0001
0100
0010
,  // measure 27
1000
0100
1100
1000
,  // measure 28
0020
0030
0100
0001
,  // measure 29
0010
0000
0001
0000
0001
0000
0100
0010
,  // measure 30
0200
0300
0001
0010
,  // measure 31
0001
0000
1000
0000
0100
1000
0100
0000
,  // measure 32
2000
3000
0010
0010
,  // measure 33
0100
0010
0110
0000
,  // measure 34
2000
3001
0002
0013
,  // measure 35
0020
0130
0010
0100
,  // measure 36
2002
0000
3003
0000
,  // measure 37
1000
0000
0010
0000
,  // measure 38
2020
0000
3030
0000
,  // measure 39
0100
0100
0001
0100
,  // measure 40
0202
0000
0303
0000
,  // measure 41
0010
0000
0100
0010
,  // measure 42
2020
0000
3030
0000
,  // measure 43
0020
0000
0200
0330
,  // measure 44
0101
0000
0010
0001
,  // measure 45
0100
0000
0010
0010
,  // measure 46
1000
0100
0001
0100
,  // measure 47
2000
0001
0001
3000
,  // measure 48
0010
0100
0010
0100
,  // measure 49
1000
0010
1000
0010
,  // measure 50
1000
0001
1000
0001
,  // measure 51
0100
0001
0100
0001
,  // measure 52
0020
0000
0230
0000
,  // measure 53
2300
0000
3002
0000
,  // measure 54
1003
0000
0000
0000
,  // measure 55
0000
0010
0000
0010
0000
0010
0000
0210
,  // measure 56
0000
0310
1100
1000
,  // measure 57
0002
0103
0101
0001
,  // measure 58
0020
1030
1001
0001
,  // measure 59
2000
3010
0011
0001
,  // measure 60
0100
0100
0010
0010
,  // measure 61
1000
1000
0001
0001
,  // measure 62
0100
0010
1000
0001
,  // measure 63
0100
0001
0100
0001
0100
0000
0101
0000
,  // measure 64
0002
0003
0100
1000
,  // measure 65
0100
0000
0010
0000
0010
0000
0100
0001
,  // measure 66
0200
0300
0010
0001
,  // measure 67
1000
0000
0001
0000
1000
0010
1000
0000
,  // measure 68
0020
0030
1000
0100
,  // measure 69
1000
0000
0001
0000
0001
0000
1000
0010
,  // measure 70
1000
0010
0100
0010
,  // measure 71
1000
0010
0110
0100
,  // measure 72
2000
3000
0100
0010
,  // measure 73
1000
0000
0010
0000
0010
0000
0100
1000
,  // measure 74
0200
0300
0010
0100
,  // measure 75
0001
0000
0010
0000
0100
0010
0100
0000
,  // measure 76
2000
3000
0001
0100
,  // measure 77
0010
1000
1010
0000
,  // measure 78
0200
0310
0020
0031
,  // measure 79
2000
3001
1000
0001
,  // measure 80
2002
3003
0010
0000
,  // measure 81
1000
0000
0010
0000
,  // measure 82
0001
0000
0100
0000
,  // measure 83
0001
0000
0100
0110
;

//---------------dance-single - ----------------
#NOTES:
     dance-single:
     :
     Easy:
     3:
     0.204867,0.240207,0.150578,0.229452,0.000000,200.000000,179.000000,21.000000,32.000000,0.000000,0.000000,0.204867,0.240207,0.150578,0.229452,0.000000,200.000000,179.000000,21.000000,32.000000,0.000000,0.000000:
0000
0000
0000
0000
,
0000
0000
0000
0000
,
0000
0000
0000
0000
,
0010
0010
0100
0100
,
0110
0000
1000
0000
,
0001
0000
1000
1000
,
0200
0300
0010
0000
,
0100
0000
0001
0001
,
0020
0030
0100
0000
,
1000
0000
0010
0010
,
2000
3000
0100
0000
,
0001
0000
0100
0100
,
2000
3000
1001
0000
,
0002
0003
1001
0000
,
0020
0030
0110
0000
,
0200
0300
0110
0000
,
0001
0000
1000
0000
,
0010
0000
0100
0000
,
0001
0001
1000
1000
,
0020
0000
0030
1001
,
0002
0003
0100
0000
,
1000
0010
1000
0000
,
0001
0000
0100
0000
,
0010
0001
0010
0000
,
2000
3000
0100
0000
,
0010
0100
0010
0000
,
0001
0000
0010
0000
,
0100
0000
1001
0000
,
0020
0030
0100
0000
,
0010
0001
0010
0000
,
1000
0000
0010
0000
,
0100
1000
0100
0000
,
0002
0003
0100
0000
,
1000
1000
0100
0000
,
0010
0000
0110
0000
,
1000
0000
1001
0000
,
0020
0000
0000
0000
,
0030
0000
0000
0100
,
0200
0000
0300
0000
,
0001
0000
1000
0000
,
0002
0000
0003
0000
,
0000
0000
0010
0000
,
0020
0000
0030
0000
,
1001
0000
0110
0000
,
2000
3000
0001
0010
,
0002
0003
0100
0010
,
0100
0000
0001
0000
,
0200
0000
0300
0000
,
0010
0100
0010
0000
,
1000
0010
1000
0000
,
0001
1000
0001
0000
,
0010
0001
0010
0000
,
1000
0000
0001
0000
,
0100
0000
0010
0000
,
1001
0000
0000
0000
,
0000
0100
0100
0000
,
0020
0030
0110
0000
,
0200
0300
0110
0000
,
2000
3000
1001
0000
,
0002
0003
1001
0000
,
0010
0000
0100
0000
,
0001
0000
1000
0000
,
0010
0010
0100
0100
,
0002
0000
0003
0110
,
0200
0300
0010
0000
,
0100
0001
0100
0000
,
0010
0000
0100
0000
,
1000
0010
1000
0000
,
0002
0003
0100
0000
,
0010
1000
0010
0000
,
0100
0000
0010
0000
,
1000
0000
1001
0000
,
0020
0030
0100
0000
,
1000
0010
1000
0000
,
0001
0000
1000
0000
,
0010
0001
0010
0000
,
0200
0300
1000
0000
,
0010
0010
0001
0000
,
1000
0000
1001
0000
,
0010
0000
0110
0000
,
2000
0000
3000
0000
,
0200
0000
0300
0000
,
0020
0000
0030
0000
,
0002
0000
0003
1001
;
