#TITLE:남자답게;
#ARTIST:아웃사이더;
#TITLETRANSLIT:Like A Man;
#ARTISTTRANSLIT:Outsider;
#GENRE:Rap;
#MUSIC:Like A Man.ogg;
#OFFSET:-0.091;
#SAMPLESTART:21.374;
#SAMPLELENGTH:10.647;
#BPMS:0=180,128=90,159=95,160=170,161=145,162=180,322=90;
#STOPS:160=1.935;

//---------------dance-single - ----------------
#NOTES:
     dance-single:
     :
     Easy:
     4:
     :
0000
0000
0000
0000
,
0000
0000
0000
0000
,
0000
0000
0000
0000
,
0000
0000
0000
0000
,
0020
0000
0000
0030
,
2000
0000
0000
3000
,
0200
0000
0000
0300
,
0002
0000
0000
0003
,
1000
0100
1000
0000
,
0001
0001
0010
0000
,
0001
1000
0001
1000
,
0010
0010
0010
0000
,
1000
0100
0000
0100
,
0100
1000
0000
1000
,
1000
0001
0000
0001
,
0001
1000
0000
1000
,
0001
0000
0000
0001
0000
0000
0000
0000
,
1000
0000
0000
1000
0000
0000
0000
0000
,
0010
0000
0000
0010
0000
0000
0000
0000
,
0100
0001
0100
0001
,
1000
1000
1000
0000
,
0100
0100
0100
0000
,
0010
0010
0001
1000
,
0001
1000
0010
0000
,
0100
0000
0000
0100
0000
0000
0000
0000
,
0001
0000
0000
0001
0000
0000
0000
0000
,
1000
0000
0000
1000
0000
0000
0000
0000
,
0010
1000
0010
1000
,
0001
0001
0010
0000
,
0100
0100
1000
0000
,
0001
0001
1000
1000
,
0001
1000
0001
0000
,
0200
0310
0020
1030
,
2000
3001
0002
0013
,
0200
1300
2000
3001
,
0001
0001
1000
0001
0200
0000
0310
0000
,
2000
0000
3001
0000
1000
0100
0010
0000
,
0002
0000
1003
0000
0001
0100
0010
0000
,
1000
0100
1000
0000
0001
0010
0001
0000
,
0010
0100
0010
0100
1000
0001
2000
0000
,
3000
0000
0002
1000
,
0000
1003
2000
0010
,
0000
3010
0200
0001
,
0000
0301
0002
1000
,
0000
1003
0001
0001
,
0010
0000
0100
0100
,
1000
0000
0010
0100
,
0010
0100
0001
1000
,
0001
0000
2000
0100
,
0000
3100
0020
0001
,
0000
0031
0002
1000
,
0000
1003
2000
0010
,
0000
3010
0100
0001
,
1000
0000
0100
1000
,
0001
0000
0010
0100
,
0010
0100
1000
1000
,
1000
0000
1001
0001
,
0001
0000
0110
0100
,
0100
0000
1001
1000
,
1000
0000
0110
0010
,
0010
0000
1001
1001
,
1001
0000
0110
0110
,
0110
0000
1001
0110
,
1001
0000
0110
1001
,
0110
0000
0000
0000
0001
0000
0000
0001
,
0000
0000
0000
0000
1000
0000
0000
1000
,
0000
0000
0000
0000
0100
0000
0000
0100
,
0000
0000
0010
0001
,
1000
0010
1000
0100
,
1000
1000
0001
0100
,
0001
0001
0010
0001
,
1000
0001
0100
0010
,
1000
0000
0001
0000
1000
0000
0000
1000
,
0000
0000
0000
0000
0001
0000
0000
0001
,
0000
0000
0000
0000
0010
0000
0000
0010
,
0000
0000
0200
1300
,
0002
1003
0010
0100
,
0010
0010
1000
0001
,
1000
1000
0001
0010
,
0100
1000
0010
0100
,
0001
0000
1000
0000
0002
0000
0000
0003
;

//---------------dance-single - ----------------
#NOTES:
     dance-single:
     :
     Medium:
     7:
     :
0000
0000
0000
0000
,
0000
0000
0000
0000
,
0000
0000
0000
0000
,
0000
0000
0000
0000
,
0002
0000
0003
1000
0000
0001
0000
0100
,
0020
0000
0030
1000
0000
0001
1000
0100
,
0020
0000
0030
0001
0000
1000
0001
0100
,
0010
1000
0010
0100
0000
0001
2000
0000
,
3001
0100
0010
0000
1000
0000
0001
0000
,
1000
0100
0010
0000
0100
0000
1000
0000
,
0010
1000
0001
0000
0010
0000
0100
0000
,
0010
0001
1000
0001
0100
0001
0100
0000
,
0010
0000
1000
0001
0000
0001
1000
0000
,
0100
0000
0010
0100
0000
0100
2000
0000
,
3001
0000
0100
0010
0000
0010
1000
0000
,
0001
0000
1000
0100
0000
0100
0010
0000
,
0011
0000
0000
0110
0000
0000
1000
0000
,
1010
0000
0000
0110
0000
0000
0001
0000
,
0101
0000
0000
1001
0000
0000
1000
0000
,
0001
0010
0001
0000
1000
0100
1000
0000
,
0001
0100
0010
0000
1000
0000
1001
0000
,
1000
0100
0010
0000
0001
0000
1001
0000
,
0001
0100
0001
0000
1000
0100
1000
0000
,
0001
0010
0001
0010
0100
1000
0100
0000
,
1100
0000
0000
0110
0000
0000
0001
0000
,
0011
0000
0000
1100
0000
0000
1000
0000
,
1010
0000
0000
0101
0000
0000
1000
0000
,
0001
0010
0001
0000
1000
0010
1000
0000
,
0001
0100
0010
0000
1000
0000
1001
0000
,
1000
0100
0010
0000
0001
0000
1001
0000
,
1000
0010
1000
0000
0001
0100
0001
0000
,
0100
0010
0100
0010
1000
0001
1000
0000
,
0002
0010
0013
0000
2000
0010
3010
0000
,
0002
0000
0100
0000
0103
0000
0010
0000
2000
0000
0001
0000
3001
1000
0001
0000
,
0200
0010
0310
0000
2000
0001
3001
0000
,
1001
1001
0110
1001
2000
3002
0100
0103
,
0010
0000
1000
0000
0100
0000
0010
0000
0001
1000
0001
1000
0001
1000
0001
0000
,
0010
0000
0001
0000
0100
0000
0010
0000
1000
0100
1000
0100
0010
0001
1000
0000
,
0001
0100
0001
0001
1000
0010
1000
1000
,
0001
0010
0001
1000
0100
1000
0010
0200
,
0301
0000
0000
0000
0002
0000
1003
0002
,
0000
0013
0000
0001
0020
0000
0130
2000
,
0000
3001
0100
0010
2000
0000
3001
1000
,
0000
0100
0010
0100
0020
0000
0031
2000
,
0000
3002
0000
0003
0100
0010
1000
0000
,
0100
0000
0010
0000
0100
0010
0001
0000
,
0100
0000
0010
0000
1000
0001
0100
0000
,
0001
1000
0100
0000
1000
0001
1000
0001
,
0010
0100
1000
0000
0020
0000
0130
0001
,
0000
2000
0000
3001
0020
0000
0130
2000
,
0000
3001
0100
0001
2000
0000
3100
0010
,
0000
0001
0000
1000
0001
0100
0001
0200
,
0000
0010
0310
0000
1000
0001
0100
0000
,
0010
0000
1000
0000
0001
0010
0100
0000
,
0010
0000
0001
0000
1000
0001
0100
0000
,
0100
0001
1000
0000
0001
0010
0100
1000
,
0100
0010
0001
0000
1000
0100
1000
0000
,
0010
0000
0100
0000
0001
0100
0001
0000
,
0010
0000
0100
0000
1000
0001
1000
0000
,
0010
0000
0100
0000
0001
1000
0001
0000
,
0010
0000
0100
0000
1000
0100
1000
0000
,
0001
0010
0001
0000
1000
0010
1000
0000
,
0001
0100
0001
0000
0100
0010
0100
0010
,
1000
0001
1000
0001
1000
0100
1000
0100
,
0010
0001
0010
0001
2000
0000
0000
3020
,
0000
0000
0130
0000
0002
0000
0000
0023
,
0000
0000
0130
0000
0002
0000
0000
0203
,
0000
0000
1300
0000
0001
0100
0000
0010
,
0000
1000
0001
1000
0001
0010
0100
0000
,
0010
0000
0011
0000
1000
0010
0100
0000
,
0010
0000
1010
0000
0001
0100
1000
0000
,
1000
0100
0001
0000
1000
0100
0010
0001
,
0100
0010
1000
0000
0201
0000
0000
1000
,
0000
0000
0301
0000
2001
0000
0000
0010
,
0000
0000
3100
0000
1200
0000
0000
0001
,
0000
0000
1300
0000
0010
1000
0100
0000
,
0010
0001
0100
0000
0001
0000
0100
0000
,
0010
1000
0100
0000
1000
0000
0010
0000
,
0100
0001
0010
0000
0100
1000
0010
0000
,
1000
0001
0010
0000
0001
0100
0010
1000
,
0001
0000
0010
0000
0100
0000
1000
0000
0020
0000
0000
0000
0000
0000
0000
0030
;

//---------------dance-single - ----------------
#NOTES:
     dance-single:
     :
     Hard:
     9:
     :
0000
0000
0000
0000
,
0000
0000
0000
0000
,
0000
0000
0000
0000
,
0000
0000
0000
0000
,
0001
1000
0100
0010
0000
0001
0000
0010
,
0001
0100
0010
1000
0000
0010
1000
0100
,
0010
0001
0100
1000
0000
0100
0010
0100
,
0001
0000
1000
0000
0100
0000
0010
0000
0000
0000
0001
0000
1000
0010
0000
0000
,
0100
0001
0010
0100
0010
0001
0100
0010
,
1000
1000
0100
1000
0010
0100
0020
0000
,
1030
0100
0010
0001
0100
0010
0100
0001
,
1000
0010
0100
0001
0010
0100
2000
0000
,
3001
0000
0010
0100
0000
0100
1000
1000
,
0001
0000
0000
0000
1000
0000
0010
0000
0000
0000
0010
0000
0100
0001
0100
0001
,
0100
0000
0000
0000
0010
0000
1000
0000
0000
0000
1000
0000
0001
0000
0001
1000
,
0100
0000
0010
0100
0000
0100
0010
0010
,
0021
0000
0100
0100
0000
0031
0100
0010
,
1020
0000
0100
0100
0000
1030
0100
0010
,
2001
0000
0100
0100
0000
3010
0100
0001
,
1000
0100
0001
0000
1000
0010
0001
0000
,
0100
0010
0100
0001
0010
0100
1000
0000
,
0100
0010
0100
1000
0010
0100
0001
0000
,
1000
0010
0100
0100
0001
0010
0100
0100
,
1000
0100
0001
0100
1000
0001
1000
1000
,
1020
0000
0100
0100
0000
1030
0100
0010
,
0021
0000
0100
0100
0000
0031
0100
0010
,
1002
0000
0010
0010
0000
0103
0010
1000
,
0001
0010
1000
0000
0001
0100
1000
0000
,
0010
0001
0010
1000
0001
0010
0100
0000
,
0010
1000
0010
0001
0100
0010
1000
0000
,
0001
0100
1000
1000
0100
0001
0010
0010
,
1000
0001
0100
1000
0010
0100
0001
0000
,
1000
0100
0010
0001
0010
0000
0010
0000
0001
0100
0010
1000
0010
0000
1000
0000
,
0001
0010
0001
0000
1000
0100
1000
0000
0001
0010
0100
1000
0100
0010
0001
0000
,
1000
0010
0100
0001
0100
0000
0010
0000
1000
0001
1000
0100
0010
0000
0100
0000
,
1100
0000
0000
0000
0000
0000
1100
0000
0000
0000
0000
0000
0011
0000
0000
0000
0000
0000
1001
0000
0000
0000
0000
0000
0001
0000
0000
0000
0001
0000
1000
0000
0000
0000
1000
0000
0010
0000
0000
1000
0000
0000
0100
0000
0000
0000
0000
0000
,
0100
0010
0100
0010
0001
0000
1000
0000
0001
0001
1000
1000
0010
0010
0100
0000
,
0010
0010
1000
0010
0100
0000
0001
0000
0010
0010
0100
0010
0001
1000
0001
0000
,
1000
0010
0100
0001
1000
0001
0010
0000
0010
0100
1000
0001
0100
0010
1000
0000
,
0010
0000
0100
0000
0010
0000
0000
0000
1000
0000
0001
0000
1000
0000
0000
0000
0001
0000
0010
0000
0100
0000
1000
0000
0100
0000
0010
0000
0001
1000
0001
1000
,
0001
0000
0000
0000
0002
0000
0010
0010
,
0000
1003
0100
0001
0200
0000
1000
2300
,
0000
3010
0100
0001
2000
0000
0010
3020
,
0000
0031
0010
0100
0001
1000
0100
0010
,
0000
0010
0001
1000
0100
0001
0100
1000
,
0010
0100
0001
0000
0010
1000
0010
0001
,
0100
0010
1000
0000
0001
0100
1000
1000
,
0001
0010
1000
1000
0001
0010
1000
0001
,
0100
1000
0100
0010
0200
0000
0010
0010
,
0000
1300
0010
0001
0020
0000
0100
0230
,
0000
0301
0010
0100
2000
0000
0010
3020
,
0000
0031
0010
0100
0002
0000
0010
0023
,
0000
0130
1000
0001
1000
0010
0001
0010
,
0100
0001
1000
0000
0001
0010
1000
0010
,
0100
1000
0001
0000
1000
0100
001M
0010
,
0100
0001
M010
0010
0100
0001
1000
0010
,
0100
0010
1000
0000
0001
0001
0001
1000
,
0100
0010
0001
0000
1000
1000
1000
0010
,
0100
0001
1000
0000
0010
0010
0010
1000
,
0100
0010
0001
0000
0100
0100
0100
1000
,
0100
0001
0010
0000
0100
0100
0100
1000
,
0100
0010
0001
0100
0010
0010
0010
0100
,
1000
0100
0001
0010
0100
0100
0100
1000
,
0100
0001
0100
1000
0010
0010
0010
0100
,
0001
0001
0001
1000
1001
0000
0010
1001
,
0000
1000
0100
0010
0011
0000
0100
0011
,
0000
0001
0010
0100
1100
0000
0010
1100
,
0000
0000
1000
0000
0001
0000
0100
0010
0100
0000
0010
0000
0000
0000
1000
0000
,
0000
0100
0010
0001
0100
M010
0010
0001
,
0100
0010
1000
0000
0010
0100
010M
1000
,
0010
0100
0001
0000
0010
0100
M100
0001
,
0010
0100
M100
0001
1000
0100
010M
0010
,
1000
0100
0010
0001
1001
0000
0100
1001
,
0000
0001
0010
0100
1100
0000
0010
1100
,
0000
1000
0010
0100
0101
0000
0010
0101
,
0000
0000
0001
0000
1000
0000
0100
0000
0010
0100
0010
0000
0001
0000
0000
0000
,
0100
0010
0100
0000
1000
0000
0000
0000
0100
0000
0010
0100
0001
0000
0M10
0000
,
0010
0000
1000
0000
0001
0000
0000
0000
0001
0000
0010
0100
1000
0000
0M10
0000
,
0010
0000
0001
0000
0100
0000
0000
0000
0001
0000
0100
0010
0100
0000
1000
0000
,
0100
0000
0001
0000
1000
0001
1000
0000
0001
0000
0010
0000
0100
1000
0100
1000
,
0001
0000
0010
0000
0001
0000
0100
0000
0010
1000
0010
1000
0001
0100
0001
0100
;

//---------------dance-single - ----------------
#NOTES:
     dance-single:
     :
     Challenge:
     10:
     :
0000
0000
0000
0000
,
0000
0000
0000
0000
,
0000
0000
0000
0000
,
0000
0000
0000
0000
,
0001
0000
1000
0001
0100
0000
0001
0000
0010
0000
0100
0000
1000
0000
0001
0000
,
0100
0120
1030
0001
1000
0100
1000
0001
,
0010
0000
0100
1000
0001
0000
0100
0000
0010
0000
0100
0000
0010
0000
0001
0000
,
0010
0000
0210
0000
0301
0000
1000
0000
0001
0000
0010
0000
0100
1000
0000
0000
,
0001
0000
1000
0000
0100
0000
1000
0000
0001
0000
0010
0000
0100
0000
1000
0001
,
1000
0100
1000
0100
0010
0000
0100
1000
0001
0000
1000
0000
0020
0000
0000
0000
,
0031
0010
0100
0001
0001
1000
0100
1000
,
0010
0000
0100
0000
0001
0000
0010
0001
1000
0000
0010
0000
0200
0000
0000
0000
,
1300
0000
0100
0000
0001
0000
0000
0000
1000
0000
0100
0000
0001
0000
0100
0010
,
0001
0000
0010
0001
1000
0000
0001
0100
1000
0000
0100
0000
0002
0000
0000
0000
,
0013
0000
0100
0000
0100
0000
1000
0000
1000
0000
0001
0000
0001
0000
0100
0010
,
0100
0000
1000
0000
0100
0000
0001
0010
0100
0000
1000
0000
0001
0000
0010
0000
,
1002
0000
0000
0000
0013
0000
2100
0000
0000
0000
3010
0100
0010
0000
0100
0000
,
0201
0000
0000
0000
0310
0000
2001
0000
0000
0000
3100
0010
0001
0000
1000
0000
,
0201
0000
0000
0000
0310
0000
2001
0000
0000
0000
3100
0010
0100
0000
0010
0000
,
0001
0010
0100
0000
1100
0000
0000
0000
1000
0010
0100
0000
0101
0000
0000
0000
,
1000
0000
0001
1000
0100
0000
0010
0001
1000
0000
0001
0000
0100
0000
0100
0000
,
0010
0000
1000
0001
0100
0000
0001
0010
0100
0000
0100
0000
0001
0000
0100
0000
,
1000
0000
0100
1000
0100
0000
1000
0000
0001
0000
0100
0000
0001
0100
0001
0000
,
0101
0000
0010
0000
1000
0001
0010
0100
1000
0000
0001
0000
1000
0000
0100
0000
,
1200
0000
0000
0000
0310
0000
0201
0000
0000
0000
0310
0100
0010
0000
0100
0000
,
2001
0000
0000
0000
3100
0000
0012
0000
0000
0000
0103
0010
0100
0000
0010
0000
,
1002
0000
0000
0000
0013
0000
0201
0000
0000
0000
0310
1000
0010
0000
0100
0000
,
0001
0010
0100
0000
1001
0000
0000
0000
1000
0010
0100
0000
1001
0000
0000
0000
,
0001
0000
0010
0100
1000
0000
0100
1000
0010
0000
0100
0000
0001
0000
0010
0000
,
0110
0000
0001
0010
0100
0000
1000
0001
0100
0000
0010
0000
1000
0000
0100
0000
,
0110
0000
1000
0001
0100
0000
0010
0000
0110
0000
0001
0000
1000
0100
0010
0001
,
1000
0000
0010
0000
0100
0001
1000
0100
0010
0000
0100
0000
1000
0000
0000
0000
,
0001
0100
0001
0100
0010
0000
0010
0000
1000
0001
1000
0001
1000
0001
1000
0000
0200
0000
0010
0000
0310
0000
0001
1000
0001
0100
0001
0000
0100
0000
0100
0000
,
0010
1000
0010
1000
0010
0000
1000
0001
0010
0001
0010
0001
1000
0000
1000
0000
0010
0000
0010
0000
1000
0000
0001
1000
0100
1000
0001
0000
0010
0000
0000
0000
,
0101
0000
0100
0000
0010
0000
1000
0000
0001
0100
0010
0100
0001
0000
1000
0000
1100
0000
0010
0000
0100
0000
1000
0000
0001
0010
0100
0010
0001
0000
1000
0000
,
1001
0000
0000
0000
0000
0000
1001
0000
0000
0000
0000
0000
0110
0000
0000
0000
0000
0000
1001
0000
0000
0000
0000
0000
0001
0000
0010
0000
0001
0000
1000
0000
0010
0000
1000
0000
0100
0000
0000
0010
0000
0000
0001
0000
0000
1000
0000
0000
,
1001
0001
0100
0100
1000
1000
0100
0001
2000
3200
0320
0032
0203
0320
2030
3000
,
0001
0000
0010
0100
0010
0000
1000
0000
0010
0000
0001
0000
0100
0000
0010
0000
0001
0000
0010
0000
1000
0000
0001
0010
0001
0000
0100
0000
0010
0000
1000
0000
,
1001
0001
1000
0100
0010
0010
0010
0001
0100
0100
0010
0010
1000
1000
0001
0000
,
0010
0000
0100
1000
0001
0000
1000
0000
0010
0000
0100
0001
1000
0000
0001
0010
0100
0000
0010
0000
0001
0000
1000
0000
0001
0000
1000
0000
0001
1000
0001
1000
,
0010
0000
0200
0000
0310
0000
1000
0100
,
0000
1000
0001
0011
0100
0000
0010
0001
,
0000
0100
0010
0000
1000
0000
0001
0010
,
0000
0000
0100
0000
1100
0000
0001
0100
0010
0000
0000
0000
0100
0000
0001
0000
,
0000
0000
1000
0000
0001
0000
0011
0000
1000
0000
0100
1000
0010
0000
1000
0100
,
0010
0000
0001
0000
0100
0000
0010
0000
0100
0000
0001
0010
0100
0000
0010
0001
,
0100
0000
0010
0000
1000
0000
0001
0000
0100
0000
0001
0100
1000
0000
0100
0000
,
0001
0000
0010
0000
0001
0010
1000
0000
0010
0000
0001
0000
0100
0010
1000
0100
,
0010
0001
1000
0010
0200
0000
0001
0001
,
0000
0310
1000
0001
0020
0000
0100
0100
,
0000
0031
1000
0001
0200
0000
1000
1000
,
0000
0000
0310
0000
0100
0000
0001
1000
0001
0000
0010
0000
0100
0000
0010
0000
,
0000
0000
0001
0000
1000
0000
1000
0000
0001
0000
0001
0100
1000
0000
1000
0100
,
0010
0000
1000
0000
0100
0000
1000
0000
0001
0000
1000
0100
0001
0000
0001
0100
,
0010
0000
0001
0000
0100
0000
0010
0000
1000
0000
1000
0100
0001
0000
0100
0000
,
1000
0000
0001
0000
0010
0100
0010
0000
0001
0000
0100
0000
0010
1000
0100
0010
,
0001
0000
0100
0000
1000
0000
0100
0000
0001
0000
0001
0000
0001
0000
1000
0001
,
0010
0000
0001
0000
0100
0000
0000
0000
0010
0000
0010
0000
0010
0000
1000
0010
,
0100
0000
0001
0000
0010
0000
0000
0000
0100
0000
0100
0000
0100
0000
0010
0001
,
1000
0000
0001
0000
0100
0000
0000
0000
0010
0000
0010
0000
0010
0100
0001
0010
,
0100
0000
1000
0000
0001
0000
0000
0000
1000
0000
1000
0000
1000
0000
0100
1000
,
0001
0000
0010
0000
0100
0000
0100
0000
0010
0000
0010
0000
0010
0000
0001
0100
,
0010
0000
1000
0000
0001
0000
0001
0000
0010
0000
0010
0000
0010
0000
0100
0010
,
0001
0000
0100
0000
1000
0000
1000
0000
0100
0000
0100
0000
0100
0001
0010
0100
,
1000
0001
0010
0010
2100
0000
3010
0102
,
0000
0013
1000
0010
0120
0000
0031
1020
,
0000
0130
0001
1000
0201
0000
0310
1200
,
0000
0000
0310
0000
0001
0000
1000
0001
0100
0000
0010
0000
1000
0000
0100
0000
,
1000
0000
0100
0000
0010
0000
0001
0000
1000
0000
0010
0100
0001
0000
1000
0100
,
0010
0000
0100
0000
1000
0000
1000
0000
0001
0000
0010
0100
1000
0000
0010
0100
,
0001
0000
0010
0000
0100
0000
0100
0000
0010
0000
0010
0001
0100
0000
0010
0000
,
0100
0000
0100
0000
0010
1000
0100
0000
1000
0000
0010
0000
1000
0100
0010
0001
,
0100
0010
1000
0001
0021
0000
0130
1020
,
0000
0000
0130
0001
0010
0000
0100
0000
1200
0000
0000
0000
0310
0000
0201
0000
,
0000
0000
0310
1000
0100
0000
0010
0000
0012
0000
0000
0000
0103
0000
2010
0000
,
0000
0000
3100
0010
0001
0000
1000
0000
0010
0100
0010
0000
0101
0000
0000
0000
,
0010
0100
0010
0000
1100
0000
0000
0000
0001
0000
0001
0010
0100
0000
1000
0100
,
0001
0000
0100
0000
1000
0000
0001
0000
1000
0000
1000
0010
0100
0000
0001
0100
,
1000
0000
0100
0000
0001
0000
1000
0000
0001
0000
0001
0010
0100
0000
0100
0000
,
1000
0000
1000
0000
0010
0100
0001
0000
1000
0000
0001
0000
1000
0010
0001
0010
,
1000
0000
0001
0000
0010
0000
0100
0000
1000
0001
0001
1000
0100
0100
0010
0001
;
