#TITLE:Immortal;
#SUBTITLE:;
#ARTIST:DJ NAGAI;
#TITLETRANSLIT:;
#SUBTITLETRANSLIT:;
#ARTISTTRANSLIT:;
#GENRE:J-Core;
#CREDIT:;
#BANNER:[Round G] - Immortal.png;
#BACKGROUND:[Round G] - Immortal-bg.png;
#LYRICSPATH:;
#CDTITLE:cdtitle.png;
#MUSIC:[Round G] - Immortal.ogg;
#OFFSET:-1.135284;
#SAMPLESTART:40.365822;
#SAMPLELENGTH:18.461540;
#SELECTABLE:YES;
#DISPLAYBPM:104.000000:208.000000;
#BPMS:0.000000=208.000000
,32.000000=104.000000
,40.000000=208.000000
,120.000000=416.000000
,120.500000=208.000000
,120.750000=104.000000
,121.000000=208.000000
,185.000000=104.000000
,201.000000=208.000000
,249.000000=416.000000
,249.500000=208.000000
,249.750000=104.000000
,250.000000=208.000000
,298.000000=104.000000
,302.000000=208.000000
;
#STOPS:120.000000=2.019000,
233.000000=2.019000
;
#BGCHANGES:;
#KEYSOUNDS:;
#ATTACKS:;

//---------------dance-single - ----------------
#NOTES:
     dance-single:
     :
     Challenge:
     12:
     0.884507,1.224920,0.687950,0.505077,0.618284,711.000000,632.000000,79.000000,58.000000,0.000000,0.000000,0.884507,1.224920,0.687950,0.505077,0.618284,711.000000,632.000000,79.000000,58.000000,0.000000,0.000000:
0000
0000
0000
0000
,
0000
0000
0000
0000
,
0000
0000
0000
0000
,
0000
0000
0000
0000
0000
0000
1000
0100
,
0120
0000
0000
0031
1000
0000
1010
0000
,
0120
0000
0000
1030
0001
0000
0011
0000
,
2100
0000
0000
3001
0100
0000
0010
1000
,
1002
0000
0013
0100
0000
0100
0010
0001
,
2001
0000
0000
3002
0000
0000
0013
0001
2000
0000
0000
3002
0000
0000
0103
0001
,
2000
0000
0000
3002
0000
0000
0023
0000
2030
0000
3020
0000
0032
0000
0203
0000
,
0310
1000
1000
0001
1000
1000
0100
0010
,
0001
1000
1000
0001
0100
0100
0001
1000
,
0100
0001
0001
0100
1000
1000
0001
0100
,
0220
0000
0000
0000
0330
0000
0000
0000
1000
0010
0100
0001
1000
0000
0000
0000
,
1100
1100
0000
0110
0110
0000
0011
1002
,
0000
0000
1000
0000
1003
0000
0000
0000
1000
0100
0010
0000
0001
0000
0100
0000
,
1010
1010
0000
0110
0110
0000
0101
2001
,
0000
0000
0100
0000
3100
0000
0000
0000
0010
0001
1000
0000
0010
0000
0100
0000
,
0101
0101
0000
1001
1001
0000
0011
0210
,
0000
0000
1000
0000
1300
0000
0000
0000
0001
0100
0010
0000
1000
0000
0100
0000
,
0010
0001
0001
1000
0001
0001
0100
0010
,
1000
0010
1000
0010
0100
0001
0100
0001
1000
0100
0010
0001
1000
0001
0010
0100
,
2000
0000
0000
3020
0000
0000
0032
0000
,
2003
0000
0000
3200
0000
0000
0302
0000
,
2003
0000
0000
3200
0000
0000
0302
0000
,
2003
0000
0000
3020
0000
0000
0032
0103
,
0201
0000
0320
0000
0230
0000
0310
1000
,
1200
0000
0310
0001
0201
0000
0310
1000
,
0001
0010
1000
0010
0001
0100
1000
0100
,
0001
0010
0001
0010
0001
1000
0001
1000
0001
0100
0001
0100
0001
1000
0100
0010
,
0002
0003
0000
0000
0001
0000
0010
0000
0001
0000
0001
0000
1000
0000
0001
0000
,
0100
0010
0100
0001
1000
0000
0010
0000
1000
0000
1000
0000
0001
0000
1000
0000
,
0100
0010
0001
1000
0010
0000
0100
0000
0010
0000
0010
0000
0100
0000
0001
0000
,
1000
0000
0100
0000
0010
0001
1000
0000
1000
0000
0010
0000
0001
0000
0010
0000
,
0100
0010
0100
0010
1000
0000
0010
0000
1000
0000
1000
0000
0001
0000
1000
0000
,
0100
0010
0100
1000
0001
0000
0010
0000
0001
0000
0001
0000
1000
0000
0001
0000
,
0100
0010
1000
0001
0010
0000
0100
0000
0010
0000
0100
0000
1000
0010
1000
0010
,
0100
0001
1000
0001
0010
0000
0000
0000
0101
0000
1010
0000
0000
0000
1100
0000
,
0100
0010
0100
0010
0001
0000
0100
0000
0010
0000
0010
0000
0100
0000
0001
0000
,
1000
0100
0010
0001
1000
0000
0100
0000
0010
0000
0010
0000
0100
0000
1000
0000
,
0001
0100
0010
1000
0001
0000
1000
0000
0001
0000
0001
0000
1000
0000
0100
0000
,
0010
0000
0001
0000
0100
0010
1000
0000
1000
0000
0010
0000
0001
0000
0010
0000
,
0100
0001
0100
0001
1000
0000
0001
0000
1000
0001
0010
0000
0000
0000
1100
0000
,
0000
0000
0011
0000
0000
0000
0010
0001
1000
0000
0000
0000
1000
0001
0100
0000
,
0000
0000
0010
1000
0010
1000
0010
1000
0010
1000
0001
1000
0100
1000
0001
1000
,
0010
0000
0101
0000
0011
1100
0000
1001
,
0000
2020
0000
0000
0000
0030
0002
0000
,
0000
3000
0020
0000
0000
0003
0200
0000
,
0000
0000
0330
0000
1000
0001
0000
1000
0001
0000
1000
0010
0100
0000
0001
0000
,
0010
0000
0000
0000
0100
0000
0010
0000
0000
0000
0010
0001
1000
0000
0000
0000
0010
0000
1000
0000
0010
0000
0100
0000
0001
0000
0010
0000
0100
0000
0010
0000
,
0001
0100
0010
1000
0001
0000
0100
0000
0000
0000
0001
0000
0100
0000
0000
0000
,
1000
0100
0001
0000
0101
0000
1001
0000
,
0011
0000
1000
0000
0010
1000
0010
1000
,
0100
0010
0011
0000
0101
0000
1010
0000
,
1100
0000
0000
0000
1000
0100
1000
0100
0010
0100
0010
0100
0010
0001
0010
0001
,
1000
0001
1000
0001
1000
0010
1000
0010
1000
0001
1000
0001
1000
0100
0010
0001
,
1000
0001
0200
0000
0000
0000
0000
0000
0000
0000
0000
0000
0000
0000
0300
0000
,
1001
2002
0000
0000
0000
0000
0000
0000
,
3003
0000
0000
0000
2002
3003
0000
0000
1001
0000
0000
0000
0011
0000
1100
0000
,
0000
0000
1001
0000
0001
0100
0010
0100
0001
0000
0000
0000
1010
0000
0101
0000
,
0000
0000
1001
0000
1000
0100
0010
0100
1000
0000
0010
0000
0100
0000
0001
0000
,
1000
0100
0010
0001
1000
0100
0010
0001
0000
0000
0011
0000
0000
0000
1001
0000
,
1010
0110
0201
0000
0301
0010
0100
0100
,
0010
0000
0001
0000
0010
0001
0100
0010
1000
0000
0010
0000
0100
0000
0100
0000
,
0010
0000
1000
0000
0100
0010
0001
1000
0010
0000
0100
0000
0010
0000
0100
0000
,
0001
0010
0001
0010
0100
1000
0001
1000
0010
0000
0000
0000
1100
0000
0011
0000
,
0000
0000
0101
0000
0100
0010
0100
0010
1000
0000
0100
0000
0010
0000
0010
0000
,
0001
0000
0100
0000
0010
1000
0100
0010
0001
0000
0100
0000
0010
0000
0010
0000
,
1000
0000
0100
0000
0010
0100
1000
0001
0100
0000
0010
0000
0100
0000
0100
0000
,
0001
0000
1000
0000
0100
0000
0010
0000
0001
1000
0010
0000
0010
0000
1000
0000
,
0100
0000
0001
0000
0100
0010
0100
0010
0001
0000
1000
0000
0001
1000
0010
0000
,
0000
0000
0101
0000
0000
0000
1010
0000
0000
0000
0010
1000
0001
0000
0000
0000
,
0001
1000
0100
0000
0000
0000
0010
0001
0010
0001
0010
0001
0010
0001
1000
0001
,
0100
0001
1000
0001
0010
0000
0000
0000
1100
0000
0000
0000
1010
0000
0101
0000
,
0000
1001
0000
0022
0000
0000
0000
0000
,
0000
0000
0000
0033
1000
0010
0001
0010
,
1000
0100
0010
0000
0001
0000
0100
0000
1000
0000
0100
0000
0001
0000
0010
0000
,
0100
1000
0001
0000
1000
0000
0010
0000
0100
0001
0010
0000
0001
0000
0010
0000
,
0100
1000
0010
0000
1000
0000
0001
0000
0011
0000
1100
0000
0000
0000
0011
0000
,
0000
0000
1001
0000
0000
0000
1000
0000
0001
0100
0001
0100
0010
0100
0010
0100
,
0010
1000
0010
1000
0001
1000
0001
1000
0001
0010
0001
0010
0001
1000
0001
1000
,
0001
0100
0010
0100
0001
1000
0100
0010
0200
0000
0000
0000
0000
0000
0000
0000
,
0300
0000
1001
2002
0000
0000
3003
0000
,
0001
0100
0110
0220
0000
0000
0000
0000
,
0330
0000
2000
0002
0000
0000
0000
0000
,
0000
3003
0000
0000
;

//---------------dance-single - ----------------
#NOTES:
     dance-single:
     :
     Hard:
     9:
     0.612064,0.668138,0.487660,0.557326,0.074020,492.000000,436.000000,56.000000,64.000000,10.000000,0.000000,0.612064,0.668138,0.487660,0.557326,0.074020,492.000000,436.000000,56.000000,64.000000,10.000000,0.000000:
0000
0000
0000
0000
,
0000
0000
0000
0000
,
0000
0000
0000
0000
,
0000
0000
0000
0000
0000
0000
0001
0010
,
0021
0000
0000
0031
0100
0000
0010
0000
,
1020
0000
0000
1030
0100
0000
0010
0000
,
0210
0000
0000
1300
0001
0000
0100
0010
,
2000
0000
3001
0001
0000
0000
1000
0001
,
1002
0000
0000
2003
0000
0000
3010
1000
0002
0000
0000
2003
0000
0000
3100
1000
,
0002
0000
0000
2003
0000
0000
3020
0000
0032
0000
0023
0000
2030
0000
3001
0000
,
1000
0100
1000
0001
0100
0001
1000
0100
,
1000
0010
1000
0001
0010
0001
0100
0010
,
1000
0100
0010
0001
0100
0010
1000
0001
,
2002
0000
0000
3003
,
1000
0010
0000
1000
0001
0000
1000
0200
,
0000
0010
0310
0000
0100
1000
0010
0100
,
0001
0010
0000
0001
1000
0000
0001
0200
,
0000
0010
0310
0000
0100
0001
1000
0100
,
0010
0001
0000
1000
0001
0000
0100
0002
,
0000
1000
1003
0000
0001
0010
0100
1000
,
0001
0100
0001
1000
0100
1000
0001
0100
,
0010
1000
0001
1000
0100
0001
0100
1000
,
0002
0000
0000
0203
0000
0000
0320
0000
,
2030
0000
0000
3200
0000
0000
0320
0000
,
0032
0000
0000
0203
0000
0000
0320
0000
,
2030
0000
0000
3200
0000
0000
0310
0001
,
2001
0000
3002
0000
2003
0000
3001
1000
,
1002
0000
1003
0001
2001
0000
3001
1000
,
0001
0010
0100
0010
0001
0010
0100
0010
,
0001
0100
1000
0100
0001
0010
1000
0010
,
0002
0000
0003
0000
0000
0000
0000
0000
0010
0000
0000
0000
0000
0000
0000
0000
0001
0000
0000
0000
0100
0000
0000
0000
0000
0M00
0000
0000
1000
0000
0000
0000
,
0100
0000
0000
0000
1000
0000
0000
0000
0010
0000
0000
0000
0000
0000
0000
0000
1000
0000
0000
0000
0100
0000
0000
0000
0000
0M00
0000
0000
0001
0000
0000
0000
,
0100
0001
1000
0000
1000
0100
0000
0100
,
1000
0010
0000
1001
0000
1000
0100
0001
,
1000
0000
0000
0000
0010
0000
0000
0000
0001
0000
0000
0000
0000
0000
0000
0000
1000
0000
0000
0000
0010
0000
0000
0000
0000
00M0
0000
0000
0001
0000
0000
0000
,
0010
0000
0000
0000
0001
0000
0000
0000
0100
0000
0000
0000
0000
0000
0000
0000
0001
0000
0000
0000
0010
0000
0000
0000
0000
00M0
0000
0000
1000
0000
0000
0000
,
0100
1000
0001
0100
0001
0100
1000
0100
,
0001
0010
0110
0000
0010
0011
0000
1002
,
0000
0000
0000
0000
1003
0000
0000
0000
0010
0000
0000
0000
0000
0000
0000
0000
1000
0000
0000
0000
0100
0000
0000
0000
0000
0M00
0000
0000
0001
0000
0000
0000
,
0100
0000
0000
0000
0001
0000
0000
0000
0010
0000
0000
0000
0000
0000
0000
0000
0001
0000
0000
0000
0100
0000
0000
0000
0000
0M00
0000
0000
1000
0000
0000
0000
,
0100
1000
0001
0000
0001
0100
0000
0100
,
0001
0010
0000
1001
0000
1000
0100
0001
,
0100
1000
0001
0100
0010
1010
0000
1001
,
0000
0011
0000
1000
1100
0000
0001
0101
,
0000
0000
0004
4000
0000
0000
0000
0000
0000
0000
0000
0000
3003
0000
0000
0000
,
0011
0000
1100
0000
1000
1010
0000
0101
,
0000
2002
0000
0000
0003
0000
0200
0000
,
3000
0020
0300
0002
,
0030
0200
0003
2000
,
0300
0020
3000
0002
,
0030
0000
1003
0010
0000
1000
0010
0000
,
1000
0001
0010
0000
0100
0000
0010
0000
,
0001
0000
1000
0000
0010
0100
0010
0100
,
0001
1000
1100
0000
0011
0000
0101
0000
,
1010
0000
1000
0010
0100
0001
0010
0001
,
0100
0010
1000
0100
0001
0100
1000
0001
,
0100
0220
0000
0000
0000
0000
0330
0000
,
0010
2002
0000
0000
0000
0000
0000
0000
,
3003
0000
0000
0000
2002
3003
0000
0000
1001
0000
0000
0000
0001
0000
0011
0000
,
0000
0001
0100
0001
1001
0000
1000
1010
,
0000
1000
0100
1000
0001
0001
0100
0100
,
0010
1000
0001
0010
0000
1100
0000
0011
,
0001
1000
0020
0000
1030
0000
0001
0010
,
0000
00M0
0000
0000
1000
0000
0000
0000
0100
0000
0000
0000
1000
0000
0000
0000
0010
0000
0000
0000
0000
0000
0000
0000
1000
0000
0000
0000
0100
0000
0000
0000
,
0000
0M00
0000
0000
0001
0000
0000
0000
0100
0000
0000
0000
0001
0000
0000
0000
1000
0000
0000
0000
0100
0000
0000
0000
1000
0000
0000
0000
0100
0000
0000
0000
,
0001
0100
1000
0010
0110
0000
0010
1010
,
0000
2001
0000
3001
0010
0000
0001
0100
,
0000
0M00
0000
0000
1000
0000
0000
0000
0010
0000
0000
0000
1000
0000
0000
0000
0100
0000
0000
0000
0000
0000
0000
0000
1000
0000
0000
0000
0010
0000
0000
0000
,
0000
00M0
0000
0000
0001
0000
0000
0000
0100
0000
0000
0000
0001
0000
0000
0000
1000
0000
0000
0000
0000
0000
0000
0000
1000
0000
0000
0000
0100
0000
0000
0000
,
0000
0100
1000
0010
0000
1001
0000
0001
,
0100
1000
0100
0001
1000
0100
0010
0011
,
0000
1001
0000
1010
0000
0001
0101
0000
,
1000
0000
1100
0000
0000
0000
4000
0004
0000
0000
0000
0000
0000
0000
0000
0000
,
3003
0000
1010
0000
0101
0000
0001
0011
,
0000
1100
0000
2002
0000
0000
0000
0000
,
0000
0000
0000
3003
0001
0100
1000
0001
,
0010
1000
0001
0010
1000
0010
0100
0010
,
0001
1000
0001
0100
0010
1000
0100
0001
,
0100
1000
0001
1000
0010
0110
0000
0101
,
0000
1001
0000
0000
0001
0010
0100
1000
,
0010
1000
0100
0010
0001
0100
1000
0100
,
0001
1000
0100
0010
0220
0000
0000
0000
,
0330
0000
0010
2002
0000
0000
3003
0000
,
0001
0100
0010
2020
0000
0000
0000
0000
,
3030
0000
0002
0020
0000
0000
0000
0000
,
0000
0033
0000
0000
;

//---------------dance-single - ----------------
#NOTES:
     dance-single:
     :
     Medium:
     7:
     0.466512,0.631020,0.452828,0.644408,0.056603,375.000000,323.000000,52.000000,74.000000,10.000000,0.000000,0.466512,0.631020,0.452828,0.644408,0.056603,375.000000,323.000000,52.000000,74.000000,10.000000,0.000000:
0000
0000
0000
0000
,
0000
0000
0000
0000
,
0000
0000
0000
0000
,
0000
0000
0000
0000
,
1002
0000
0103
2000
,
3200
0000
0310
2000
,
3002
0000
0000
0000
0013
0000
0100
1000
,
0002
0100
0000
0103
,
2001
0000
0000
3002
0000
0000
0203
0000
0302
0000
0000
2003
0000
0000
3200
0000
,
2300
0000
0000
3002
0000
0000
2003
0000
3020
0000
0230
0000
0302
0000
2003
0000
,
3100
0000
0000
0100
0000
0000
0010
0001
,
0100
0000
0000
0100
0000
0000
0010
1000
,
0001
0000
0000
0001
0000
0000
0010
0002
,
2000
0000
0000
3003
,
1010
0000
0000
0000
0110
0000
0000
0202
,
0000
0000
0303
0000
0001
1000
0001
0000
,
0011
0000
0000
0000
0110
0000
0000
2200
,
0000
0000
3300
0000
1000
0001
1000
0000
,
0101
0000
0000
0000
0110
0000
0000
2020
,
0000
0000
3030
0000
1000
0001
1000
0000
,
0100
0100
0010
0010
,
0100
1000
0001
0100
0010
0000
1000
0000
,
1002
0000
0000
0203
0000
0000
0302
0000
,
2003
0000
0000
3200
0000
0000
2300
0000
,
3002
0000
0000
0203
0000
0000
0302
0000
,
2003
0000
0000
3200
0000
0000
2300
0000
,
3002
0203
2300
3200
,
0302
0023
2030
3020
,
0031
0011
1001
0101
,
0110
1010
1001
1100
,
0110
0000
0001
0000
0010
0001
0000
0001
,
0100
0000
0000
0M00
1000
0000
0000
0000
0010
0000
1000
0000
0000
0000
1000
0000
,
0100
0000
0000
0M00
0001
0000
0000
0000
1000
0000
0001
0000
0000
0000
1000
0000
,
0001
0010
0000
0110
0000
0100
1000
0000
,
0001
0000
1000
0000
0010
1000
0000
1000
,
0100
0000
0000
0M00
0001
0000
0000
0000
0010
0000
0001
0000
0000
0000
0001
0000
,
0100
0000
0000
0M00
1000
0000
0000
0000
1000
0000
0000
0000
0001
0000
1000
0000
,
0001
1000
0100
0000
0010
0001
0000
1001
,
0000
0000
0001
0000
0100
0001
0000
0001
,
0010
0000
0000
00M0
1000
0000
0000
0000
0100
0000
1000
0000
0000
0000
1000
0000
,
0010
0000
0000
00M0
0001
0000
0000
0000
1000
0000
0001
0000
0000
0000
1000
0000
,
0001
0100
0000
0110
0000
0010
1000
0000
,
0001
0000
0010
0000
0100
0010
0000
1001
,
0000
1001
0000
0001
0100
0000
0010
1000
,
0000
2020
0000
0000
0000
0000
3030
0000
,
0011
0000
1100
0000
1000
0010
0000
0101
,
0000
2002
0000
0000
0003
0000
0200
0000
,
3000
0020
0300
0002
,
0030
0200
0003
0020
,
0300
2000
0030
0002
,
3000
1003
1000
0100
,
0100
0010
0010
0001
,
0001
0100
0100
0010
,
0010
1010
0101
0011
,
1100
0000
0001
0100
0001
0000
1000
0100
,
1000
0000
0001
0010
0001
0000
1000
0010
,
0100
0020
0000
0000
0000
0000
0030
0000
,
2000
0002
0000
0000
0000
0000
0000
0000
,
3003
0000
1001
0000
1001
0000
0001
0010
,
0000
0000
0011
0000
1001
0000
1000
0010
,
0000
0000
1010
0000
1000
0001
1000
0001
,
1000
0001
1000
0001
0000
1001
0000
0001
,
0010
0100
2000
0000
3001
0000
0010
0001
,
0000
0000
0001
0000
0100
0000
0000
0M00
1000
0000
0000
0000
0010
0000
1000
0000
,
0000
0000
1000
0000
0100
0000
0000
0M00
0001
0000
0000
0000
0001
0000
0000
0000
,
1000
0001
1000
0001
0100
0000
0010
1000
,
0000
1001
0000
0000
1000
0000
0100
1000
,
0000
0000
1000
0000
0010
0000
0000
00M0
0001
0000
0000
0000
0100
0000
0001
0000
,
0000
0000
0001
0000
0010
0000
0000
00M0
1000
0000
0000
0000
0001
0000
1000
0000
,
0000
0001
1000
0100
0000
0110
0000
0010
,
0001
0000
1000
0000
0010
0000
0100
0010
,
0000
1001
0000
1001
0000
1000
0100
0000
,
0010
0001
0000
0022
0000
0000
0000
0000
,
0033
0000
1010
0000
0101
0000
0001
0010
,
0000
1100
0000
2002
0000
0000
0000
0000
,
0000
0000
0000
3003
0001
0000
0100
0000
,
1000
0001
0010
1000
,
0001
0010
1000
0001
,
0100
0000
1000
0000
0001
0100
0000
1010
,
0000
1010
0000
0000
0001
0010
0001
0000
,
1000
0010
1000
0000
0001
0100
0001
0000
,
1000
0100
1000
0000
0220
0000
0000
0000
,
0330
0000
0002
2000
0000
0000
3003
0000
,
0000
0000
2000
0020
0000
0000
0000
0000
,
3030
0000
0002
0020
0000
0000
0000
0000
,
0000
0033
0000
0000
;

//---------------dance-single - ----------------
#NOTES:
     dance-single:
     :
     Easy:
     6:
     0.383162,0.593901,0.513785,0.522493,0.000000,308.000000,249.000000,59.000000,60.000000,0.000000,0.000000,0.383162,0.593901,0.513785,0.522493,0.000000,308.000000,249.000000,59.000000,60.000000,0.000000,0.000000:
0000
0000
0000
0000
,
0000
0000
0000
0000
,
0000
0000
0000
0000
,
0000
0000
0000
0000
,
0002
0000
0103
0100
,
0020
0000
1030
1000
,
0002
0000
1003
0100
,
0020
0000
0000
0030
,
1002
0000
0103
0002
2003
0000
3100
2000
,
3002
0000
0103
0020
2030
3002
2003
3100
,
0220
0000
0330
0010
,
2002
0000
3003
0001
,
0220
0000
0330
0010
,
2002
0000
0000
3003
,
1000
0000
0000
0000
1000
0000
0000
0220
,
0000
0330
0001
1000
,
0001
0000
0000
0000
0001
0000
0000
0220
,
0000
0330
1000
0001
,
0010
0000
0000
0000
0010
0000
0000
2002
,
0000
3003
0001
1000
,
0010
0010
0010
0010
,
0100
0001
1000
0100
,
0220
0330
0010
0002
,
0203
0300
0010
1000
,
0200
0300
0010
0001
,
0200
0300
0010
1000
,
1001
0000
0100
0000
,
1001
0000
0110
0000
,
1000
0001
1000
0001
,
1000
0100
0010
0001
,
1001
1000
0010
0100
,
0010
1000
0010
0100
,
0010
1000
1000
0001
,
0001
0010
1000
0010
,
0001
1000
0010
0100
,
0010
1000
0010
0100
,
0010
1000
0100
0010
,
0001
0000
0011
0000
0000
1010
0000
1010
,
0000
0001
0010
0100
,
0010
0001
0010
0100
,
0010
0001
0001
1000
,
1000
0010
0001
0010
,
1000
0000
1001
0000
0000
1001
0000
1001
,
0000
1001
0000
0000
1001
0000
1001
0000
,
0000
0220
0000
0000
0000
0000
0330
0000
,
0011
0000
1100
0000
0000
0101
0000
0101
,
0000
2010
0000
0000
0000
0000
3200
0000
,
0000
0320
0000
0032
,
0000
0203
0000
0320
,
0000
2030
0000
3002
,
0000
1003
0000
1000
,
0000
0010
1000
0100
,
0010
0001
0000
0001
,
0000
0100
0100
0010
,
0010
1000
0001
1000
,
0001
1000
0001
1000
,
0000
2002
0000
0000
0000
0000
3003
0000
,
0000
0220
0000
0000
0000
0000
0000
0000
,
0330
0000
1001
0000
1001
0000
0000
0011
,
0000
0000
1001
0000
1001
0000
0000
1010
,
0000
1001
0100
0100
,
0100
0000
0100
0000
0000
1001
0000
0000
,
0001
2000
3001
0010
,
0100
0010
0001
0010
,
0100
0010
0001
0100
,
0010
0000
1000
0000
1010
0000
0000
0011
,
0000
0011
0000
0000
1000
0000
0010
0000
,
0100
0010
1000
0010
,
0100
0010
1000
1000
,
0001
0001
0010
1000
,
0010
0000
0001
0000
1001
0000
0000
1001
,
0000
1001
0000
1001
0000
0000
1001
0000
,
1001
0000
0000
0220
0000
0000
0000
0000
,
0330
0000
1010
0000
0101
0000
0000
1100
,
0000
1100
0000
0022
0000
0000
0000
0000
,
0000
0000
0000
0033
0001
0000
0001
0000
,
0100
0100
1000
1000
,
0010
0010
0001
0001
,
0100
0000
0100
0000
0010
0000
0000
1001
,
0000
1001
0000
0000
1000
0000
0001
0000
,
1000
0001
1000
0001
,
1000
0001
2002
0000
,
3003
0000
0000
0220
0000
0000
0000
0000
,
0330
0000
0000
2002
0000
0000
0000
0000
,
3003
0000
0000
0220
0000
0000
0000
0000
,
0000
0330
0000
0000
;

//---------------dance-single - ----------------
#NOTES:
     dance-single:
     :
     Beginner:
     3:
     0.211485,0.371188,0.235122,0.400578,0.000000,170.000000,143.000000,27.000000,46.000000,0.000000,0.000000,0.211485,0.371188,0.235122,0.400578,0.000000,170.000000,143.000000,27.000000,46.000000,0.000000,0.000000:
0000
0000
0000
0000
,
0000
0000
0000
0000
,
0000
0000
0000
0000
,
0000
0000
0000
0000
,
0001
0000
0001
0000
,
1000
0000
1000
0000
,
0100
0000
0100
0000
,
2002
0000
3003
0000
,
0001
0000
1000
0000
,
0001
0000
1000
0000
,
0020
0000
0030
0000
,
0200
0000
0300
0000
,
0020
0000
0030
0000
,
2002
0000
3003
0000
,
2000
0000
0000
0000
0000
0000
0000
3000
,
0000
0000
0000
0000
,
0200
0000
0000
0000
0000
0000
0000
0300
,
0000
0000
0000
0000
,
0020
0000
0000
0000
0000
0000
0000
0030
,
0000
0000
0000
0000
,
0001
0000
0001
0000
,
0100
0000
0010
0000
,
1000
0000
0000
0000
,
0001
0000
0000
0000
,
1000
0000
0000
0000
,
0001
0000
0000
0000
,
1000
0000
1000
0000
,
0001
0000
0001
0000
,
1000
0000
0001
0000
,
1000
0000
0001
0000
,
1001
1000
1000
1000
,
0000
1000
1000
1000
,
0000
0010
0000
0010
,
0000
1000
1000
1000
,
0000
0001
0001
0001
,
0000
0001
0001
0001
,
0000
0010
0000
0100
,
0000
0000
0220
0000
0000
0000
0000
0330
,
0000
0001
0001
0001
,
0000
0001
0001
0001
,
0000
0100
0000
0100
,
0000
0010
0010
0010
,
0000
2002
0000
0000
,
0000
0000
0000
3003
,
0000
0220
0000
0000
0000
0330
0000
0000
,
1001
0000
1001
0000
0000
1001
0000
0000
,
0000
2001
0000
0000
3000
0000
0200
0000
,
0300
0020
0030
0002
,
0003
2000
3000
0020
,
0030
0200
0300
0002
,
0003
1000
0000
1000
,
0000
0010
0000
1000
,
0000
0001
0000
0001
,
0000
0010
0010
0010
,
0000
0001
0000
0100
,
0000
0010
0000
1000
,
0000
2002
0000
0000
0000
0000
3003
0000
,
0000
0220
0000
0000
0000
0000
0000
0000
,
0330
1001
1001
0000
,
0000
0000
1001
0000
,
0000
0000
0100
0100
,
0100
0000
0200
0000
0000
0300
0000
0000
,
1001
0000
1000
1000
,
1000
0000
1000
1000
,
1000
0000
0010
0000
,
0100
0000
0220
0000
,
0000
0330
0000
0000
1000
0000
1000
0000
,
1000
0000
1000
1000
,
1000
0000
0100
0000
,
0100
0000
0010
0010
,
0010
0000
2002
0000
,
0000
0000
0000
0000
,
3003
0000
0000
0220
0000
0000
0000
0330
,
0000
0000
1001
0000
1001
0000
0000
1001
,
0000
0000
0000
2002
0000
0000
0000
0000
,
0000
3003
0001
0000
,
0001
0000
0010
0000
,
0010
0000
0100
0000
,
0100
0000
2000
0000
,
0000
3000
0000
0000
0001
0000
0000
0000
,
1000
0000
0001
0000
,
1000
0000
2002
0000
,
3003
0000
0000
0220
0000
0000
0000
0000
,
0330
0000
0000
2002
0000
0000
0000
0000
,
3003
0000
0000
0220
0000
0000
0000
0000
,
0000
0330
0000
0000
;
