#TITLE:You Make Winter Warm;
#SUBTITLE:;
#ARTIST:Andrew Huang & Dusty Lima;
#TITLETRANSLIT:;
#SUBTITLETRANSLIT:;
#ARTISTTRANSLIT:;
#GENRE:;
#CREDIT:;
#BANNER:[Round F] - You Make Winter Warm.png;
#BACKGROUND:[Round F] - You Make Winter Warm-bg.png;
#LYRICSPATH:;
#CDTITLE:;
#MUSIC:[Round F] - You Make Winter Warm.ogg;
#OFFSET:0.000000;
#SAMPLESTART:39.099998;
#SAMPLELENGTH:15.483871;
#SELECTABLE:YES;
#BPMS:0.000000=124.000000
;
#STOPS:
;
#BGCHANGES:0.000=[Round F] - You Make Winter Warm.avi=1.000=0=0=1=====,
268.500=[Round F] - You Make Winter Warm-bg.png=1.000=0=0=1=====,
99999=-nosongbg-=1.000=0=0=0 // don't automatically add -songbackground-
;
#KEYSOUNDS:;
#ATTACKS:;

//---------------dance-single - ----------------
#NOTES:
     dance-single:
     :
     Hard:
     6:
     0.287627,0.304271,0.098030,0.444907,0.037704,267.000000,254.000000,13.000000,59.000000,0.000000,0.000000,0.287627,0.304271,0.098030,0.444907,0.037704,267.000000,254.000000,13.000000,59.000000,0.000000,0.000000:
0000
0000
0000
0000
,
0020
0000
2000
0030
,
0002
3000
0200
0303
,
0110
1000
0001
0100
,
1001
2000
3002
0023
,
0200
0000
0330
0000
0100
0000
1000
0001
,
0100
0002
0203
0320
,
2000
0000
3030
0000
1000
0000
0010
0100
,
0000
0020
2030
3002
,
0020
0000
0033
0000
0010
0000
0000
0001
,
0100
0000
0000
0010
0000
0000
0100
0000
0001
0000
0000
0000
1000
0000
0001
0000
,
1000
0010
0100
0001
,
0110
0000
1000
0000
0001
0000
0000
1000
,
0010
0000
0000
0100
0000
0000
0020
0000
0000
0000
0000
0000
0030
0000
0000
0000
,
0000
1000
0000
0001
0100
0000
0001
0000
,
0010
0001
0000
2000
0000
0000
3010
0000
,
0000
0000
0100
0000
0001
0000
0000
0100
,
0010
0000
0000
1000
0000
0000
0020
0000
0000
0000
0000
0000
0030
0000
0000
0000
,
0000
0100
0000
0001
0010
0000
0001
0000
,
1000
0100
0000
2000
0000
0000
3000
0000
,
0110
0000
0010
1000
0000
0010
0000
0000
,
0100
0001
0000
0002
0000
0000
0003
0000
,
1000
0000
0100
0000
1000
0010
0000
0000
,
1001
0000
0100
0000
0010
1000
0000
0001
,
0000
0200
0320
2030
,
0002
0000
0000
0000
3003
0000
0000
0000
0001
0000
0010
0000
0000
0010
0000
0000
,
0001
0000
0000
0100
0000
0000
0010
0000
0100
0000
0000
0000
0001
0000
0000
0000
,
1000
0000
0100
0010
0100
0000
1000
0000
,
0000
0002
0023
0230
,
2300
0001
3000
0001
0000
0010
0001
0010
,
0000
0200
2300
3020
,
0130
0001
1000
0010
,
0110
0000
0100
0000
0001
0000
0000
0010
,
0001
0000
0000
1000
0000
0000
0002
0000
0000
0000
0000
0000
0003
0000
0000
0000
,
0000
0000
0010
0000
0000
0000
0100
0000
0010
0000
0000
0001
0000
0000
1000
0000
,
0000
0010
0000
2000
0000
0000
3100
0000
,
0000
0000
1000
0000
0010
0000
0000
0100
,
0010
0000
0000
1000
0000
0000
0020
0000
0000
0000
0000
0000
0030
0000
0000
0000
,
0000
0100
0000
0001
1000
0000
0001
0000
,
0100
0010
0000
0200
0000
0000
0300
0000
,
1001
0000
1000
0000
0010
1000
0000
0001
,
0010
0000
0100
0200
0000
0000
0300
0000
,
1000
0000
0001
0000
1000
0010
0000
0000
,
0110
0000
0100
0000
0010
1000
0000
0001
,
0000
2000
3200
0320
,
0031
0000
0100
0001
0000
1000
0010
1000
,
0000
0002
0023
0230
,
2000
0000
3300
0000
1000
0000
0001
0010
,
0000
0000
0001
1000
0001
0000
0100
0010
,
0000
1000
0000
0001
0000
0100
0000
0010
,
0000
0200
0302
2003
,
3010
0100
0010
0100
,
1001
0000
1000
0100
0000
1000
0000
0000
,
0010
0100
0000
0200
0000
0000
0300
0001
,
0000
0010
0001
0100
0000
0010
0000
0000
,
1000
0000
0001
2000
0000
0000
3000
0000
,
0110
0000
0010
0000
1000
0010
0000
0000
,
0100
0001
0000
0002
0000
0000
0013
0100
,
0010
0000
0001
0000
1000
0100
0000
0000
,
1001
0000
0001
0000
1000
0010
0000
0200
,
0010
0000
0300
0010
0000
0000
0010
0000
,
0000
0000
1000
0000
0000
0001
0000
0000
0100
0000
0000
0001
0000
0000
0010
0000
,
0100
0000
1000
0000
0001
1000
0000
0000
,
0020
0000
0030
0200
0000
0300
0002
0000
,
0003
2000
0000
3000
0200
0000
0300
0020
,
0000
0030
0200
0000
0300
2000
0000
3000
,
0110
0000
0010
0010
0000
1000
0001
1000
,
0000
1001
0000
0000
;

//---------------dance-single - ----------------
#NOTES:
     dance-single:
     :
     Challenge:
     8:
     0.468607,0.660479,0.196061,0.211142,0.199831,435.000000,409.000000,26.000000,28.000000,0.000000,0.000000,0.468607,0.660479,0.196061,0.211142,0.199831,435.000000,409.000000,26.000000,28.000000,0.000000,0.000000:
0000
0000
0000
0000
,
0010
0000
0100
0000
0001
0100
0000
0000
0001
0000
1000
0010
0000
1000
0001
1000
,
0100
0000
1000
0000
0010
0100
0000
0000
0010
0000
1000
0001
0000
1000
0010
0000
,
0110
0000
0000
0000
0100
0100
0000
0000
0001
0001
0000
1000
0000
0002
0000
0000
,
0013
0010
0000
0000
0100
0000
0010
0000
0000
0000
0100
0000
1000
0000
0001
0000
,
0100
0000
0000
0000
0010
0000
1000
0000
0000
0000
0100
1000
0100
0000
0010
0000
,
0001
0000
1000
0010
0000
0100
0010
1000
,
0001
0000
0000
0000
0010
0000
0100
0000
0000
0000
0010
0000
0001
0010
0001
0010
,
0000
0000
0100
1000
0000
0010
1000
0100
,
0010
0000
0001
0100
0000
0010
0100
0010
,
1000
0000
0000
0001
0000
1000
0010
0000
1000
0000
0100
0010
0100
0000
0010
0000
,
0011
0000
0000
0000
0100
0100
0000
0000
1000
1000
0000
0010
0000
1000
0000
0000
,
0110
0010
0000
0000
1000
0000
0001
0000
0000
0000
0000
0000
1000
0000
0010
0000
,
0100
0000
0001
0100
0000
0000
0001
0010
,
0100
0000
1000
0100
0000
0000
0010
0001
,
1000
0000
0000
0000
0001
0000
0010
0000
0000
0000
0000
0000
0100
1000
0100
1000
,
0000
0000
0010
1000
0000
0000
0010
0100
,
0001
0000
1000
0001
0000
0000
1000
0001
,
0100
0000
0220
0000
0330
0100
0001
1000
,
0010
0100
0001
0020
0000
0100
0130
0000
,
1100
0000
1000
0010
0000
1000
0100
1000
,
0010
0000
0010
0000
0000
0000
0100
0000
0000
0000
0001
0100
0001
0000
0010
0000
,
0100
0100
0000
1000
0000
0010
1000
0100
,
1002
0000
0203
0000
0302
0023
0000
0230
,
0000
0000
1300
0010
0000
1000
0100
1000
,
0010
0000
0000
0000
0100
0000
0001
0000
0000
0000
0100
0010
0000
0100
0010
0000
,
2000
0000
0000
0001
3000
0010
0001
0000
0200
0000
0000
0010
0300
0000
0000
0000
,
0100
0000
0000
0000
0001
0000
0100
0000
0000
0000
0010
0000
1000
0001
1000
0100
,
0000
0000
0010
0100
0000
0010
0001
0010
,
0100
0000
1000
0100
0000
1000
0010
0100
,
0010
0000
0100
0001
0000
0100
0010
1000
,
0010
0000
0000
0000
0100
0100
0000
0000
0010
0010
0000
0000
1000
1000
0000
0000
,
0011
0001
0000
0000
0100
0000
0010
0000
0000
0000
0000
0000
1000
0000
0010
0000
,
0100
0000
0001
0100
0000
0000
0010
0100
,
0001
0000
1000
0001
0000
0000
1000
0010
,
0100
0000
0000
0000
0010
0000
0100
0000
0000
0000
0000
0000
0001
0100
0001
1000
,
0000
0000
0001
0010
0000
0000
0100
0010
,
0001
0000
1000
0010
0000
0000
0100
0001
,
1000
0000
0010
1000
0000
0000
0010
0100
,
0001
0000
1000
0010
1000
0000
0000
0000
0010
0000
0100
0000
0000
0000
0010
0000
,
1010
0000
1000
0001
0000
1000
0010
0100
,
0001
0000
0001
0000
0000
0000
0100
0000
0000
0000
0010
0100
0010
0000
1000
0000
,
0002
0000
0013
0002
0000
1003
0100
0010
,
0210
0000
0000
0300
2000
0000
0000
0000
3002
0000
2003
0000
0000
0000
3020
0000
,
0130
0100
0000
0000
0010
0000
1000
0000
0000
0000
0010
0000
1000
0000
0001
0000
,
0010
0000
0000
0000
0100
0000
0010
0000
0000
0000
0001
0100
0001
0000
0010
0000
,
0100
0000
1000
0100
0000
1000
0010
1000
,
0001
0000
0000
0000
1000
0000
0001
0000
0000
0000
0100
0000
0001
0010
0100
1000
,
0000
0000
0010
0100
0000
0010
1000
0100
,
0010
0000
0001
0100
0000
0001
0100
0010
,
0100
0000
0010
0100
0000
0001
0100
0010
,
1000
1010
0011
0101
,
1002
0000
0010
0010
0003
0001
1000
0020
,
0000
1000
0030
0010
0100
0010
1000
0001
,
0200
0000
0000
0310
0000
0000
0100
0001
,
1000
0000
0000
0000
0001
0000
0100
0000
0010
0000
0100
0000
0010
1000
0010
1000
,
0001
0000
0010
0001
0000
0100
0001
0100
,
0010
0000
1000
0001
0000
1000
0001
0100
,
0010
0000
1000
0010
0000
0100
0001
1000
,
2010
0000
3020
0000
0230
0320
0000
2030
,
3001
0001
0000
0110
0000
0000
1001
0000
,
0000
0000
1000
0100
0000
1000
0100
0000
0010
0000
0000
0001
0000
0000
0010
0000
,
0100
0000
0000
0000
,
1010
1000
0010
0110
0100
0001
0101
0001
,
0010
0011
0001
1000
1001
1000
0100
1100
,
0100
0010
0100
0000
0110
0000
0010
1000
0010
0000
1010
0000
1000
0001
1000
0000
,
1001
0000
0100
0100
0000
1000
0010
1000
,
0000
0000
2002
3003
0000
0000
0000
0000
;

//---------------dance-single - ----------------
#NOTES:
     dance-single:
     :
     Medium:
     4:
     0.213297,0.228203,0.105571,0.060326,0.000000,198.000000,184.000000,14.000000,8.000000,0.000000,0.000000,0.213297,0.228203,0.105571,0.060326,0.000000,198.000000,184.000000,14.000000,8.000000,0.000000,0.000000:
0000
0000
0000
0000
,
1000
0000
0001
0000
,
0100
0000
0010
0000
,
1001
0000
0000
0000
,
0010
0000
0100
1000
,
0100
0000
1000
0001
,
1000
0000
0010
0001
,
0010
0000
0100
0000
,
0110
0000
1000
0100
,
0010
0000
0100
0001
,
1000
0000
0010
1000
,
0001
0000
0100
0000
,
1001
0000
1000
0010
,
1000
0000
0010
0001
,
0010
0000
1000
0100
,
1000
0000
0010
0000
,
1001
0000
1000
0001
,
0100
0000
0010
1000
,
0100
0000
0010
0100
,
0001
0000
1000
0000
,
0002
0000
0013
1000
,
0020
0000
0130
1000
,
0200
0000
0301
0100
,
1001
0000
0000
0000
,
0020
1000
0000
1030
,
0200
0010
0000
0310
,
2000
0001
0000
3001
,
0020
0001
0000
0031
,
0100
0010
0010
0100
,
0010
1000
1000
0010
,
1000
0001
0001
1000
,
0100
0000
0001
0000
,
0110
0000
0100
0010
,
0100
0000
1000
0010
,
1000
0000
0001
0100
,
0001
0000
0010
0001
,
0010
0000
1000
0100
,
0001
0000
0010
0001
,
1000
0000
0100
0010
,
1000
0000
0001
0000
,
1001
0000
0010
0001
,
0010
0000
1000
0001
,
1000
0000
0010
0000
,
0110
0000
0000
0000
,
0100
0000
0100
0010
,
0001
0000
1000
0001
,
0010
0000
0010
0100
,
1000
0000
1001
0000
,
0100
0001
0001
0100
,
0010
0100
0100
0010
,
0001
1000
1000
0001
,
2000
0010
0000
3010
,
1001
0000
0100
0100
,
0010
0000
0001
0001
,
0010
0000
1000
1000
,
0010
0000
0110
0000
,
0100
1000
0100
0000
,
0010
0100
0010
0000
,
1000
0100
0010
0001
,
1001
0000
0100
0000
,
0110
0000
0100
0010
,
0100
0001
1000
0010
,
1000
0000
0000
0000
,
0001
0000
0000
1000
0000
0000
0001
0000
,
0000
0010
0000
0000
0001
0000
0000
0100
,
0000
0000
0010
0000
0000
0100
0000
0000
,
0010
0000
0000
0000
,
0000
0110
0000
0000
;

//---------------dance-single - ----------------
#NOTES:
     dance-single:
     :
     Easy:
     2:
     0.163743,0.228203,0.075408,0.120653,0.000000,152.000000,142.000000,10.000000,16.000000,0.000000,0.000000,0.163743,0.228203,0.075408,0.120653,0.000000,152.000000,142.000000,10.000000,16.000000,0.000000,0.000000:
0000
0000
0000
0000
,
0020
0000
0030
0000
,
2000
0000
3000
0000
,
0002
0000
0003
0000
,
1001
0000
0000
0000
,
0100
0000
1000
0000
,
0100
0000
0100
0000
,
0010
0000
0001
0000
,
0010
0000
0010
0000
,
0100
0100
0100
0000
,
1000
1000
1000
0000
,
0010
0000
0100
0000
,
0110
0000
0100
0000
,
1000
1000
0001
0000
,
0010
0000
0001
0000
,
0010
0010
0100
0000
,
0001
0000
1000
0000
,
0001
0001
0010
0000
,
0100
0000
1000
0000
,
0100
0100
0010
0000
,
2000
0000
3000
0000
,
0002
0000
0003
0000
,
0200
0000
0300
0000
,
0110
0000
0000
0000
,
0100
0000
0100
0000
,
0010
0000
0010
0000
,
1000
0000
1000
0000
,
0001
0000
0001
0000
,
1000
1000
1000
0000
,
0010
0010
0010
0000
,
0100
0100
0100
0000
,
0001
0000
1000
0000
,
1001
0000
1000
0000
,
0001
0001
0010
0000
,
0100
0000
1000
0000
,
0100
0100
0010
0000
,
1000
0000
0001
0000
,
1000
1000
0100
0000
,
0010
0000
1000
0000
,
0010
0010
0100
0000
,
0002
0000
0003
0000
,
0200
0000
0300
0000
,
0020
0000
0030
0000
,
0110
0000
0000
0000
,
1000
0000
0001
0001
,
0010
0000
0100
0100
,
1000
0000
0010
0010
,
0001
0000
0100
0000
,
1001
0000
0010
0100
,
0010
0000
1000
0001
,
1000
0000
0001
0010
,
0002
0000
0003
0000
,
1001
0000
0000
1000
,
0001
0000
0010
0000
,
0100
0100
0010
0000
,
0100
0000
1000
0000
,
0001
0100
0001
0000
,
1000
0010
1000
0000
,
0010
0010
0100
0100
,
0110
0000
0000
0000
,
1001
0000
0001
0000
,
1000
0010
1000
0000
,
0100
0000
0000
0000
,
0200
0300
0020
0030
,
2000
3000
0002
0003
,
2000
3000
0020
0030
,
1000
0000
0000
0000
,
0000
1001
0000
0000
;

//---------------dance-single - ----------------
#NOTES:
     dance-single:
     :
     Beginner:
     1:
     0.101262,0.126780,0.060326,0.045245,0.000000,94.000000,86.000000,8.000000,6.000000,0.000000,0.000000,0.101262,0.126780,0.060326,0.045245,0.000000,94.000000,86.000000,8.000000,6.000000,0.000000,0.000000:
// measure 0
0000
0000
0000
0000
,  // measure 1
0100
0000
0000
0000
,  // measure 2
0000
0000
0000
0000
,  // measure 3
1001
0000
0000
0000
,  // measure 4
1000
0000
1000
0000
,  // measure 5
1000
0000
0000
0000
,  // measure 6
0010
0000
0010
0000
,  // measure 7
0010
0000
0000
0000
,  // measure 8
0001
0000
0001
0000
,  // measure 9
0001
0000
0000
0000
,  // measure 10
0100
0000
0100
0000
,  // measure 11
0100
0000
0000
0000
,  // measure 12
1001
0000
0000
0000
,  // measure 13
1000
0000
0000
0000
,  // measure 14
0001
0000
0000
0000
,  // measure 15
1000
0000
0000
0000
,  // measure 16
0010
0000
0000
0000
,  // measure 17
0100
0000
0000
0000
,  // measure 18
0010
0000
0000
0000
,  // measure 19
0100
0000
0000
0000
,  // measure 20
0002
0000
0003
0000
,  // measure 21
2000
0000
3000
0000
,  // measure 22
0002
0000
0003
0000
,  // measure 23
0100
0000
0000
0000
,  // measure 24
0110
0000
0000
0000
,  // measure 25
0010
0000
0010
0000
,  // measure 26
0010
0000
0000
0000
,  // measure 27
0100
0000
0100
0000
,  // measure 28
0100
0000
0000
0000
,  // measure 29
1000
0000
1000
0000
,  // measure 30
1000
0000
0000
0000
,  // measure 31
0001
0000
0000
0000
,  // measure 32
0110
0000
0000
0000
,  // measure 33
0100
0000
0000
0000
,  // measure 34
0010
0000
0000
0000
,  // measure 35
0100
0000
0000
0000
,  // measure 36
1000
0000
0000
0000
,  // measure 37
0001
0000
0000
0000
,  // measure 38
1000
0000
0000
0000
,  // measure 39
0001
0000
0000
0000
,  // measure 40
0020
0000
0030
0000
,  // measure 41
0200
0000
0300
0000
,  // measure 42
0020
0000
0030
0000
,  // measure 43
0001
0000
0000
0000
,  // measure 44
1001
0000
0000
0000
,  // measure 45
0010
0000
0010
0000
,  // measure 46
0010
0000
0000
0000
,  // measure 47
1000
0000
1000
0000
,  // measure 48
1000
0000
0000
0000
,  // measure 49
0001
0000
0001
0000
,  // measure 50
0001
0000
0000
0000
,  // measure 51
0100
0000
0000
0000
,  // measure 52
0110
0000
0000
0000
,  // measure 53
1000
0000
1000
0000
,  // measure 54
0001
0000
1000
0000
,  // measure 55
0001
0000
0001
0000
,  // measure 56
0010
0000
0010
0000
,  // measure 57
0100
0000
0010
0000
,  // measure 58
0100
0000
0100
0000
,  // measure 59
1000
0000
0000
0000
,  // measure 60
1001
0000
0000
0000
,  // measure 61
0001
0000
0001
0000
,  // measure 62
0001
0000
0000
0000
,  // measure 63
0010
0000
0010
0000
,  // measure 64
0100
0000
0100
0000
,  // measure 65
1000
0000
0001
0000
,  // measure 66
1000
0000
0000
0000
,  // measure 67
0000
1001
0000
0000
;
