#VERSION:0.83;
#TITLE:The Difference Between Us and the Aliens;
#SUBTITLE:;
#ARTIST:Stephen Walking;
#TITLETRANSLIT:;
#SUBTITLETRANSLIT:;
#ARTISTTRANSLIT:;
#GENRE:Electro;
#ORIGIN:;
#CREDIT:;
#BANNER:[Round F] - The Difference Between Us and the Aliens.png;
#BACKGROUND:[Round F] - The Difference Between Us and the Aliens-bg.png;
#PREVIEWVID:;
#JACKET:[Round F] - The Difference Between Us and the Aliens-jacket.png;
#CDIMAGE:;
#DISCIMAGE:;
#LYRICSPATH:;
#CDTITLE:cdtitle.png;
#MUSIC:[Round F] - The Difference Between Us and the Aliens.ogg;
#OFFSET:-1.878000;
#SAMPLESTART:60.955002;
#SAMPLELENGTH:15.000000;
#SELECTABLE:YES;
#BPMS:0.000=130.000;
#STOPS:;
#DELAYS:;
#WARPS:;
#TIMESIGNATURES:0.000=4=4;
#TICKCOUNTS:0.000=4;
#COMBOS:0.000=1;
#SPEEDS:0.000=1.000=0.000=0;
#SCROLLS:0.000=1.000;
#FAKES:;
#LABELS:0.000=Song Start;
#BGCHANGES:;
#KEYSOUNDS:;
#ATTACKS:
;

//---------------dance-single - ----------------
#NOTEDATA:;
#CHARTNAME:;
#STEPSTYPE:dance-single;
#DESCRIPTION:;
#CHARTSTYLE:;
#DIFFICULTY:Beginner;
#METER:1;
#RADARVALUES:0.088405,0.103447,0.018473,0.036945,0.000000,67.000000,65.000000,2.000000,4.000000,0.000000,0.000000,0.000000,0.000000,0.000000,0.088405,0.103447,0.018473,0.036945,0.000000,67.000000,65.000000,2.000000,4.000000,0.000000,0.000000,0.000000,0.000000,0.000000;
#CREDIT:;
#NOTES:
0000
0000
0000
0000
,
0000
0000
0000
0000
,
0000
0000
0000
0000
,
0000
0000
0000
0000
,
1000
0000
0000
0000
,
0001
0000
0000
0000
,
0100
0000
0000
0000
,
0010
0000
0000
0000
,
1000
0000
1000
0000
,
1000
0000
0000
0000
,
0001
0000
0001
0000
,
0001
0000
0000
0000
,
0010
0000
0010
0000
,
0010
0000
0000
0000
,
0100
0000
0100
0000
,
0100
0000
0000
0000
,
1000
0000
0000
0000
,
1000
0000
0000
0000
,
0010
0000
0000
0000
,
0010
0000
0000
0000
,
0100
0000
0000
0000
,
0100
0000
0000
0000
,
0001
0000
0000
0000
,
0001
0000
0000
0000
,
1001
0000
0000
0000
,
1000
0000
0000
0000
,
0001
0000
0000
0000
,
0001
0000
0000
0000
,
1001
0000
0000
0000
,
0001
0000
0000
0000
,
1000
0000
0000
0000
,
1000
0000
0000
0000
,
0001
0000
0001
0000
,
0001
0000
0000
0000
,
1000
0000
1000
0000
,
1000
0000
0000
0000
,
0010
0000
0010
0000
,
0010
0000
0000
0000
,
0100
0000
0100
0000
,
0100
0000
0000
0000
,
0002
0000
0003
0000
,
0020
0000
0030
0000
,
0200
0000
0300
0000
,
2000
0000
3000
0000
,
1000
0000
1000
0000
,
1000
0000
0000
0000
,
0001
0000
0001
0000
,
0001
0000
0000
0000
,
0010
0000
0010
0000
,
0010
0000
0000
0000
,
0100
0000
0100
0000
,
0100
0000
0000
0000
,
1000
0000
0000
0000
,
0010
0000
0000
0000
,
0100
0000
0000
0000
,
0001
0000
0000
0000
,
1000
0000
0000
0000
;

//---------------dance-single - ----------------
#NOTEDATA:;
#CHARTNAME:;
#STEPSTYPE:dance-single;
#DESCRIPTION:;
#CHARTSTYLE:;
#DIFFICULTY:Easy;
#METER:3;
#RADARVALUES:0.176810,0.206894,0.036945,0.083127,0.000000,134.000000,130.000000,4.000000,9.000000,0.000000,0.000000,0.000000,0.000000,0.000000,0.176810,0.206894,0.036945,0.083127,0.000000,134.000000,130.000000,4.000000,9.000000,0.000000,0.000000,0.000000,0.000000,0.000000;
#CREDIT:;
#NOTES:
// measure 0
0000
0000
0000
0000
,  // measure 1
0000
0000
0000
0000
,  // measure 2
0000
0000
0000
0000
,  // measure 3
0000
0000
0000
0000
,  // measure 4
1000
1000
1000
0000
,  // measure 5
0001
0001
0001
0000
,  // measure 6
0100
0100
0100
0000
,  // measure 7
0010
0010
0010
0000
,  // measure 8
1000
0100
1000
0000
,  // measure 9
0001
0001
0001
0000
,  // measure 10
0001
0010
0001
0000
,  // measure 11
1000
1000
1000
0000
,  // measure 12
0001
0100
0001
0000
,  // measure 13
1000
1000
1000
0000
,  // measure 14
1000
0010
1000
0000
,  // measure 15
0001
0001
0001
0000
,  // measure 16
1000
0000
1000
0000
,  // measure 17
1000
0000
0010
0010
,  // measure 18
0010
0000
0100
0100
,  // measure 19
0100
0000
0001
0000
,  // measure 20
0001
0000
0001
0000
,  // measure 21
0001
0000
0010
0010
,  // measure 22
0010
0000
0100
0100
,  // measure 23
0200
0000
0300
0000
,  // measure 24
1001
0000
0001
0000
,  // measure 25
1000
0010
1000
0000
,  // measure 26
0001
0010
0001
0000
,  // measure 27
1000
0100
0010
0000
,  // measure 28
1001
0000
1000
0000
,  // measure 29
0001
0010
0001
0000
,  // measure 30
1000
0010
1000
0000
,  // measure 31
0001
0100
0010
0000
,  // measure 32
1001
0000
0001
0000
,  // measure 33
1000
0000
0010
0100
,  // measure 34
0001
0000
0001
0100
,  // measure 35
0010
0000
1000
0001
,  // measure 36
1001
0000
1000
0000
,  // measure 37
0001
0000
0010
0100
,  // measure 38
1000
0000
1000
0100
,  // measure 39
0010
0000
0001
1000
,  // measure 40
0002
0000
0000
0003
,  // measure 41
0020
0000
0000
0030
,  // measure 42
0200
0000
0000
0300
,  // measure 43
2000
0000
0000
3000
,  // measure 44
0001
0000
0100
0000
,  // measure 45
0010
0000
1000
0100
,  // measure 46
0010
0000
0001
0010
,  // measure 47
0100
0000
1000
0010
,  // measure 48
1000
0000
0100
0000
,  // measure 49
0010
0000
0001
0100
,  // measure 50
0010
0000
1000
0010
,  // measure 51
0100
0000
0001
0010
,  // measure 52
0002
0000
0000
0003
,  // measure 53
0200
0000
0000
0300
,  // measure 54
0020
0000
0000
0030
,  // measure 55
2000
0000
0000
3000
,  // measure 56
0001
0000
0000
0000
;

//---------------dance-single - ----------------
#NOTEDATA:;
#CHARTNAME:;
#STEPSTYPE:dance-single;
#DESCRIPTION:;
#CHARTSTYLE:;
#DIFFICULTY:Medium;
#METER:5;
#RADARVALUES:0.317994,0.336203,0.101600,0.166254,0.018473,241.000000,230.000000,11.000000,18.000000,0.000000,0.000000,0.000000,0.000000,0.000000,0.317994,0.336203,0.101600,0.166254,0.018473,241.000000,230.000000,11.000000,18.000000,0.000000,0.000000,0.000000,0.000000,0.000000;
#CREDIT:;
#NOTES:
// measure 0
0000
0000
0000
0000
,  // measure 1
0000
0000
0000
0000
,  // measure 2
0000
0000
0000
0000
,  // measure 3
0000
0000
0000
0000
,  // measure 4
1000
0010
0100
0000
0001
0000
1000
0000
,  // measure 5
0001
0010
0100
1000
,  // measure 6
0001
0010
0100
0000
1000
0000
0001
0000
,  // measure 7
1000
0010
0100
0001
,  // measure 8
1000
0100
0010
0000
0100
0000
1000
0000
,  // measure 9
0001
0000
0000
0001
0000
0000
0100
0000
0010
0000
0000
0000
1000
0000
0000
0000
,  // measure 10
0001
0100
0010
0000
0100
0000
0001
0000
,  // measure 11
1000
0000
0000
1000
0000
0000
0100
0000
0010
0000
0000
0000
0001
0000
0000
0000
,  // measure 12
1000
0001
0010
0000
0001
0000
1000
0000
,  // measure 13
0010
0000
0000
0010
0000
0000
0100
0000
0001
0000
0000
0000
1000
0000
0000
0000
,  // measure 14
0001
1000
0010
0000
1000
0000
0001
0000
,  // measure 15
0010
0000
0000
0010
0000
0000
0100
0000
1000
0000
0000
0000
0001
0000
0000
0000
,  // measure 16
1000
0000
1000
0010
0000
0100
0000
0002
,  // measure 17
0000
1003
0000
0001
0000
0100
0010
0000
,  // measure 18
2000
0000
3001
0000
0100
0010
0100
0000
,  // measure 19
0002
1003
0100
0010
,  // measure 20
0001
0100
0001
0000
0100
0010
0100
0000
,  // measure 21
0010
1000
0010
0000
1000
0001
1000
0000
,  // measure 22
0001
0100
0001
0000
0100
0010
0100
0000
,  // measure 23
0020
0000
1030
0000
0010
1000
0001
0000
,  // measure 24
2002
0000
3003
0000
1000
0010
0100
0000
,  // measure 25
0001
0000
0101
0000
0010
1000
0001
0000
,  // measure 26
1001
0000
1000
0100
0000
1000
0000
0010
,  // measure 27
0200
0000
0301
0000
1000
0010
1000
0000
,  // measure 28
2002
0000
3003
0000
0001
0010
0100
0000
,  // measure 29
1000
0000
1100
0000
0010
0001
1000
0000
,  // measure 30
1001
0000
0001
0100
0000
0001
0000
0010
,  // measure 31
0200
0000
1300
0000
0001
0010
0001
0000
,  // measure 32
1001
0000
1000
0010
0000
0100
0000
0001
,  // measure 33
1000
0000
0100
0000
0010
0001
0010
0000
,  // measure 34
0001
0000
0100
0000
0010
1000
0010
0000
,  // measure 35
0100
0000
0001
0000
1000
0001
1000
0000
,  // measure 36
1001
0000
0001
0010
0000
0100
0000
1000
,  // measure 37
0001
0000
0100
0000
0010
1000
0010
0000
,  // measure 38
1000
0000
0100
0000
0010
0001
0010
0000
,  // measure 39
0100
0000
1000
0000
0001
1000
0001
0000
,  // measure 40
2001
0000
0000
0100
,  // measure 41
3200
0000
0000
0010
,  // measure 42
0320
0000
0000
0001
,  // measure 43
0032
0000
0000
1000
,  // measure 44
1003
0000
0001
0010
0000
0001
0100
0000
,  // measure 45
0010
0000
1000
0000
0100
1000
0001
0000
,  // measure 46
0010
0000
0001
0000
0100
0001
1000
0000
,  // measure 47
0010
0000
0100
0000
0001
1000
0001
0000
,  // measure 48
1001
0000
1000
0010
0000
1000
0100
0000
,  // measure 49
0010
0000
0001
0000
0100
0001
1000
0000
,  // measure 50
0010
0000
1000
0000
0100
1000
0001
0000
,  // measure 51
0010
0000
0100
0000
1000
0001
1000
0000
,  // measure 52
1002
0000
0000
0000
,  // measure 53
0203
0000
0000
0000
,  // measure 54
0320
0000
0000
0000
,  // measure 55
2030
0000
0000
0000
,  // measure 56
3001
0000
0000
0000
;

//---------------dance-single - ----------------
#NOTEDATA:;
#CHARTNAME:;
#STEPSTYPE:dance-single;
#DESCRIPTION:;
#CHARTSTYLE:;
#DIFFICULTY:Hard;
#METER:7;
#RADARVALUES:0.427511,0.439650,0.120072,0.443344,0.087745,324.000000,311.000000,13.000000,48.000000,0.000000,0.000000,0.000000,0.000000,0.000000,0.427511,0.439650,0.120072,0.443344,0.087745,324.000000,311.000000,13.000000,48.000000,0.000000,0.000000,0.000000,0.000000,0.000000;
#CREDIT:;
#NOTES:
// measure 0
0000
0000
0000
0000
,  // measure 1
0000
0000
0000
0000
,  // measure 2
0000
0000
0000
0000
,  // measure 3
0000
0000
0000
0000
,  // measure 4
1000
0010
1000
0001
0000
1000
0100
0010
,  // measure 5
0001
0000
1001
0000
1000
0010
0000
0100
,  // measure 6
0001
0010
0001
1000
0000
0001
0100
0010
,  // measure 7
1000
0000
1001
0000
0001
0010
0100
1000
,  // measure 8
0001
0100
0020
0000
1030
0000
1001
0000
,  // measure 9
0001
0000
0000
0100
0000
0000
0010
0000
0100
0000
0001
0000
1000
0000
0100
0000
,  // measure 10
1000
0010
0200
0000
0310
0000
1001
0000
,  // measure 11
0001
0000
0000
0100
0000
0000
0010
0000
1000
0000
0001
0000
0100
0000
0010
0000
,  // measure 12
1000
0100
0020
0000
0031
0000
1001
0000
,  // measure 13
1000
0000
0000
0100
0000
0000
0010
0000
0100
0000
1000
0000
0001
0000
0100
0000
,  // measure 14
0001
0010
0200
0000
0310
0000
1001
0000
,  // measure 15
1000
0000
0000
0100
0000
0000
0010
0000
0001
0000
1000
0000
0100
0000
0010
0000
,  // measure 16
0002
0000
0103
0020
0000
2030
0000
3002
,  // measure 17
0000
0203
0000
0310
1000
0100
2000
0000
,  // measure 18
3020
0000
0130
0001
0010
0001
0200
0000
,  // measure 19
0302
0010
1000
0103
,  // measure 20
0001
0100
0010
0100
0001
0010
0100
0000
,  // measure 21
1000
0010
0100
0010
1000
0100
0010
0000
,  // measure 22
0001
0100
0010
1000
0100
0010
0001
0100
,  // measure 23
0020
0000
1030
0000
1000
0001
1001
0000
,  // measure 24
2100
0000
0000
0000
3001
0000
0000
1000
0000
0000
0010
0000
0000
0100
0000
0000
,  // measure 25
0001
1000
0000
0001
0000
0000
0100
0000
0000
0010
0000
0000
1000
0000
0100
0000
,  // measure 26
0020
0000
0130
1000
0001
0100
0010
1000
,  // measure 27
0002
0000
0013
0000
0001
1000
0010
0100
,  // measure 28
0102
0000
0000
0000
1003
0000
0000
0001
0000
0000
0010
0000
0000
0100
0000
0000
,  // measure 29
1000
0001
0000
1000
0000
0000
0100
0000
0000
0010
0000
0000
0001
0000
0100
0000
,  // measure 30
0020
0000
0130
0001
1000
0100
0010
0001
,  // measure 31
2000
0000
3010
0000
1000
0010
0100
0001
,  // measure 32
2001
0000
3100
0010
0002
0000
1003
0010
,  // measure 33
0200
0000
0301
1000
0100
0001
0100
1000
,  // measure 34
0020
0000
0130
0001
0010
0100
1000
0001
,  // measure 35
0200
0000
0310
1000
0010
0100
0001
1000
,  // measure 36
1002
0000
0103
0010
2000
0000
3001
0010
,  // measure 37
0200
0000
1300
0001
0100
1000
0100
0001
,  // measure 38
0020
0000
0130
1000
0010
0100
0001
1000
,  // measure 39
0200
0000
0310
0001
0010
0100
1000
0001
,  // measure 40
2001
0000
0000
0000
0000
0000
0100
0000
0000
0100
0000
0000
0100
0000
0000
0000
,  // measure 41
3200
0000
0000
0000
0000
0000
0010
0000
0000
0010
0000
0000
0010
0000
0000
0000
,  // measure 42
0320
0000
0000
0000
0000
0000
0001
0000
0000
0001
0000
0000
0001
0000
0000
0000
,  // measure 43
0032
0000
0000
0000
0000
0000
1000
0000
0000
1000
0000
0000
1000
0000
0000
0000
,  // measure 44
2003
0000
3010
1000
0000
0100
0010
0001
,  // measure 45
0200
0000
0310
0000
0100
0001
1000
0100
,  // measure 46
0020
0000
0031
0000
0010
0100
1000
0001
,  // measure 47
0200
0000
0000
0000
0310
0000
0000
1000
0010
0000
0100
0000
0001
0000
0010
0000
,  // measure 48
0002
0000
0013
0000
0001
0100
0010
1000
,  // measure 49
0200
0000
0310
0000
0100
1000
0001
0100
,  // measure 50
0020
0000
1030
0010
0100
0001
1000
0010
,  // measure 51
1000
0001
0100
0010
1000
0100
0010
0001
,  // measure 52
2001
0000
0000
0100
0000
0000
0010
0000
,  // measure 53
3002
0000
0000
0000
0103
0000
0001
0100
,  // measure 54
0010
1000
0001
0020
0000
0031
1000
0020
,  // measure 55
0000
2030
0000
3200
0000
2300
0000
3001
,  // measure 56
1000
0000
0000
0000
;

//---------------dance-single - ----------------
#NOTEDATA:;
#CHARTNAME:;
#STEPSTYPE:dance-single;
#DESCRIPTION:;
#CHARTSTYLE:;
#DIFFICULTY:Challenge;
#METER:9;
#RADARVALUES:0.554180,0.620682,0.166254,0.369454,0.674253,420.000000,402.000000,18.000000,40.000000,0.000000,0.000000,0.000000,0.000000,0.000000,0.554180,0.620682,0.166254,0.369454,0.674253,420.000000,402.000000,18.000000,40.000000,0.000000,0.000000,0.000000,0.000000,0.000000;
#CREDIT:;
#NOTES:
// measure 0
0000
0000
0000
0000
,  // measure 1
0000
0000
0000
0000
,  // measure 2
0000
0000
0000
0000
,  // measure 3
0000
0000
0000
0000
,  // measure 4
1000
0010
1000
0001
1000
0100
0010
0001
,  // measure 5
1000
0000
1010
0000
0100
0001
1000
0000
,  // measure 6
0001
0010
0001
1000
0001
0100
0010
1000
,  // measure 7
0001
0000
0000
0000
1001
0000
0000
0000
1000
0000
0010
0000
0100
0001
0100
0000
,  // measure 8
0001
1000
0010
0000
1010
0000
1001
0001
,  // measure 9
0010
0000
0000
0100
0000
1000
0000
0010
0000
1000
0000
0100
0000
0010
0000
0000
,  // measure 10
0001
1000
0100
0000
0011
0000
1001
1000
,  // measure 11
0010
0000
0000
0100
0000
0001
0000
1000
0000
0100
0000
0010
0000
0100
0000
0000
,  // measure 12
1000
0001
0010
0000
0011
0000
1001
1000
,  // measure 13
0010
0000
0000
0100
0000
0001
0000
0010
0000
0001
0000
0100
0000
0010
0000
0000
,  // measure 14
1000
0001
0100
0000
1010
0000
1001
0001
,  // measure 15
0010
0000
0000
0100
0000
1000
0000
0001
0000
0100
0000
0010
0000
0100
0001
0000
,  // measure 16
2001
0000
3100
0020
0000
0032
0000
2003
,  // measure 17
0000
0000
3010
0000
0000
1000
0100
1000
0000
0010
0000
0100
0000
0001
0000
2000
,  // measure 18
0000
0000
3100
0000
0000
1000
0010
1000
0000
0001
0000
0010
0000
0100
0000
2000
,  // measure 19
0000
3020
0000
0230
0000
0302
0000
0013
,  // measure 20
0001
0100
0010
0100
0001
1000
0010
0100
,  // measure 21
0010
0000
1000
0000
0001
0000
0010
0000
0100
0010
0100
0000
1000
0000
0001
0000
,  // measure 22
0010
0000
0001
0000
1000
0000
0010
0000
0100
0010
0100
0000
0001
0000
1000
0000
,  // measure 23
0020
0000
0000
0000
0130
0000
0000
0010
0100
0000
0001
0000
1000
0100
1000
0000
,  // measure 24
1002
0000
0000
0000
0103
0001
0100
0001
0000
0000
1000
0010
0000
1000
0010
0000
,  // measure 25
1000
0001
0000
0100
0000
0001
1000
0001
0000
1000
0000
0010
0000
0100
0001
0000
,  // measure 26
0021
0000
0000
0000
0130
0010
0100
0000
1000
0000
0001
0000
0100
0000
0010
0000
,  // measure 27
2000
0000
0000
0000
3001
0000
0010
0001
0000
1000
0000
0010
0000
0100
0001
0000
,  // measure 28
2001
0000
0000
0000
3100
1000
0100
1000
0000
0000
0001
0010
0000
0001
0010
0000
,  // measure 29
0001
1000
0000
0100
0000
1000
0001
1000
0000
0001
0000
0010
0000
0100
1000
0000
,  // measure 30
1020
0000
0000
0000
0130
0010
0100
0000
0001
0000
1000
0000
0100
0000
0010
0000
,  // measure 31
0002
0000
0000
0000
1003
0000
0010
1000
0000
0001
0000
0010
0000
0100
1000
0000
,  // measure 32
1002
0000
0103
0010
1000
0100
1000
0001
,  // measure 33
0020
0000
0000
0000
0031
0000
0010
0100
0010
0100
0000
1000
0000
0100
0000
0010
,  // measure 34
0002
0000
0000
0000
1003
0000
0001
0100
0001
0100
0000
0001
0000
1000
0000
0010
,  // measure 35
1000
0000
0100
0000
0010
0000
0001
0100
0000
0010
0000
1000
0000
0001
1000
0001
,  // measure 36
2000
0000
3100
0010
0001
0100
0001
1000
,  // measure 37
0020
0000
0000
0000
1030
0000
0010
0100
0010
0100
0000
0001
0000
0100
0000
0010
,  // measure 38
2000
0000
0000
0000
3001
0000
1000
0100
1000
0100
0000
1000
0000
0001
0000
0010
,  // measure 39
0001
0000
0100
0000
0010
0000
1000
0100
0000
0010
0000
0001
0000
1000
0001
1000
,  // measure 40
0002
0000
0000
0000
0000
0000
0103
0001
0000
0100
0000
0010
1000
0000
0010
0000
,  // measure 41
0200
0000
0000
0000
0000
0000
0301
0100
0000
0010
0100
0000
0001
0000
1000
0000
,  // measure 42
0020
0000
0000
0000
0000
0000
1030
0010
0000
1000
0000
0001
0010
0000
0001
0000
,  // measure 43
2000
0000
0000
0000
0000
0000
3010
1000
0000
0010
0100
0000
0001
0000
0010
0000
,  // measure 44
0002
0000
0000
0000
1003
0000
0010
0100
0000
0010
0000
1000
0001
0000
0100
0000
,  // measure 45
0020
0000
0000
0000
1030
0000
0001
0010
0001
0100
0000
0010
0000
1000
0000
0001
,  // measure 46
0200
0000
0000
0000
0310
0000
1000
0100
1000
0001
0000
0010
0000
0100
0000
1000
,  // measure 47
0001
0000
0100
0000
0010
0000
1000
0001
0000
1000
0100
0000
1000
0000
0001
0000
,  // measure 48
2000
0000
0000
0000
3001
0000
0010
0100
0000
0010
0000
0001
1000
0000
0100
0000
,  // measure 49
0020
0000
0000
0000
0031
0000
1000
0010
1000
0100
0000
0010
0000
0001
0000
1000
,  // measure 50
0100
0000
0010
0000
0100
0000
1000
0100
1000
0001
0000
0010
0000
0100
0000
1000
,  // measure 51
0001
0000
0010
0001
0010
0000
0001
0010
0001
0010
0001
0010
0000
0100
1000
0000
,  // measure 52
1002
0000
0000
0023
0000
0000
0230
0000
,  // measure 53
2300
0000
0000
0000
3002
0000
0103
0010
,  // measure 54
1000
0100
0001
0200
0000
1300
0001
0200
,  // measure 55
0000
0310
1000
0002
0000
2003
0000
3001
,  // measure 56
1001
0000
0000
0000
;
