#TITLE:New Rules;
#SUBTITLE:(Vicetone Remix);
#ARTIST:Dua Lipa;
#TITLETRANSLIT:;
#SUBTITLETRANSLIT:;
#ARTISTTRANSLIT:;
#GENRE:HOUSE;
#CREDIT:;
#BANNER:[Round F] - New Rules (Vicetone Remix).png;
#BACKGROUND:[Round F] - New Rules (Vicetone Remix)-bg.png;
#LYRICSPATH:;
#CDTITLE:cdtitle.png;
#MUSIC:[Round F] - New Rules (Vicetone Remix).ogg;
#OFFSET:0.000000;
#SAMPLESTART:58.019997;
#SAMPLELENGTH:15.000000;
#SELECTABLE:YES;
#BPMS:0.000000=120.000000
;
#STOPS:
;
#BGCHANGES:;
#KEYSOUNDS:;
#ATTACKS:;

//---------------dance-single - ----------------
#NOTES:
     dance-single:
     9646_BEG:
     Beginner:
     1:
     0.061720,0.120869,0.000000,0.072007,0.000000,42.000000,42.000000,0.000000,7.000000,0.000000,0.000000,0.061720,0.120869,0.000000,0.072007,0.000000,42.000000,42.000000,0.000000,7.000000,0.000000,0.000000:
0000
0000
0000
0000
,
0000
0000
0000
0000
,
0000
0000
0000
0000
,
0000
0000
0000
0000
,
0000
0000
0000
0000
,
1000
0000
0000
0000
,
0000
0000
0000
0000
,
0001
0000
0000
0000
,
0000
0000
0000
0000
,
1000
0000
0000
0000
,
0000
0000
0000
0000
,
0001
0000
0000
0000
,
0000
0000
0000
0000
,
2000
0000
0000
0000
,
3000
0000
0000
0000
,
0020
0000
0000
0000
,
0030
0000
0000
0000
,
0002
0000
0000
0000
,
0003
0000
0000
0000
,
0200
0000
0000
0000
,
0300
0000
0000
0000
,
1000
0000
0000
0000
,
1000
0000
0000
0000
,
0001
0000
0000
0000
,
0001
0000
0000
0000
,
0010
0000
0000
0000
,
0100
0000
0000
0000
,
1000
0000
0000
0000
,
0001
0000
0000
0000
,
2000
0000
0000
3000
,
1000
0000
0000
0000
,
0010
0000
0000
0000
,
0001
0000
0000
0000
,
0010
0000
0000
0000
,
1000
0000
0000
0000
,
0001
0000
0000
0000
,
0010
0000
0000
0000
,
0200
0000
0300
0000
,
1000
0000
0001
0000
,
0100
0000
0100
0000
,
1000
0000
0001
0000
,
0010
0000
0010
0000
,
1000
0000
0001
0000
,
0010
0000
0010
0000
,
1000
0000
0001
0000
,
0100
0000
0100
0000
,
0020
0000
0000
0000
,
0030
0000
0000
0000
;

//---------------dance-single - ----------------
#NOTES:
     dance-single:
     9646_BSP:
     Easy:
     3:
     0.229246,0.314258,0.174874,0.185160,0.000000,156.000000,139.000000,17.000000,18.000000,0.000000,0.000000,0.229246,0.314258,0.174874,0.185160,0.000000,156.000000,139.000000,17.000000,18.000000,0.000000,0.000000:
0000
0000
0000
0000
,
0000
0000
0000
0000
,
0000
0000
0000
0000
,
0000
0000
0000
0000
,
0000
0000
0000
0000
,
0200
0000
0310
0000
,
0020
0000
0130
0000
,
2000
0000
3001
0010
,
0200
0010
0310
0000
,
0002
0000
1003
0000
,
2000
0000
3001
0000
,
0200
0000
0310
1000
,
0002
1000
1003
0000
,
0002
0100
0000
0100
,
1003
0100
0001
0100
,
2000
3000
0001
0100
,
2000
3000
0100
0010
,
2000
0010
0000
0010
,
3001
0010
1000
0010
,
0002
0003
1000
0010
,
0002
0003
0010
0100
,
1001
0000
0010
0010
,
1000
0100
0001
0100
,
1001
0000
0100
0100
,
1000
0010
0001
0010
,
1001
0000
0010
0010
,
0001
0010
0100
1000
,
0002
0003
0001
1000
,
0010
0001
0100
1000
,
0002
0000
0000
0003
,
1000
0001
0001
0101
,
0010
1000
0100
0001
,
0100
0010
0010
0011
,
1000
0100
0001
0010
,
1000
0001
0001
0101
,
0010
1000
0100
0001
,
0100
0010
0010
0011
,
2000
0000
0001
3001
,
0001
0100
0010
1100
,
0100
0101
0010
1010
,
1000
0100
0010
0101
,
0100
1100
0010
0011
,
0001
0100
0010
1001
,
0010
1100
0010
0101
,
1000
0100
0010
1001
,
0010
0001
0100
1000
,
0002
0000
0000
0000
,
0003
0000
0000
0000
;

//---------------dance-single - ----------------
#NOTES:
     dance-single:
     9646_ESP:
     Hard:
     7:
     0.396772,0.459301,0.072007,0.493761,0.087437,270.000000,263.000000,7.000000,48.000000,0.000000,0.000000,0.396772,0.459301,0.072007,0.493761,0.087437,270.000000,263.000000,7.000000,48.000000,0.000000,0.000000:
// measure 0
0000
0000
0000
0000
,  // measure 1
0000
0000
0000
0000
,  // measure 2
0000
0000
0000
0000
,  // measure 3
0000
0000
0000
0000
,  // measure 4
0000
0000
0000
0000
,  // measure 5
1000
0100
0001
0100
1000
0001
0020
0000
,  // measure 6
0130
1000
0001
0100
0020
0000
2030
0000
,  // measure 7
3001
0000
0010
1000
0010
0001
2000
3000
,  // measure 8
0010
0001
0010
1000
0002
0000
0003
0000
,  // measure 9
1000
0100
0001
0100
1000
0001
0020
0000
,  // measure 10
0130
1000
0010
0001
0020
0000
2030
0000
,  // measure 11
3001
0000
0010
0100
1000
0001
2000
3000
,  // measure 12
0010
0100
0001
1000
0002
0000
0003
0000
,  // measure 13
2000
0001
0000
3001
,  // measure 14
0001
0100
0010
1000
0002
0000
0013
0200
,  // measure 15
2000
0000
3000
0000
0302
0000
0103
2000
,  // measure 16
0002
0000
0003
0000
3010
0000
0001
0010
,  // measure 17
2000
0001
0000
3001
,  // measure 18
0001
0010
0100
1000
0002
0000
0103
0020
,  // measure 19
2000
0000
3000
0000
0030
0001
0010
2000
,  // measure 20
0002
0003
0020
3030
,  // measure 21
0110
0000
1000
0001
0100
0001
2000
3000
,  // measure 22
0001
0010
0100
0010
0001
1000
0200
0300
,  // measure 23
0110
0000
0001
1000
0100
1000
0002
0003
,  // measure 24
1000
1000
0010
0100
0001
0010
0200
0300
,  // measure 25
0110
0000
1000
0001
0010
0001
2000
3000
,  // measure 26
0010
0010
0001
1000
0001
0010
1000
0001
,  // measure 27
0020
0000
0130
1000
0001
0100
0010
0000
,  // measure 28
0100
0100
1000
0100
0001
0010
0100
1000
,  // measure 29
0002
0000
0000
0003
,  // measure 30
1000
0000
0100
0000
0001
0000
0000
0000
1100
0000
0000
0001
0010
0000
0100
0000
,  // measure 31
1000
0000
0000
1000
0000
0000
0001
0000
1000
0000
0010
0000
0100
0000
0010
0000
,  // measure 32
0001
0000
1000
0000
0100
0000
0000
0000
0101
0000
0000
1000
0100
0000
0010
0000
,  // measure 33
0001
0000
0000
0001
0000
0000
1000
0000
0010
0000
0001
0000
0010
0000
1000
0000
,  // measure 34
0001
0000
0010
0000
1000
0000
0000
0000
0011
0000
0000
1000
0100
0000
0010
0000
,  // measure 35
0001
0000
0000
0001
0000
0000
1000
0000
0001
0000
0100
0000
0010
0000
0100
0000
,  // measure 36
1000
0000
0001
0000
0010
0000
0000
0000
1010
0000
0000
0001
0010
0000
0100
0000
,  // measure 37
2000
0000
0000
0010
0000
0000
3020
0000
0032
0000
0023
0000
2030
0000
3002
0000
,  // measure 38
1003
0000
0001
0000
0100
0000
0001
0000
0020
0000
0130
1000
0001
0000
0100
0000
,  // measure 39
0020
0000
0030
0100
0001
0000
0010
0000
0100
0000
1000
0000
0001
0000
0010
0000
,  // measure 40
0100
0000
0010
0000
0001
0000
0100
0000
0020
0000
1030
0001
0100
0000
0010
0000
,  // measure 41
2000
0000
3000
0001
0100
0000
0010
0000
0001
0000
0010
0000
0100
0000
0001
0000
,  // measure 42
1000
0000
0001
0000
0010
0000
0001
0000
0200
0000
0310
1000
0001
0000
0010
0000
,  // measure 43
0200
0000
0300
0010
0001
0000
0100
0000
0010
0000
1000
0000
0001
0000
0100
0000
,  // measure 44
0010
0000
0100
0000
0001
0000
0010
0000
0200
0000
1300
0001
0010
0000
0100
0000
,  // measure 45
2000
0000
3000
0010
0200
0000
0301
1000
0010
0000
0001
0000
0010
0000
2000
0000
,  // measure 46
0002
0000
3000
0000
,  // measure 47
0003
0000
0000
0000
;

//---------------dance-single - ----------------
#NOTES:
     dance-single:
     9646_DSP:
     Medium:
     5:
     0.311540,0.338432,0.113154,0.195447,0.015430,212.000000,201.000000,11.000000,19.000000,0.000000,0.000000,0.311540,0.338432,0.113154,0.195447,0.015430,212.000000,201.000000,11.000000,19.000000,0.000000,0.000000:
0000
0000
0000
0000
,
0000
0000
0000
0000
,
0000
0000
0000
0000
,
0000
0000
0000
0000
,
0000
0000
0000
0000
,
1000
0000
0100
0000
0010
0001
0010
0000
,
0100
0000
1000
0001
2000
0000
3020
0000
,
0130
0000
0000
0001
0100
0001
0200
0300
,
0000
1000
0100
1000
0200
0000
0300
0000
,
0001
0000
0010
0000
0100
1000
0100
0000
,
0010
0000
0001
1000
0002
0000
0203
0000
,
0310
0000
0000
1000
0010
1000
0020
0030
,
0000
0001
0010
0001
0020
0000
0030
0000
,
2000
0100
0000
3100
,
0001
0000
0100
0000
1000
0000
0001
0010
,
0002
0000
0003
0000
1000
0000
0010
0100
,
0020
0000
0030
0000
1000
0000
0100
0010
,
0002
0010
0000
0013
,
1000
0000
0010
0000
0001
0000
1000
0100
,
2000
0000
3000
0000
0001
0000
0100
0010
,
0200
0300
0001
1000
,
1001
0000
0100
0000
0100
0010
0001
0000
,
1000
0100
1000
0001
0100
0000
0010
0000
,
1001
0000
0010
0000
0010
0100
1000
0000
,
0001
0010
0001
0100
0010
0000
1000
0000
,
1001
0000
0100
0000
0100
0010
0001
0000
,
1000
0100
0001
0000
0100
1000
0001
0000
,
2000
0000
3010
0000
0010
0001
0010
0000
,
1000
0001
1000
0001
0010
0000
0100
0000
,
0020
0000
0000
0030
,
0001
1000
0010
0000
0100
0000
1001
0000
,
0001
0000
0000
0001
0000
0000
0100
0000
0010
0000
1000
0000
0001
0000
0000
0000
,
1000
0001
0010
0000
0100
0000
1001
0000
,
1000
0000
0000
1000
0000
0000
0100
0000
0010
0000
0001
0000
1000
0000
0000
0000
,
0001
1000
0010
0000
0001
0000
0110
0000
,
0001
0000
0000
0001
0000
0000
0010
0000
0100
0000
1000
0000
0001
0000
0000
0000
,
1000
0001
0010
0000
1000
0000
0110
0000
,
2000
0000
0000
0000
3001
0001
0001
0000
,
1000
0100
0001
0000
0100
0000
1100
0000
,
0001
0000
0001
0000
1000
0010
0100
0010
,
1000
0100
0001
0000
0100
0000
1100
0000
,
0001
0000
0010
0000
0100
1000
0001
0010
,
0001
0100
1000
0000
0100
0000
0101
0000
,
1000
0000
1000
0000
0001
0010
0100
0010
,
0001
0100
1000
0000
0100
0000
0101
0000
,
1000
0000
0010
0000
0001
0010
1000
0200
,
0020
0000
0300
0000
,
0030
0000
0000
0000
;
