#TITLE:夏の日のラビリンス;
#SUBTITLE:(nyankobrq remix);
#ARTIST:ハッピーくるくる;
#TITLETRANSLIT:Natsu no Hi no Labyrinth;
#SUBTITLETRANSLIT:(nyankobrq remix);
#ARTISTTRANSLIT:Happy Kuru Kuru;
#GENRE:Pop;
#CREDIT:Gameoson×vincentw;
#BANNER:[Round F] - Natsu no Hi no Labyrinth (nyankobrq remix).png;
#BACKGROUND:[Round F] - Natsu no Hi no Labyrinth (nyankobrq remix)-bg.png;
#LYRICSPATH:;
#CDTITLE:cdtitle.png;
#MUSIC:[Round F] - Natsu no Hi no Labyrinth (nyankobrq remix).ogg;
#OFFSET:-0.026377;
#SAMPLESTART:59.244373;
#SAMPLELENGTH:19.199997;
#SELECTABLE:YES;
#BPMS:0.000000=100.000000
;
#STOPS:
;
#BGCHANGES:;
#KEYSOUNDS:;
#ATTACKS:;

//---------------dance-single - ----------------
#NOTES:
     dance-single:
     C 01 X 03:
     Beginner:
     1:
     0.111684,0.162721,0.027272,0.072725,0.000000,86.000000,83.000000,3.000000,8.000000,0.000000,0.000000,0.111684,0.162721,0.027272,0.072725,0.000000,86.000000,83.000000,3.000000,8.000000,0.000000,0.000000:
// measure 0
0000
0000
0000
0000
,  // measure 1
0000
0000
0000
0000
,  // measure 2
0000
0000
0000
0000
,  // measure 3
0000
0000
0000
0000
,  // measure 4
0000
0000
0000
0000
,  // measure 5
1000
0000
1000
0000
,  // measure 6
0010
0000
0010
0000
,  // measure 7
0100
0000
0100
0000
,  // measure 8
0001
0000
0001
0000
,  // measure 9
1000
0000
1000
0000
,  // measure 10
0100
0000
0100
0000
,  // measure 11
0010
0000
0010
0000
,  // measure 12
0002
0000
0003
0000
,  // measure 13
2000
0000
0000
3000
,  // measure 14
0002
0000
0000
0003
,  // measure 15
0200
0000
0000
0300
,  // measure 16
0010
0000
0010
0000
,  // measure 17
1000
1000
1000
0000
,  // measure 18
0010
0010
0010
0000
,  // measure 19
0100
0100
0100
0100
,  // measure 20
0001
0000
0000
0000
,  // measure 21
1001
0000
0000
0000
,  // measure 22
0010
0000
0000
0000
,  // measure 23
0100
0100
0100
0100
,  // measure 24
0020
0000
0030
0000
,  // measure 25
0110
0000
0001
0000
,  // measure 26
1000
0000
0001
1000
,  // measure 27
0001
0000
0010
0000
,  // measure 28
0100
0000
0010
0100
,  // measure 29
0010
0000
0100
0000
,  // measure 30
1000
0000
0100
1000
,  // measure 31
0100
0000
0010
0000
,  // measure 32
0001
0000
0010
0001
,  // measure 33
0010
0000
0001
0000
,  // measure 34
0100
0001
0100
0000
,  // measure 35
0010
0000
1000
0000
,  // measure 36
0100
1000
0100
0000
,  // measure 37
0010
0000
0001
0000
,  // measure 38
1000
0001
1000
0000
,  // measure 39
0010
0000
1000
0000
,  // measure 40
0002
0000
0003
0000
,  // measure 41
1001
0000
1000
0000
,  // measure 42
0100
0000
0010
0000
,  // measure 43
0001
0000
0020
0000
,  // measure 44
0200
0000
0000
0330
;

//---------------dance-single - ----------------
#NOTES:
     dance-single:
     C 03 X 06:
     Easy:
     3:
     0.164929,0.203402,0.090906,0.172721,0.000000,127.000000,117.000000,10.000000,19.000000,0.000000,0.000000,0.164929,0.203402,0.090906,0.172721,0.000000,127.000000,117.000000,10.000000,19.000000,0.000000,0.000000:
// measure 0
0000
0000
0000
0000
,  // measure 1
0000
0000
0000
0000
,  // measure 2
0000
0000
0000
0000
,  // measure 3
0000
0000
0000
0000
,  // measure 4
0000
0000
0000
0000
,  // measure 5
1001
0000
0001
0000
,  // measure 6
1000
0010
1000
0000
,  // measure 7
0001
0000
0100
0000
,  // measure 8
0001
1000
0001
1000
,  // measure 9
0100
0000
0010
0000
,  // measure 10
0100
1000
0100
0000
,  // measure 11
1000
0001
0100
0001
,  // measure 12
2000
0000
3000
0000
,  // measure 13
0000
1001
0000
1001
,  // measure 14
0000
0110
0000
0110
,  // measure 15
0000
0101
0000
0101
,  // measure 16
0000
1000
0001
1000
,  // measure 17
0010
0010
0010
0010
,  // measure 18
1000
1000
1000
1000
,  // measure 19
0001
0001
0001
0001
,  // measure 20
0202
0000
0303
0000
,  // measure 21
0001
0100
0001
0000
,  // measure 22
1000
0100
1000
0000
,  // measure 23
0001
0100
0010
1000
,  // measure 24
0002
0000
1003
0001
,  // measure 25
1001
0000
1000
0100
,  // measure 26
0010
0000
0001
0100
,  // measure 27
0010
0000
1000
0001
,  // measure 28
0200
0300
0001
0100
,  // measure 29
0010
1000
0001
1000
,  // measure 30
0100
0010
0001
1000
,  // measure 31
0001
0100
1000
0100
,  // measure 32
0002
0003
1000
1000
,  // measure 33
1001
0000
0001
0010
,  // measure 34
0100
0010
0002
0003
,  // measure 35
1000
0000
0010
0100
,  // measure 36
0001
0100
0020
0030
,  // measure 37
1000
0000
0001
0010
,  // measure 38
1000
0010
0002
0003
,  // measure 39
1000
0000
0100
0010
,  // measure 40
0002
0000
0000
0000
1003
0000
0001
1000
,  // measure 41
0002
0000
0023
0230
,  // measure 42
2300
0000
3020
0000
,  // measure 43
0230
0000
0320
2030
,  // measure 44
0002
0000
0000
3003
;

//---------------dance-single - ----------------
#NOTES:
     dance-single:
     C 05 X 08:
     Medium:
     5:
     0.267523,0.325443,0.136359,0.072725,0.000000,206.000000,191.000000,15.000000,8.000000,0.000000,0.000000,0.267523,0.325443,0.136359,0.072725,0.000000,206.000000,191.000000,15.000000,8.000000,0.000000,0.000000:
// measure 0
0000
0000
0000
0000
,  // measure 1
0000
0000
0000
0000
,  // measure 2
0000
0000
0000
0000
,  // measure 3
0000
0000
0000
0000
,  // measure 4
0000
0000
0000
0000
1000
0001
1000
0001
,  // measure 5
1000
0100
0010
0001
,  // measure 6
0010
0000
0100
0000
1000
0000
0010
0100
,  // measure 7
0010
1000
0001
0100
,  // measure 8
0001
0000
1000
0000
0010
1000
0001
0000
,  // measure 9
0100
0001
0010
0001
,  // measure 10
0100
0000
0010
0000
1000
0000
0010
0100
,  // measure 11
0010
0000
1000
0001
1000
0000
0100
0010
,  // measure 12
0200
0010
0000
0310
,  // measure 13
0002
0010
0000
1000
,  // measure 14
0203
0001
0000
0010
,  // measure 15
2300
0100
0000
0001
,  // measure 16
3020
1000
0000
0100
,  // measure 17
0031
0011
1000
1010
,  // measure 18
0001
0101
1000
1100
,  // measure 19
0001
0110
1000
1001
,  // measure 20
0110
0000
1000
0100
,  // measure 21
1000
0001
0000
0010
0000
0100
0000
1000
,  // measure 22
0000
0001
0000
0100
0000
0010
0000
1000
,  // measure 23
0000
0001
0000
0010
0000
1000
0000
0010
,  // measure 24
0000
0001
0000
1000
0001
0000
1000
0001
,  // measure 25
0010
0000
0011
0000
1000
0000
0100
1000
,  // measure 26
0010
0000
1010
0000
0001
0000
0100
0001
,  // measure 27
1000
0000
1001
0000
0001
0000
1000
0010
,  // measure 28
0100
0000
0101
0000
0001
0010
0100
0000
,  // measure 29
1000
0000
1100
0000
0100
0010
0001
0010
,  // measure 30
0100
0000
0110
0000
0010
0001
1000
0001
,  // measure 31
0100
0000
0101
0000
0001
1000
0010
1000
,  // measure 32
0002
0100
1000
0013
,  // measure 33
1001
0000
1000
0001
0010
0000
0010
0001
,  // measure 34
1000
0000
0100
1000
0001
0000
0100
0001
,  // measure 35
1000
0000
0010
1000
0100
0000
0100
1000
,  // measure 36
0010
0000
0100
0001
0010
0001
0100
0000
,  // measure 37
0001
0000
0010
0100
0000
0100
0010
0000
,  // measure 38
0001
0000
0100
0010
0000
0010
0100
0000
,  // measure 39
0001
0000
0010
1000
0000
1000
0010
0000
,  // measure 40
0001
0000
1000
0000
0001
0100
1000
0100
,  // measure 41
0001
0000
0001
0100
0010
0000
1000
0010
,  // measure 42
0100
0000
0001
1000
0001
0000
1000
0100
,  // measure 43
0010
0000
0001
0010
0100
0000
1000
0002
,  // measure 44
2000
0000
0000
3003
;

//---------------dance-single - ----------------
#NOTES:
     dance-single:
     C 07 X 10:
     Hard:
     7:
     0.388298,0.427144,0.163630,0.345442,0.240900,299.000000,281.000000,18.000000,38.000000,0.000000,7.000000,0.388298,0.427144,0.163630,0.345442,0.240900,299.000000,281.000000,18.000000,38.000000,0.000000,7.000000:
// measure 0
0000
0000
0000
0000
,  // measure 1
2000
0000
3020
0230
,  // measure 2
0302
0000
0023
0000
,  // measure 3
0230
0000
2300
3002
,  // measure 4
2000
0000
0000
0000
0003
0000
0000
0000
0001
0000
0001
3000
1000
0000
1000
0000
,  // measure 5
0100
0000
0000
0100
1000
0000
0010
0000
0000
0000
1000
0000
0010
0000
0100
0000
,  // measure 6
0001
0000
0000
0001
0010
0000
0100
0000
0000
0000
0010
0000
0100
0000
1000
0000
,  // measure 7
0001
0000
0000
0001
1000
0000
0100
0000
0000
0000
0010
0000
0100
0000
1000
0000
,  // measure 8
0001
0000
0000
0001
0100
0000
0010
0000
0000
0000
1000
0000
0001
0000
0010
0000
,  // measure 9
0100
0000
0000
0100
1000
0000
0001
0000
0100
0000
0000
0100
0001
0000
1000
0000
,  // measure 10
0010
0000
0000
0010
1000
0000
0001
0000
0010
0000
0000
0000
0100
0000
1000
0000
,  // measure 11
0001
0000
0000
0001
0010
0000
0100
0000
1000
0000
0000
1000
0010
0000
0100
0000
,  // measure 12
0002
0010
1000
0103
,  // measure 13
2000
0011
0000
0101
,  // measure 14
3002
1010
0000
1100
,  // measure 15
0203
0011
0000
1010
,  // measure 16
0320
0000
1100
0000
1030
0010
0100
0001
,  // measure 17
1000
0000
0000
1000
0100
0000
0000
0100
0010
0000
0000
0010
0001
0000
0000
0001
,  // measure 18
0100
0000
0000
0100
0010
0000
0000
0000
0010
0000
1000
0000
0001
0000
0100
0000
,  // measure 19
0001
0000
0000
0001
0010
0000
0000
0010
1000
0000
0000
1000
0100
0000
0000
0100
,  // measure 20
0001
0000
1000
0100
0001
1000
0010
0001
,  // measure 21
2000
0000
3020
0000
0230
0000
0301
1000
,  // measure 22
0110
0000
0001
0100
0010
1000
0001
0000
,  // measure 23
0011
1100
1010
0101
,  // measure 24
1001
0000
0000
0000
0100
0000
0000
0000
1001
0000
1001
0000
0001
0100
0001
0100
,  // measure 25
0010
0000
0000
0010
1000
0000
0000
1000
0100
0000
1000
0000
0010
0000
0001
0000
,  // measure 26
0010
0000
0000
0010
0100
0000
0000
0100
0001
0000
0010
0000
1000
0000
0010
0000
,  // measure 27
0001
0000
0000
0001
0100
0000
0000
0100
1000
0000
0100
0000
0001
0000
0010
0000
,  // measure 28
1000
0000
0010
0000
0001
0000
0000
0100
0000
0001
0100
0000
0010
0000
0000
0000
,  // measure 29
1000
0000
0000
1000
0100
0000
0000
0100
0010
0000
0001
0000
0010
0000
0010
0000
,  // measure 30
0001
0000
0000
0001
0100
0000
0000
0100
0010
0000
1000
0000
0010
0000
0010
0000
,  // measure 31
1000
0000
0000
1000
0001
0000
0000
0001
0100
0000
0010
0000
0100
0000
0100
0000
,  // measure 32
0010
0000
0000
0000
1001
0000
0000
1000
0000
1000
0010
0100
0001
0000
0000
0000
,  // measure 33
2000
0000
0000
3100
0010
0000
0100
0000
0002
0000
0000
0103
0010
0000
0100
0000
,  // measure 34
2000
0000
0000
3100
0010
0000
0001
0000
2000
0000
0000
0000
3001
0000
1000
0000
,  // measure 35
0002
0000
0000
0103
0010
0000
0100
0000
2000
0000
0000
3100
0010
0000
0100
0000
,  // measure 36
0002
0000
0000
0103
0010
0000
1000
0000
0100
0000
0001
0000
0010
0000
1000
0000
,  // measure 37
0002
0000
0000
1003
0001
0000
0010
0000
0200
0000
0000
0301
1000
0000
0010
0000
,  // measure 38
0200
0000
0000
1300
0001
0000
0100
0000
0020
0000
0000
0000
1030
0000
0001
0000
,  // measure 39
0200
0000
0000
0301
1000
0000
0010
0000
2000
0000
0000
3001
0010
0000
0100
0000
,  // measure 40
2000
0000
0000
0000
0000
0000
3000
0000
0101
0000
0101
0000
1000
0010
1000
0010
,  // measure 41
0200
0000
1000
0010
0302
0000
0100
1000
,  // measure 42
0023
0000
0000
0031
0020
0000
0100
0000
1030
0000
0000
0000
1000
0010
0100
0010
,  // measure 43
0002
0000
0010
1000
0203
0000
0001
1000
,  // measure 44
0020
0000
0000
0330
;

//---------------dance-single - ----------------
#NOTES:
     dance-single:
     C 10 X 14:
     Challenge:
     10:
     0.602575,0.630545,0.299989,0.418167,0.677248,464.000000,431.000000,33.000000,46.000000,0.000000,0.000000,0.602575,0.630545,0.299989,0.418167,0.677248,464.000000,431.000000,33.000000,46.000000,0.000000,0.000000:
// measure 0
0000
0000
0000
0000
,  // measure 1
0000
0000
0000
0000
,  // measure 2
0000
0000
0000
0000
,  // measure 3
0000
0000
0000
0000
,  // measure 4
1000
0000
0010
0000
0001
0000
0010
0000
0001
0000
0010
0000
1000
1000
0010
0100
,  // measure 5
0002
0000
0000
0000
0000
0000
1003
0100
0010
0000
0000
0000
0100
0000
0000
0000
2000
0000
0000
0000
0000
0000
3001
0100
0010
0000
0000
0000
0100
0000
0000
0000
,  // measure 6
0002
0000
0000
0000
0000
0000
1003
0100
1000
0000
0000
0000
0010
0000
0000
0000
0200
0000
0000
0000
0000
0000
0000
0000
0301
0000
0001
0000
0010
0000
0100
0000
,  // measure 7
2000
0000
0000
0000
0000
0000
3001
0100
0010
0000
0000
0000
0100
0000
0000
0000
0002
0000
0000
0000
0000
0000
1003
0100
0010
0000
0000
0000
0100
0000
0000
0000
,  // measure 8
2000
0000
0000
0000
0000
0000
3001
0010
0001
0000
0000
0000
1000
0000
0000
0000
0001
0000
0010
0000
1000
0000
0010
0000
0100
0000
0001
0000
0100
0000
1000
0000
,  // measure 9
0002
0000
0000
0000
0000
0000
0013
0001
0100
0000
0000
0000
0010
0000
0000
0000
2000
0000
0000
0000
0000
0000
3010
1000
0100
0000
0000
0000
0010
0000
0000
0000
,  // measure 10
0002
0000
0000
0000
0000
0000
0103
0001
0100
0000
0000
0000
0010
0000
0000
0000
2000
0000
0000
0000
0000
0000
0000
0000
3001
0000
0001
0000
0100
0000
0010
0000
,  // measure 11
2000
0000
0000
0000
0000
0000
3100
1000
0010
0000
0000
0000
0100
0000
0000
0000
0002
0000
0000
0000
0000
0000
0103
0001
0010
0000
0000
0000
0100
0000
0000
0000
,  // measure 12
2000
0000
0000
0000
0100
0000
0001
0001
0000
0010
0010
0000
3001
0000
0000
0000
,  // measure 13
0001
0000
0000
0010
0001
0000
0000
1000
0001
0000
0001
0100
0001
1000
0100
1000
,  // measure 14
0010
0000
0000
0001
0010
0000
0000
0000
0010
0000
1000
0100
0010
0001
0100
0001
,  // measure 15
1000
0000
0000
0010
1000
0000
0000
0001
1000
0100
0001
0100
1000
0010
0001
0010
,  // measure 16
0100
0000
0000
0000
0000
0000
0000
0000
0100
0000
0000
0000
0000
0000
0001
0010
0100
0000
0000
0000
1000
0000
0000
0000
0100
0000
0010
0000
0001
0000
1000
0000
,  // measure 17
0010
0000
0000
1000
1010
0000
0000
0001
1000
0000
0100
0001
0100
0010
0100
1000
,  // measure 18
0001
0000
0000
0010
0011
0000
0000
0000
0010
0000
0001
1000
0010
0100
0010
1000
,  // measure 19
0100
0000
0000
1000
1100
0000
0100
0010
1000
0010
0100
1000
0010
0100
0001
0100
,  // measure 20
0101
0000
0000
0000
0000
0000
0000
0001
1000
0000
0000
0000
0100
0000
0000
0000
0001
0000
0000
0000
0100
0000
0000
0100
0010
0000
0000
0000
0001
0000
0000
0000
,  // measure 21
0210
0000
0000
0000
0001
0000
0000
0000
1300
0000
0000
0100
0010
0100
1000
0001
,  // measure 22
1001
0000
1000
0010
0100
0000
0001
0010
0000
0010
0001
1000
0100
0000
0000
1000
,  // measure 23
1010
0000
0000
0000
0011
0000
0000
0000
0101
0000
0000
1000
0001
0010
0100
1000
,  // measure 24
1100
0000
0000
0000
0100
0000
1000
0000
0001
0000
0000
0000
0010
0000
0001
1000
0001
0000
0000
0000
0100
0000
0010
0000
1000
0000
0001
0000
0100
0000
0001
0000
,  // measure 25
1000
0000
0000
0000
0010
0000
0100
0000
1000
0000
0000
0100
0010
0000
1000
0000
0001
0000
0000
0000
0110
0000
0000
0000
1000
0000
0100
0000
0010
0000
0001
0000
,  // measure 26
1000
0000
1000
0000
0010
0000
0000
0000
1001
0000
0000
0001
0100
0000
0000
0000
0001
0000
1000
0000
0010
0000
1000
0000
0100
0000
0000
0100
1000
0000
0001
0000
,  // measure 27
0100
0000
0000
0000
0001
0000
0010
0000
0001
0000
0000
1000
0010
0000
1000
0000
0100
0000
0000
0000
0011
0000
0000
0000
0001
0000
0100
0000
0010
0000
1000
0000
,  // measure 28
0002
0000
0023
0000
2030
0000
3200
0000
0302
0000
0000
0000
1003
1000
0001
0001
,  // measure 29
0100
0000
0000
0000
0010
0000
1000
0000
0010
0000
0000
1000
0001
0000
0010
0000
0001
0000
0000
0000
1100
0000
0000
0000
1000
0000
0100
0000
0010
0000
0001
0000
,  // measure 30
1000
0000
1000
0000
0010
0000
0000
0000
0101
0000
0000
0001
1000
0000
0000
0000
0001
0000
0001
0000
0010
0000
0100
0000
1000
0000
0000
0001
0100
0000
0001
0000
,  // measure 31
1000
0000
0000
0000
0010
0000
0100
0000
0010
0000
0000
1000
0001
0000
0010
0000
0001
0000
0000
0000
1000
0000
0100
0000
0001
0000
1000
0000
0001
0000
0100
0000
,  // measure 32
2000
0000
0010
0000
0001
0000
0010
0000
0001
0000
3010
0000
1000
1000
0010
0100
,  // measure 33
0001
0000
0000
0000
1000
0000
0100
0010
0001
0000
0000
0000
2001
0000
0000
0000
3010
0000
0000
0000
1002
0000
0000
0000
0013
0000
0000
0000
0100
0000
0000
0000
,  // measure 34
1000
0000
0000
0000
0001
0000
0010
0100
1000
0000
0000
0000
1002
0000
0000
0000
0103
0000
0000
0000
2001
0000
0000
0000
3100
0000
1000
0000
0010
0000
1000
0000
,  // measure 35
0001
0000
0000
0000
0100
0000
0010
0100
0001
0000
0000
0000
1020
0000
0000
0000
0130
0000
0000
0000
2010
0000
0000
0000
3200
0000
0000
0000
0301
0000
0000
0000
,  // measure 36
1000
0000
0010
0001
1000
0000
0101
0000
0001
0010
0100
0010
1000
0001
0100
1000
,  // measure 37
0001
0000
0000
0000
0010
0000
0100
1000
0010
0000
0000
0000
0201
0000
0000
0000
1300
0000
0000
0000
0102
0000
0000
0000
1003
0000
0000
0000
0010
0000
0000
0000
,  // measure 38
0100
0000
0000
0000
0001
0000
1000
0001
0010
0000
0000
0000
1200
0000
0000
0000
0301
0000
0000
0000
2100
0000
0000
0000
3001
0000
0001
0000
1000
0000
0010
0000
,  // measure 39
0100
0000
0000
0000
0001
0000
1000
0100
0010
0000
0000
0000
0021
0000
0000
0000
1030
0000
0000
0000
0011
0000
0010
0001
1000
0000
0000
0000
1001
0000
0000
0000
,  // measure 40
0210
0000
1300
0000
0120
0000
0031
0000
0110
0000
1001
0000
1000
1000
0001
0001
,  // measure 41
2000
0100
0010
0100
3002
0010
2003
0100
,  // measure 42
3020
1000
0001
0230
0320
0001
1000
0230
,  // measure 43
0302
0010
1000
0100
0023
0001
0230
1000
,  // measure 44
0020
0000
0000
0330
;
