#VERSION:0.83;
#TITLE:Most Extreme Sick Muse;
#SUBTITLE:;
#ARTIST:Magic Hammer;
#TITLETRANSLIT:;
#SUBTITLETRANSLIT:;
#ARTISTTRANSLIT:;
#GENRE:Eurobeat;
#ORIGIN:;
#CREDIT:;
#BANNER:[Round F] - Most Extreme Sick Muse.png;
#BACKGROUND:[Round F] - Most Extreme Sick Muse-bg.png;
#PREVIEWVID:;
#JACKET:[Round F] - Most Extreme Sick Muse-jacket.png;
#CDIMAGE:;
#DISCIMAGE:;
#LYRICSPATH:;
#CDTITLE:cdtitle.png;
#MUSIC:[Round F] - Most Extreme Sick Muse.ogg;
#OFFSET:-1.559120;
#SAMPLESTART:49.560120;
#SAMPLELENGTH:11.636364;
#SELECTABLE:YES;
#BPMS:0.000=165.000;
#STOPS:;
#DELAYS:;
#WARPS:;
#TIMESIGNATURES:0.000=4=4;
#TICKCOUNTS:0.000=4;
#COMBOS:0.000=1;
#SPEEDS:0.000=1.000=0.000=0;
#SCROLLS:0.000=1.000;
#FAKES:;
#LABELS:0.000=Song Start;
#BGCHANGES:;
#KEYSOUNDS:;
#ATTACKS:
;

//---------------dance-single - ----------------
#NOTEDATA:;
#CHARTNAME:09-12;
#STEPSTYPE:dance-single;
#DESCRIPTION:;
#CHARTSTYLE:;
#DIFFICULTY:Challenge;
#METER:9;
#RADARVALUES:0.609553,0.644696,0.424142,0.381728,0.097553,503.000000,453.000000,50.000000,45.000000,35.000000,0.000000,2.000000,0.000000,0.000000,0.609553,0.644696,0.424142,0.381728,0.097553,503.000000,453.000000,50.000000,45.000000,35.000000,0.000000,2.000000,0.000000,0.000000;
#CREDIT:;
#NOTES:
0000
0000
0000
0000
,
0000
0000
0000
0000
,
0000
0000
0000
0000
,
0000
0000
0000
0000
,
0001
0001
0010
0001
1000
1000
0010
1000
,
0001
0001
0010
0001
1000
0010
0001
0010
,
1000
1000
0100
1000
0001
0001
0100
0001
,
1001
1100
0011
MMMM
,
0201
0000
2300
0000
3100
0001
1000
0001
,
0020
0000
0000
0000
0100
0000
0000
0000
0031
0000
0010
MM0M
0010
0000
1000
0000
,
0002
0000
1003
0010
0100
0010
0001
0010
,
1010
0000
0000
1000
0100
0000
0010
0000
0001
0000
1000
0010
1000
0000
0001
1000
,
0200
0000
0302
0000
0103
1000
0001
1000
,
0020
0000
0000
0000
0100
0000
0000
0000
1030
0000
0100
M0MM
0100
0000
0001
0000
,
0011
0000
0101
0000
0110
0000
0010
1000
,
1001
0110
2002
0000
,
0000
0000
0000
3003
,
1100
0000
0011
0000
1000
0100
M0MM
0201
,
0000
0301
0100
0001
1000
0000
1100
0000
,
0001
0100
0010
0100
0001
0010
MM0M
1020
,
0000
1030
0100
0010
0001
0000
0101
0000
,
1010
0010
0100
0010
1000
0010
0001
0010
,
1000
0010
0100
0010
0001
0010
1000
0100
,
0001
0100
0010
0100
1000
0100
0010
0100
,
0001
0100
1000
0001
0100
0010
1000
0100
,
0110
0000
1001
0000
0001
0100
M0MM
1200
,
0000
1300
0100
1000
0001
0000
0101
0000
,
1000
0100
0010
0100
1000
0010
MM0M
0021
,
0000
0031
0100
0010
1000
0000
0101
0000
,
1001
0000
0001
0010
0001
0000
1000
0010
,
1000
0200
0000
0302
0000
0103
0010
0001
,
1001
0000
0001
0100
1000
0100
0000
0100
,
0001
0000
0010
0100
0010
0000
0210
0000
0000
0000
1000
0000
1300
0000
0000
0000
,
1001
0000
0001
0010
1000
0000
1000
0010
,
0001
0100
2000
0000
3100
0001
0100
0000
,
1001
0000
1000
0010
0001
0000
0001
0010
,
1000
0200
0000
0302
0000
0103
1000
0000
,
1100
0000
1000
0010
0100
0000
0010
1000
,
0100
0020
0000
0032
0000
1000
1003
0000
,
1002
0000
0010
0000
1000
0000
0103
0001
,
0010
0000
0000
0000
1001
0000
1000
0010
1000
0000
0001
0010
0001
0010
0001
0010
,
0001
0000
1000
0010
0001
0000
0001
0010
,
1000
0100
0002
0000
0103
1000
0100
0000
,
1001
0000
0001
0010
1000
0000
1000
0010
,
0001
0200
0000
2300
0000
3100
0001
0000
,
0101
0000
0001
0010
0100
0000
0010
0001
,
0100
0020
0000
2030
0000
0001
3001
0000
,
2001
0000
0100
0000
0001
0000
3010
1000
,
0100
0000
0000
0000
1001
0000
0001
0100
0001
0000
1000
0100
1000
0000
0001
0000
,
0200
0000
0000
0300
,
0040
0400
0000
0000
0000
0000
0000
0000
0000
0000
0000
0000
0000
0000
0030
0300
,
0001
0100
0001
1000
0001
0010
0001
1000
,
0001
0100
1000
0100
0010
0010
0100
0001
,
1000
0100
1000
0001
1000
0010
1000
0001
,
1000
0100
0001
0100
1000
1000
0010
0100
,
0001
0010
0100
0010
0001
0010
0100
1000
,
0010
0001
0010
1000
0100
0100
0010
0001
,
1000
0010
0100
0010
1000
0010
0100
0001
,
0010
1000
0010
0001
0100
0100
0010
1000
,
0001
0100
1000
0100
0001
0000
1100
0000
,
0001
0010
MM0M
2010
0000
3010
0100
0001
,
1000
0100
0001
0100
1000
0000
0101
0000
,
1000
0010
MM0M
0010
0001
0100
0010
1000
,
0001
0010
1000
0010
0001
0000
1010
0M00
,
0012
0000
1000
2003
0000
3001
0100
0020
,
0000
0100
0100
0000
0130
0000
1001
0000
,
0001
0000
0010
0100
0010
0000
0001
0000
1000
0000
0010
0100
0010
0000
1000
0000
,
1200
0000
0302
0000
0103
1000
0001
1000
,
0020
0000
0000
0000
0100
0000
0000
0000
1030
0000
0010
MM0M
0010
0000
0001
0000
,
2000
0000
3001
0010
0100
0010
1000
0010
,
0011
0000
0000
0001
0100
0000
0010
0000
1000
0000
0001
0010
0001
0000
1000
0001
,
0200
0000
2300
0000
3100
0001
1000
0001
,
0020
0000
0000
0000
0100
0000
0000
0000
0031
0000
0100
M0MM
0100
0000
1000
0000
,
1020
0000
0130
0000
0102
0000
1003
0100
,
2100
3100
0011
1001
,
0202
0000
0000
0000
0303
0000
0001
1000
0100
0000
1000
0000
0100
1000
0100
1000
,
0001
0000
0000
0000
;

//---------------dance-single - ----------------
#NOTEDATA:;
#CHARTNAME:07-10;
#STEPSTYPE:dance-single;
#DESCRIPTION:;
#CHARTSTYLE:;
#DIFFICULTY:Hard;
#METER:7;
#RADARVALUES:0.490793,0.515757,0.279934,0.500488,0.000000,405.000000,372.000000,33.000000,59.000000,16.000000,0.000000,0.000000,0.000000,0.000000,0.490793,0.515757,0.279934,0.500488,0.000000,405.000000,372.000000,33.000000,59.000000,16.000000,0.000000,0.000000,0.000000,0.000000;
#CREDIT:;
#NOTES:
0000
0000
0000
0000
,
0000
0000
0000
0000
,
0000
0000
0000
0000
,
0000
0000
0000
0000
,
1000
1000
0100
0100
,
1000
0000
1000
0000
0100
1000
0010
0100
,
0001
0001
0100
0100
,
1001
0110
1001
MMMM
,
2001
0000
3200
0000
1300
0010
MM0M
0010
,
0002
0000
1000
0000
1003
0001
0100
0001
,
2000
0000
3100
0010
0100
0010
0001
1000
,
0001
0101
2100
3001
,
1002
0000
0203
0000
0301
0010
MM0M
0010
,
2000
0000
0001
0000
3001
1000
0100
1000
,
0002
0000
0203
0000
0320
0000
1030
0001
,
1000
0110
2002
0000
,
0000
0000
0000
3003
,
1000
0000
1000
0000
0100
0010
0000
0200
,
0000
0301
0100
0010
0100
0000
1000
0000
,
0001
0100
0001
0100
0010
1000
0000
0002
,
0000
0013
0001
1000
0001
0000
0100
0000
,
0010
1000
0001
0000
0001
1000
0100
0000
,
0010
0001
1000
0000
1000
0001
0100
0000
,
0010
1000
0100
0000
0010
0001
0100
0000
,
0010
0100
0010
0100
0010
0000
0000
0000
,
1001
0000
1001
0000
1000
0001
0000
0200
,
0000
1300
0100
0010
0100
0000
0001
0000
,
1000
0100
1000
0100
0010
0001
0000
2000
,
0000
0000
3010
1000
0001
0000
1000
0000
,
1001
0000
0001
0100
0001
0000
0100
0001
,
0010
0001
0000
2000
0000
0000
3001
0000
,
1001
0000
1000
0100
1000
0010
0000
1000
,
0010
0100
0000
0202
0000
0000
0303
0000
,
1001
0000
0001
0010
0001
0000
0010
1000
,
0010
1000
0020
0000
0130
0010
0001
0000
,
1001
0000
1000
0010
1000
0000
0010
0001
,
0010
0002
0000
0023
0000
1000
1030
0000
,
1001
0000
0001
0100
0001
0000
1000
0100
,
1000
0100
0000
1200
0000
0000
0310
0000
,
1002
0100
0100
0103
,
0101
0000
1010
0000
0100
0001
0100
0000
,
1001
0000
1000
0100
1000
0000
0100
0001
,
0100
0001
0200
0000
0310
0100
1000
0000
,
1001
0000
0001
0100
0001
0000
0100
1000
,
0100
2000
0000
3200
0000
0001
0301
0000
,
1001
0000
0001
0010
0001
0000
1000
0010
,
1000
0010
0000
0210
0000
0000
0301
0000
,
2001
0100
0100
3100
,
1100
0000
0011
0000
0001
0100
0010
1000
,
0002
0000
0000
0000
,
2000
0000
0000
3003
,
0001
0100
0001
0100
0001
0000
1000
0000
,
0001
0020
0000
0032
0000
0013
0001
0000
,
1000
0100
1000
0100
1000
0000
0001
0000
,
1000
0020
0000
1030
0010
0100
0010
1000
,
0001
0010
0001
0010
0001
0000
0100
0000
,
0020
0000
1030
0200
0000
0310
0001
0000
,
1000
0010
1000
0010
1000
0000
0100
0000
,
0020
0000
0031
0200
0000
0301
0100
0010
,
1000
0001
0010
0001
1000
0000
0001
0000
,
1000
0020
0000
0032
0000
0013
1000
0000
,
0001
1000
0100
1000
0001
0000
1000
0000
,
0001
0020
0000
0130
1000
0001
0100
0001
,
1000
0100
0010
0001
0100
0000
1000
0000
,
0200
0000
0301
0020
0000
0130
1000
0002
,
0000
0100
0100
0000
0103
0000
1001
0000
,
0100
0010
0100
0010
0100
0010
0100
0000
,
1002
0000
0203
0000
0301
0010
MM0M
0010
,
2000
0000
0001
0000
3001
1000
0100
1000
,
0002
0000
0103
0010
0100
0010
1000
0001
,
1000
1100
0102
1003
,
2001
0000
3200
0000
1300
0010
MM0M
0010
,
0002
0000
1000
0000
1003
0001
0100
0001
,
2000
0010
3002
0010
,
2003
0100
3002
0203
,
0320
0000
0000
1030
0010
1000
0010
1000
,
0100
0000
0000
0000
;

//---------------dance-single - ----------------
#NOTEDATA:;
#CHARTNAME:05-07;
#STEPSTYPE:dance-single;
#DESCRIPTION:;
#CHARTSTYLE:;
#DIFFICULTY:Medium;
#METER:5;
#RADARVALUES:0.390211,0.419052,0.203588,0.653179,0.000000,322.000000,298.000000,24.000000,77.000000,4.000000,0.000000,0.000000,0.000000,0.000000,0.390211,0.419052,0.203588,0.653179,0.000000,322.000000,298.000000,24.000000,77.000000,4.000000,0.000000,0.000000,0.000000,0.000000;
#CREDIT:;
#NOTES:
0000
0000
0000
0000
,
0000
0000
0000
0000
,
0000
0000
0000
0000
,
0000
0000
0000
0000
,
1000
0100
1000
0100
,
1000
0100
1000
0010
,
0100
0001
0100
0001
,
1001
0110
1001
MMMM
,
2001
0000
3200
0000
0310
0001
0000
0001
,
2000
0000
0010
0000
3010
0000
1000
0001
,
2000
0000
3100
0000
0100
0000
0010
0001
,
0200
0320
2030
3001
,
1002
0000
0013
0000
0100
1000
0000
1000
,
0020
0000
1000
0000
1030
0000
0010
1000
,
0200
0000
0302
0000
0203
0000
1300
0001
,
0200
0010
0310
0000
,
0000
0000
0000
0000
,
1000
0000
1000
0000
0010
0100
0000
0002
,
0000
0103
0010
0000
1000
0000
0001
0000
,
1000
0000
1000
0000
0100
0010
0000
0002
,
0000
0103
0010
0000
1000
0000
0001
0000
,
1000
0100
0001
0100
,
1000
0100
0001
0100
,
1000
0010
0001
0010
,
1000
1000
1000
0000
,
1100
0000
0011
0000
0010
0100
0000
2000
,
0000
3100
0010
0000
0001
0000
1000
0000
,
0001
0000
0001
0000
0100
0010
0000
2000
,
0000
0000
3100
0010
0001
0000
1000
0000
,
2002
0000
3003
0001
0200
0000
0300
0001
,
1000
0001
0000
0020
0000
0000
0031
0000
,
2002
0000
3003
1000
0001
1000
0000
0001
,
0100
0010
0000
0202
0000
0000
0303
0000
,
2020
0000
3030
1000
0020
0000
0030
0001
,
0010
1000
0100
0010
,
0022
0000
0033
0001
0020
0000
0030
1000
,
0010
0001
0100
0010
,
2020
0000
3030
1000
0002
0000
0003
1000
,
0100
1000
0000
0200
0000
0000
0310
0000
,
0012
1000
0010
1003
,
2010
0001
0010
3001
,
2200
0000
3300
1000
0200
0000
0300
0001
,
0100
1000
0010
0100
,
0202
0000
0303
0001
0200
0000
0300
1000
,
0100
0001
0010
0100
,
2200
0000
3300
1000
0002
0000
0003
1000
,
0010
1000
0000
0020
0000
0000
0130
0000
,
0102
1000
0100
1003
,
2100
0001
0100
3001
,
0000
0000
0000
0000
,
2002
0000
0000
3003
,
0001
0100
0001
0100
,
0001
0010
0000
0200
0000
0310
0001
0000
,
1000
0100
1000
0100
,
1000
0010
0000
0200
0000
0310
1000
0000
,
0001
0010
0001
0010
,
0002
0000
1003
0020
0000
1030
0100
0000
,
1000
0010
1000
0010
,
2000
0000
3001
0020
0000
0031
1000
0000
,
0001
0100
1000
0100
,
0001
0010
0000
0200
0000
0310
0001
0000
,
1000
0100
0001
0100
,
1000
0010
0000
0200
0000
0310
1000
0000
,
0001
0010
1000
0010
,
0002
0000
1003
0020
0000
0130
0001
2000
,
0000
0000
0001
0000
3001
0000
1000
0001
,
0010
0010
0100
0100
,
1002
0000
0203
0000
0310
1000
0000
1000
,
0002
0000
0010
0000
0013
0000
0001
1000
,
0002
0000
0103
0000
0100
0000
0010
1000
,
0200
0320
0032
1003
,
2001
0000
3010
0000
0100
0001
0000
0001
,
0020
0000
0001
0000
0031
0000
0010
0001
,
2000
0010
3020
0100
,
0230
0001
0302
2003
,
3200
0000
0000
0310
0100
0000
0100
0000
,
1001
0000
0000
0000
;

//---------------dance-single - ----------------
#NOTEDATA:;
#CHARTNAME:04-05;
#STEPSTYPE:dance-single;
#DESCRIPTION:;
#CHARTSTYLE:;
#DIFFICULTY:Easy;
#METER:4;
#RADARVALUES:0.301747,0.354583,0.220554,0.279934,0.000000,249.000000,223.000000,26.000000,33.000000,4.000000,0.000000,0.000000,0.000000,0.000000,0.301747,0.354583,0.220554,0.279934,0.000000,249.000000,223.000000,26.000000,33.000000,4.000000,0.000000,0.000000,0.000000,0.000000;
#CREDIT:;
#NOTES:
0000
0000
0000
0000
,
0000
0000
0000
0000
,
0000
0000
0000
0000
,
0000
0000
0000
0000
,
0000
1000
0000
0001
,
0000
1000
0000
0010
,
0000
1000
0000
0001
,
0010
0010
0010
MMMM
,
0001
1000
0002
0000
,
0200
0000
0303
0010
,
1000
1000
0001
0001
,
1000
0100
0220
0330
,
1000
0001
2000
0000
,
0020
0000
3030
0100
,
0001
0001
1000
1000
,
0110
0110
0110
0000
,
0000
0000
0000
0000
,
0001
0100
1000
0000
,
0100
0000
1000
0100
,
0001
0001
1000
0000
,
0100
0000
0010
0001
,
1000
0010
1000
0010
,
0100
0001
0100
0001
,
1000
0100
0010
0001
,
0100
0010
1000
0000
,
1001
1001
1000
0000
,
0100
0000
0001
0100
,
1000
1000
0001
0000
,
0100
0000
0010
1000
,
2002
3003
2200
3300
,
0010
0001
2000
3000
,
2002
3003
0202
0303
,
0010
1000
0002
0003
,
0011
0000
1100
0000
,
1000
0010
0001
0010
,
1010
0000
0101
0000
,
0001
0010
1000
0010
,
0011
0000
1001
0000
,
0001
0100
0010
1000
,
0002
0010
0010
0013
,
0200
1000
1300
0001
,
0101
0000
1010
0000
,
1000
0100
0001
0100
,
1100
0000
0011
0000
,
0001
0100
1000
0100
,
0101
0000
1001
0000
,
1000
0100
0010
0001
,
2000
0010
0010
3010
,
0200
0001
0001
0301
,
0000
0000
0000
0000
,
2002
0000
0000
3003
,
1000
0100
0010
0001
,
0100
0010
1000
1000
,
0100
0010
0100
0010
,
0100
0010
0001
1000
,
0001
0100
0010
1000
,
0100
0010
0001
0001
,
0100
0010
0100
0010
,
0100
0010
1000
0001
,
1000
0100
0010
0100
,
0001
0100
1000
1000
,
0010
0100
0010
0100
,
0010
0100
0001
1000
,
0001
0010
0100
0010
,
1000
0010
0001
0000
,
0001
0100
1000
0000
,
1000
0100
0010
0100
,
0001
1000
0002
0000
,
0020
0000
0033
0100
,
1000
1000
0001
0001
,
0100
0010
0220
0330
,
1000
0001
2000
0000
,
0200
0000
3300
0010
,
0002
0003
0200
0300
,
0020
0030
1000
0100
,
0220
0330
0100
0010
,
1001
0000
0000
0000
;

//---------------dance-single - ----------------
#NOTEDATA:;
#CHARTNAME:02-03;
#STEPSTYPE:dance-single;
#DESCRIPTION:;
#CHARTSTYLE:;
#DIFFICULTY:Beginner;
#METER:2;
#RADARVALUES:0.190258,0.225644,0.042414,0.118760,0.000000,157.000000,152.000000,5.000000,14.000000,0.000000,0.000000,0.000000,0.000000,0.000000,0.190258,0.225644,0.042414,0.118760,0.000000,157.000000,152.000000,5.000000,14.000000,0.000000,0.000000,0.000000,0.000000,0.000000;
#CREDIT:;
#NOTES:
0000
0000
0000
0000
,
0000
0000
0000
0000
,
0000
0000
0000
0000
,
0000
0000
0000
0000
,
0000
0000
0000
0000
,
0000
0000
0000
0000
,
0000
0000
0000
0000
,
0010
0010
0010
0000
,
1000
0000
0001
0000
,
2000
0000
3000
0000
,
0100
0000
0010
0000
,
0100
0100
0100
0000
,
1000
0000
0001
0000
,
2000
0000
3000
0000
,
0010
0000
0100
0000
,
0001
0001
0001
0000
,
0000
0000
0000
0000
,
0001
0001
0001
0000
,
0100
0000
0010
0000
,
0100
0100
0100
0000
,
0001
0000
1000
0000
,
0100
0000
0010
0000
,
0100
0000
0010
0000
,
0001
0000
1000
0000
,
0010
0010
0010
0000
,
1000
1000
1000
0000
,
0100
0000
0010
0000
,
0100
0100
0100
0000
,
1000
0000
0001
0000
,
0100
0000
0100
0000
,
0010
0010
0010
0000
,
1000
0000
0001
0000
,
1000
1000
1000
0000
,
0001
0000
0001
0000
,
0010
0010
0010
0000
,
0001
0000
0001
0000
,
0100
0100
0100
0000
,
0001
0000
1000
0000
,
0100
0100
0100
0000
,
2002
0000
3003
0000
,
0220
0000
0330
0000
,
1000
0000
1000
0000
,
0010
0010
0010
0000
,
1000
0000
1000
0000
,
0100
0100
0100
0000
,
1000
0000
0001
0000
,
0100
0100
0100
0000
,
0220
0000
0330
0000
,
2002
0000
3003
0000
,
0000
0000
0000
0000
,
0200
0000
0300
0000
,
1000
1000
1000
0000
,
0100
0000
0010
0000
,
0001
0001
0001
0000
,
0010
0000
0001
0000
,
0100
0100
0100
0000
,
0010
0000
1000
0000
,
0001
0001
0001
0000
,
0010
0000
0001
0000
,
1000
1000
1000
0000
,
0010
0000
0100
0000
,
0001
0001
0001
0000
,
0100
0000
0001
0000
,
0010
0010
0010
0000
,
0100
0000
1000
0000
,
0001
0001
0001
0000
,
1000
1000
1000
0000
,
0001
0000
1000
0000
,
0002
0000
0003
0000
,
0100
0000
0010
0000
,
0100
0100
0100
0000
,
0001
0000
1000
0000
,
0002
0000
0003
0000
,
0010
0000
0100
0000
,
1000
0000
0001
0001
,
0002
0000
0003
0000
,
1001
0000
0000
0000
;
