#TITLE:MATSURI☆PRINCE;
#SUBTITLE:;
#ARTIST:dj VERTICAI;
#TITLETRANSLIT:MATSURI PRINCE;
#SUBTITLETRANSLIT:;
#ARTISTTRANSLIT:;
#GENRE:Prince core;
#CREDIT:TiKAL+;
#MUSIC:[Round F] - MATSURI PRINCE.ogg;
#BANNER:[Round F] - MATSURI PRINCE.png;
#BACKGROUND:[Round F] - MATSURI PRINCE-bg.png;
#CDTITLE:cdtitle.png;
#SAMPLESTART:34.135;
#SAMPLELENGTH:15.000;
#SELECTABLE:YES;
#OFFSET:-0.026;
#BPMS:0.000=190.000;
#STOPS:39.500=1.263;
#BGCHANGES:;
#FGCHANGES:;

//--------------- dance-single - TiKAL jun-style ----------------
#NOTES:
     dance-single:
     TiKAL jun-style:
     Easy:
     5:
     0,0,0,0,0:
0000
0000
0000
0000
,
0000
0000
0000
0000
,
1000
0000
0001
0000
,
0100
0100
0010
0010
,
1000
0000
0001
0000
,
0010
0100
0010
0100
,
1000
0000
0100
0000
,
0010
0001
0010
0001
,
0110
0000
0110
0000
,
1000
0001
1000
1001
,
0000
0001
0000
0010
,
0000
0100
0000
1000
,
0000
0001
0000
1000
,
0000
0010
0100
0010
,
0000
1000
0000
0100
,
0000
0010
0000
0001
,
0000
0100
0000
0010
,
0000
1000
0001
1000
,
0001
0000
1000
0000
,
0010
0000
0100
0000
,
0001
0000
0010
0000
,
0100
1000
0001
0100
,
0110
0000
1000
0000
,
0110
0000
0001
0000
,
1000
0100
0010
0001
,
1001
0000
0110
0000
,
0000
1000
1000
1000
,
0001
0010
0100
1000
,
0000
0001
0001
0001
,
1000
0100
0010
0001
,
0000
1000
0010
1000
,
0001
0010
0100
1000
,
0000
0001
0100
0001
,
0000
1001
0000
0110
,
0000
1000
1000
1000
,
0001
0100
0010
1000
,
0000
0001
0001
0001
,
1000
0010
0100
0001
,
0000
1000
0100
1000
,
0000
0001
0100
0001
,
0000
1000
0010
1000
,
0000
1001
0000
0110
,
0001
0010
0100
2000
,
0002
0000
0000
3003
,
0110
0000
1001
0000
,
1000
0100
0010
0001
,
1001
0000
0110
0000
,
0001
0010
0100
1000
,
1100
0000
0011
0000
,
0001
0100
0010
1000
,
0000
1001
0110
1001
,
0110
0000
0000
0000
,
1000
0000
0000
0000
,
0001
0000
0000
0000
,
0110
0000
1001
0000
,
0110
0000
1001
0000
,
0000
0001
0001
0001
,
1000
0100
0010
0001
,
0000
1000
0010
1000
,
0000
1001
0000
0110
,
0000
0001
0001
0001
,
1000
0010
0100
0001
,
0000
1000
1000
1000
,
0001
0100
0010
1000
,
0000
0001
0010
0001
,
0000
1000
0010
1000
,
0000
0001
0100
0001
,
0000
1001
0000
0110
,
1000
0100
0010
0002
,
2000
0000
0000
3003
,
0110
0000
1001
0000
,
0110
1001
0110
0000
,
1000
0000
0001
0000
,
0100
0100
0010
0010
,
1000
0000
0001
0000
,
0010
0100
0010
0100
,
1000
0000
0100
0000
,
0010
0001
0010
0001
,
0101
0000
1010
0000
,
1000
0001
0100
0010
,
1001
0000
0000
0000
;

//--------------- dance-single - TiKAL jun-style ----------------
#NOTES:
     dance-single:
     TiKAL jun-style:
     Medium:
     7:
     0,0,0,0,0:
0000
0000
0000
0000
,
0000
0000
0000
0000
,
1000
0001
0100
0010
,
1000
0000
0100
0000
0010
0001
0010
0000
,
0001
1000
0010
0100
,
0001
0000
0010
0100
1000
0001
1000
0000
,
0001
1000
0100
0010
,
0001
0000
0100
0000
0010
1000
0010
0000
,
0110
0000
1001
0000
,
0001
0000
0010
0000
0100
0000
1000
0001
,
1000
0100
0010
0001
,
1000
0010
0100
0001
,
1000
0001
0100
0010
,
1000
0000
0100
0000
0010
0000
0001
1000
,
0001
0010
0100
1000
,
0001
0100
0010
1000
,
0001
1000
0010
0100
,
0001
1000
0010
0000
0100
0001
1000
0000
,
0011
0100
1000
0010
,
1010
0100
0001
1000
,
1001
0001
0010
0100
,
1100
1000
0101
0001
,
0110
0000
1000
0001
1000
0000
0010
0000
,
0110
0000
0001
1000
0001
0000
0100
0000
,
0010
1000
0100
0000
0010
0001
0100
0000
,
1001
0000
0110
0000
2002
0000
0000
3003
,
0001
0010
0100
1000
,
0001
0100
0001
0000
1000
0100
1000
0000
,
0001
0100
0010
1000
,
0001
0010
0001
0000
1000
0010
1000
0000
,
0001
0010
0100
0010
,
0001
0010
0001
0000
1000
0100
1000
0000
,
0001
0100
0010
1000
,
1010
1001
0011
1001
,
1000
0100
0010
0001
,
1000
0010
1000
0000
0001
0010
0001
0000
,
1000
0010
0100
0001
,
1000
0100
1000
0000
0001
0100
0001
0000
,
1000
0000
0100
0000
0010
0001
0100
0000
,
0001
0000
0010
0000
0100
1000
0010
0000
,
1000
0010
0100
0001
,
0101
1001
1100
1001
,
1000
0100
0010
0000
0001
0010
0100
1000
,
0002
0000
0000
0003
,
1001
0000
1000
0100
0010
0001
0100
0000
,
0001
0000
0010
0000
0100
1000
0100
1000
,
0001
0000
0000
0000
0100
0000
0000
0000
0010
0000
0000
1000
0000
0000
0010
0000
,
1000
0000
0000
0001
0000
0000
0100
0000
0001
0000
0010
0000
0100
0000
1000
0000
,
1001
0000
1000
0100
,
0010
0000
0001
0010
0100
1000
0001
0000
,
1000
0100
0010
0001
1000
0010
0100
0001
,
2000
0000
0000
3000
,
0002
0000
0000
0000
,
0203
0000
0000
0300
,
0010
0010
0000
1010
0000
1001
0000
0011
,
0000
0001
0010
0100
1000
0001
1000
0000
,
0001
0100
0010
0100
,
0001
0100
0001
0000
1000
0010
1000
0000
,
0001
0010
0100
1000
,
1100
1001
0101
1001
,
1000
0010
0100
0001
,
1000
0100
1000
0000
0001
0100
0001
0000
,
1000
0100
0010
0001
,
1000
0010
1000
0000
0001
0010
0001
0000
,
1000
0000
0010
0000
0100
0001
0010
0000
,
0001
0000
0100
0000
0010
1000
0100
0000
,
1000
0100
0010
0001
,
0011
1001
1010
1001
,
1000
0010
0100
0000
0001
0100
0010
1000
,
0002
0000
0000
0003
,
0001
1000
0000
0110
0000
1001
0000
0110
,
0000
0001
0010
0100
1000
0000
1001
0000
,
0001
1000
0010
0100
,
0001
0000
0010
0000
0100
1000
0100
0000
,
1000
0001
0100
0010
,
1000
0000
0100
0010
0001
1000
0001
0000
,
1010
0000
0100
0000
0011
0000
0100
1000
,
0010
0101
0010
1100
,
0110
0000
1001
0000
,
1000
0001
0100
0010
0000
1000
0001
1000
,
0001
0000
0000
0000
;

//--------------- dance-single - TiKAL jun-style ----------------
#NOTES:
     dance-single:
     TiKAL jun-style:
     Hard:
     10:
     0.925,1,0.578,0.361,0.275:
0000
0000
0000
0000
,
0000
0000
0000
0000
,
1000
0100
0010
0010
0010
0001
0100
0020
,
0000
0130
0001
1000
0100
0000
0110
0000
,
0001
0010
0100
0100
0100
1000
0010
0200
,
0000
0000
0301
0000
0010
0000
0100
0000
0010
0000
0001
1000
0001
0000
0000
0000
,
0001
0100
0010
0010
0010
1000
0100
0020
,
0000
0130
1000
0001
0100
0000
0110
0000
,
1010
0010
1000
0000
0011
0010
0001
0000
,
1000
0000
0010
0000
0100
0000
0001
0000
0010
0000
0100
1000
0001
0000
1000
0000
,
1000
0100
0001
0100
1000
0000
0001
0000
,
1000
0010
0100
0001
0100
0010
0010
0000
,
1000
0000
0100
0010
0001
0000
1000
0000
,
0001
0010
0100
1000
0001
0100
0100
0000
,
0001
0010
1000
0010
0001
0000
1000
0000
,
0001
0100
0010
1000
0010
0100
0100
0000
,
0001
0000
0010
0100
1000
0000
0001
0000
,
1000
0000
0100
0000
0010
0000
0001
0000
1000
0000
0010
0000
0100
0001
1000
0010
,
0100
0001
0010
0200
0000
0310
0100
2000
,
0000
3001
0100
0020
0000
1030
0001
1000
,
0100
0010
0001
0100
0000
0110
0000
1010
,
0000
0000
1001
0000
0000
0000
0011
0000
0000
0000
0110
0000
0000
0000
0100
1000
,
0001
0000
0100
0110
0010
0000
1001
0000
,
1100
0000
0100
0110
0010
0000
1001
0001
,
1000
0000
0100
0000
0010
0000
0001
1000
0001
0000
0100
0000
0010
0000
2000
0000
,
0000
0000
3001
0000
1000
0000
1001
0000
0000
0000
0001
0000
1000
0100
0010
0001
,
1000
0000
0100
1000
0001
0001
0001
0000
,
1000
0010
0100
0001
0100
0000
0010
1000
,
0001
0000
1001
0000
1000
0100
0000
0010
,
0001
0000
0010
0000
0100
0000
2000
0000
0000
0000
3001
1000
0001
0000
0100
0000
,
0010
0010
0100
0001
1000
1000
1000
0000
,
0001
0010
0100
1000
0001
1000
1000
0100
,
0010
0000
0011
0000
1100
1001
0000
0110
,
0000
0000
0001
0000
0010
0000
0100
0000
1000
0000
0001
1000
0001
0100
0010
1000
,
0001
0000
0010
0001
1000
1000
1000
0000
,
0001
0100
0010
1000
0010
0000
0100
0001
,
1000
0000
1001
0000
0001
0010
0000
0100
,
1000
0000
0100
0000
0010
0000
0002
0000
0000
0000
1003
0001
1000
0000
0010
0000
,
0100
0000
0000
0000
0001
0000
0100
0001
1000
0000
0100
0000
0010
0000
0002
0000
,
0000
1003
0010
0100
0001
2000
0000
3001
,
1001
0000
0000
0000
1000
0000
0100
0010
0100
0000
0010
0000
0001
0000
0101
0000
,
0000
0000
0110
0000
0000
0000
1010
0000
0000
0000
1000
0001
1000
0000
0000
0000
,
0001
0000
0010
0000
0100
0000
1000
0000
0001
0000
0100
0010
1000
0010
0100
0001
,
2000
0000
3100
0010
0002
0000
2000
3003
,
0110
0000
0000
0000
0001
0010
0100
1000
0001
0100
0010
1000
0001
1000
0100
0010
,
0002
0000
0000
0000
4003
0000
0000
0000
3001
0000
0001
0000
0100
0000
0010
0100
,
0020
0000
2030
0000
3002
0000
0203
0000
0301
0010
0000
0001
0000
1000
0100
0000
,
0010
0000
0001
1000
0100
0000
0100
0000
0020
0030
0100
1000
0001
0100
0010
1000
,
0002
0000
0000
1003
0100
0000
0100
0000
0010
0000
0100
1000
0001
0000
0200
0000
,
0000
0310
4000
0000
3001
0010
0100
0100
,
1000
0000
0002
0000
0203
0000
0320
0000
2030
0000
3002
0000
1003
0100
0010
0001
,
2000
0000
0000
3000
,
0001
0002
0000
0000
,
0203
0000
0000
0000
0000
0000
0000
0300
,
1010
1010
0000
1001
0000
0011
0000
0110
,
0000
0000
1000
0000
0100
0000
0010
0000
0001
0000
0100
0001
1000
0000
1000
0000
,
1001
0000
0001
0010
0100
0100
0100
0000
,
1000
0010
0100
0001
1000
0001
0001
0100
,
0010
0000
1010
0000
0101
1001
0000
0110
,
0000
0000
1000
0000
0010
0000
0100
0000
0001
0000
1000
0001
1000
0100
0010
0001
,
1000
0000
0010
1000
0001
0001
0001
0000
,
1000
0100
0010
0001
0010
0000
0100
1000
,
0001
0000
1001
0000
1000
0010
0000
0100
,
0001
0000
0100
0000
0010
0000
2000
0000
0000
0000
3001
1000
0001
0000
0010
0000
,
0100
0000
0000
0000
1000
0000
0100
1000
0001
0000
0100
0000
0010
0000
2000
0000
,
0000
3001
0010
0100
1000
0002
0000
1003
,
1001
0000
0000
0000
0001
0000
0100
0010
0100
0000
0010
0000
1000
0000
1100
0000
,
0000
0000
0110
0000
0000
0000
0011
0000
0000
0000
0001
1000
0001
0000
0000
0000
,
1000
0000
0010
0000
0100
0000
0001
0000
1000
0000
0100
0010
0001
0010
0100
1000
,
0002
0000
0103
0010
2000
0000
0002
3003
,
0100
0100
0010
0110
0000
0101
0000
1010
,
0000
0000
0001
0000
0010
0000
0100
0000
1000
0000
0001
0100
0010
0000
0010
0000
,
1000
0100
0010
0010
0010
0001
0100
0020
,
0000
0130
0001
1000
0100
0000
0110
0000
,
0001
0010
0100
0100
0100
1000
0010
0200
,
0000
0000
0301
0000
0010
0000
0100
0000
0010
0000
0001
1000
0001
0000
0000
0000
,
0001
0000
0100
0000
0010
0000
1000
0000
0010
0000
0100
0000
0001
0000
1000
0001
,
1000
0000
0100
0000
1000
0000
0001
0000
0100
0000
0010
0000
0100
0000
0001
1000
,
0001
0000
0010
0000
0100
0000
1000
0001
1000
0000
0100
0000
0010
0000
0001
0010
,
0001
0000
0010
0000
0100
1000
0200
0000
0000
0000
1300
0001
1000
0000
0001
0000
,
1001
0000
0000
0000
;
