#VERSION:0.82;
#TITLE:ガラテアの螺旋;
#SUBTITLE:;
#ARTIST:sasakure.UK;
#TITLETRANSLIT:GARATIA NO RASEN;
#SUBTITLETRANSLIT:;
#ARTISTTRANSLIT:;
#GENRE:;
#ORIGIN:;
#CREDIT:;
#BANNER:[Round F] - GARATIA NO RASEN.png;
#BACKGROUND:[Round F] - GARATIA NO RASEN-bg.png;
#PREVIEWVID:;
#JACKET:[Round F] - GARATIA NO RASEN-jacket.png;
#CDIMAGE:;
#DISCIMAGE:;
#LYRICSPATH:;
#CDTITLE:;
#MUSIC:[Round F] - GARATIA NO RASEN.ogg;
#OFFSET:-0.045000;
#SAMPLESTART:79.544975;
#SAMPLELENGTH:15.000000;
#SELECTABLE:YES;
#DISPLAYBPM:100.000000:200.000000;
#BPMS:0.000=200.000,
41.000=100.000,
54.000=200.000,
102.000=100.000,
123.000=200.000,
171.000=100.000,
173.000=200.000;
#STOPS:;
#DELAYS:;
#WARPS:;
#TIMESIGNATURES:0.000=4=4;
#TICKCOUNTS:0.000=4;
#COMBOS:0.000=1;
#SPEEDS:0.000=1.000=0.000=0;
#SCROLLS:0.000=1.000;
#FAKES:;
#LABELS:0.000=Song Start;
#BGCHANGES:;
#KEYSOUNDS:;
#ATTACKS:
;

//---------------dance-single - ----------------
#NOTEDATA:;
#CHARTNAME:;
#STEPSTYPE:dance-single;
#DESCRIPTION:;
#CHARTSTYLE:;
#DIFFICULTY:Challenge;
#METER:10;
#RADARVALUES:0.851115,1.000000,0.236287,0.607595,0.253165,606.000000,28.000000,72.000000,4.000000,0.000000,7.000000,0.000000,0.000000,0.851115,1.000000,0.236287,0.607595,0.253165,606.000000,28.000000,72.000000,4.000000,0.000000,7.000000,0.000000,0.000000;
#CREDIT:;
#DISPLAYBPM:100.000000:200.000000;
#NOTES:
// measure 0
0000
0000
0000
0000
,  // measure 1
0000
0000
0000
0000
,  // measure 2
0000
0000
0000
0000
,  // measure 3
0000
0000
0000
0000
,  // measure 4
0000
0000
0000
0000
,  // measure 5
0000
0000
1000
0001
0100
0001
0020
0031
,  // measure 6
0000
1010
0000
0001
0011
0000
0100
0010
,  // measure 7
1000
0000
1000
0000
0001
0000
0010
0000
0100
0000
1000
0000
0001
0100
0020
0000
,  // measure 8
0000
1030
0200
0000
1300
0001
0010
0001
,  // measure 9
0100
0010
1000
0100
0010
0100
1000
0001
,  // measure 10
1000
0000
0001
0000
1000
0002
0000
0100
0000
0103
0020
0000
0000
0000
0000
0000
,  // measure 11
1030
0100
1000
0100
1000
0001
0100
0001
0100
0001
1000
0100
1000
0002
0000
0010
,  // measure 12
0000
0013
0200
0000
0000
0000
0000
0000
2300
0000
3020
0000
0230
0000
0302
0000
,  // measure 13
0023
0000
0000
0000
0430
0000
0000
0000
1300
0010
1000
0000
0001
0010
0001
0000
0010
0000
0000
0000
0100
0000
0000
0000
1000
0000
0000
0000
0000
0000
0000
0000
,  // measure 14
0001
1000
0010
0000
1000
0001
0100
0020
,  // measure 15
0100
0000
1000
0000
0130
0001
0010
0000
,  // measure 16
0010
0100
1000
0100
0010
0001
0100
0000
,  // measure 17
0001
1000
0100
0010
0011
0001
1000
0020
,  // measure 18
0000
2030
0000
3200
0000
0320
0000
0032
,  // measure 19
0000
0000
1003
0010
0200
0000
0000
0000
0001
0000
0000
0000
0010
0000
0000
0000
,  // measure 20
0301
0100
0001
0100
0001
1000
0001
1000
,  // measure 21
0010
1000
0100
1000
0100
0010
0001
0010
,  // measure 22
0001
1000
0001
0100
0010
1000
0100
0010
,  // measure 23
0001
0100
0001
1000
0010
1000
0100
1000
,  // measure 24
0001
1000
0001
0010
0001
0100
1000
0100
,  // measure 25
0001
0000
0010
0000
1000
0000
0100
0000
0002
0000
0000
1000
0003
1000
0200
0000
,  // measure 26
0320
0000
0230
0000
2300
0000
0000
0001
3000
0001
0020
0000
0032
0000
0203
0000
,  // measure 27
0010
0320
2030
3002
0203
0302
0023
1000
,  // measure 28
0001
0000
0230
0000
0001
0000
1300
0000
0001
0000
0001
0100
0000
0100
0020
0000
,  // measure 29
2030
0000
3002
0000
0023
0000
0001
0000
0130
0000
1001
0000
0001
0100
1000
0000
,  // measure 30
0100
0001
0010
0000
0010
0000
0001
1000
0100
0000
0400
0000
0310
0000
0001
0000
,  // measure 31
0100
0002
0000
2003
0000
3020
0000
0230
,  // measure 32
0000
0000
0302
0000
0000
0000
0103
0010
2000
0000
0000
0000
0010
0000
0000
0000
,  // measure 33
0100
0000
3001
0100
0010
0100
0001
1000
,  // measure 34
0001
0010
0100
0010
0001
1000
0100
1000
,  // measure 35
0001
0000
0010
0000
0001
0100
0001
0000
1000
0010
1000
0000
0001
1000
0002
0000
,  // measure 36
0000
0013
0100
0010
0001
0100
0010
1000
,  // measure 37
0100
0010
1000
0010
0002
0103
0010
1000
,  // measure 38
0001
0000
0001
0000
0100
0000
0100
0000
0010
0000
0010
0000
1000
0100
1000
0100
,  // measure 39
1000
2100
0000
3100
0010
0012
0000
0103
,  // measure 40
0110
0010
0000
1010
0000
0101
0000
0001
,  // measure 41
1000
0100
0010
1000
0000
0010
0001
0001
,  // measure 42
0100
1000
0100
0000
1000
4004
0000
0000
,  // measure 43
0000
0000
0000
3003
0220
0000
0000
0000
0000
0000
0000
0000
0000
0000
0000
0000
,  // measure 44
0000
0000
0000
0000
,  // measure 45
0330
0000
1000
0100
0000
2100
0000
3001
,  // measure 46
0020
0000
0000
0031
1000
0001
0100
0001
,  // measure 47
0000
0102
0000
1003
0020
0000
0000
0000
,  // measure 48
1030
0000
0001
0100
0010
0100
0001
1000
,  // measure 49
0100
1000
0010
0100
0001
0010
0001
1000
,  // measure 50
0010
0100
0001
0100
0010
1000
0100
1000
,  // measure 51
0002
0000
1003
0010
0000
2010
0000
3001
,  // measure 52
0200
0000
0000
0301
1000
0100
0010
0001
,  // measure 53
0000
0012
0000
0013
0100
0000
0100
0000
,  // measure 54
0010
0000
0001
0001
1000
0001
0010
0001
,  // measure 55
2000
3100
0002
0103
2000
3100
0010
0010
,  // measure 56
0010
0001
0001
0001
1000
1000
0100
0010
,  // measure 57
0001
0010
0100
0100
0000
1100
0000
0001
,  // measure 58
0020
0000
0031
0100
0010
1000
0010
0010
,  // measure 59
0000
1010
0000
0001
0200
0000
1000
0000
,  // measure 60
0301
0000
0001
1000
0010
1000
0100
0010
,  // measure 61
0100
1000
0010
0100
0001
1000
0001
0100
,  // measure 62
0010
0000
0100
0000
0001
0000
0010
0000
0100
1000
0100
0000
0010
0001
0010
0000
,  // measure 63
0002
0000
1003
0100
0000
0011
0000
1000
,  // measure 64
0020
0000
1030
0001
1000
0100
0010
0001
,  // measure 65
0000
0101
0000
1000
0020
0000
0001
0000
,  // measure 66
1030
0000
2002
3003
0010
1000
0100
0010
,  // measure 67
0100
1000
0010
0100
0001
0010
0110
0000
,  // measure 68
0010
0001
0100
0010
0100
1000
0100
0010
,  // measure 69
0100
0001
0100
0010
1000
0100
1000
0001
,  // measure 70
1000
0000
0100
0010
0001
0000
0010
0000
0001
0000
1000
0000
0001
0000
0100
0000
,  // measure 71
0000
0100
0010
1000
0001
0010
0001
1000
,  // measure 72
0010
0000
1000
0000
0001
0000
0100
0000
0001
0010
0001
0000
1000
0100
1000
0000
,  // measure 73
0001
0100
0010
0000
0000
0000
0101
0000
0000
0000
1010
0000
0001
0000
0010
0000
,  // measure 74
0000
0000
0010
0100
1000
0100
0000
0000
2200
0000
3300
0000
0011
0000
0001
0000
,  // measure 75
1000
0100
0010
0001
0100
0010
1000
0010
,  // measure 76
1000
0000
0001
0000
0010
0100
0010
0000
0001
0000
0100
0000
0000
0000
1000
0000
,  // measure 77
0100
0000
1000
1000
0010
0100
0001
0100
,  // measure 78
0010
0000
0100
0000
0001
0010
0100
0000
0000
0000
1000
0000
0010
0000
0000
0000
,  // measure 79
1000
0001
0100
0010
1000
0001
0020
0130
,  // measure 80
1000
0001
4000
3040
0430
0301
0000
0001
,  // measure 81
1000
0100
1000
0010
0100
0001
MMMM
1100
,  // measure 82
0000
0101
0000
1001
1000
0010
0100
0001
,  // measure 83
0000
0001
0010
0000
0001
0100
1000
0000
,  // measure 84
0100
0000
0010
1000
0010
0000
0010
0000
0100
0000
0100
0000
0001
0000
0001
0000
,  // measure 85
1000
0000
0010
0000
1000
0000
0010
0000
1000
0000
0010
0000
1000
0001
1000
0000
,  // measure 86
0001
1000
0001
0000
0100
0010
0100
0000
0010
0100
0010
0000
1000
0001
1000
0000
,  // measure 87
0001
1000
0001
0000
0010
0100
0010
0000
0100
0010
0100
0000
1000
0100
1000
0100
,  // measure 88
0010
0001
0010
0001
1000
0010
1000
0010
0100
0001
0100
0001
2000
0000
0000
0000
,  // measure 89
3000
0000
0000
0000
;
