#TITLE:BAD_INFLUENCE;
#SUBTITLE:(Benjamin Briggs Remix);
#ARTIST:halc;
#TITLETRANSLIT:;
#SUBTITLETRANSLIT:;
#ARTISTTRANSLIT:;
#GENRE:;
#CREDIT:;
#BANNER:BAD_INFLUENCE (Benjamin Briggs Remix).png;
#BACKGROUND:BAD_INFLUENCE (Benjamin Briggs Remix)-bg.png;
#LYRICSPATH:;
#CDTITLE:;
#MUSIC:BAD_INFLUENCE (Benjamin Briggs Remix).ogg;
#OFFSET:0.017772;
#SAMPLESTART:52.382381;
#SAMPLELENGTH:17.454552;
#SELECTABLE:YES;
#BPMS:0.000000=110.000000
;
#STOPS:
;
#BGCHANGES:;
#KEYSOUNDS:;
#ATTACKS:;

//---------------dance-single - ----------------
#NOTES:
     dance-single:
     :
     Hard:
     7:
     0.342997,0.416442,0.021827,0.218271,0.061843,330.000000,327.000000,3.000000,30.000000,0.000000,0.000000,0.342997,0.416442,0.021827,0.218271,0.061843,330.000000,327.000000,3.000000,30.000000,0.000000,0.000000:
// measure 0
0000
0000
0000
0000
,  // measure 1
0000
0000
0000
0000
,  // measure 2
0000
0000
0000
0000
,  // measure 3
0000
0000
0000
0000
,  // measure 4
2000
0000
0100
0000
0000
0000
3100
2000
,  // measure 5
0001
0000
0010
0000
0000
0000
3010
2000
,  // measure 6
0001
0100
0000
0100
,  // measure 7
0000
0000
3100
0000
0000
0100
1000
0001
,  // measure 8
0100
0010
0100
0001
0000
1000
0200
0000
,  // measure 9
0320
0000
0001
0000
0000
0000
0130
0010
,  // measure 10
0001
0000
1000
0001
0000
2000
0010
0000
,  // measure 11
3001
1000
0100
0010
0000
0010
0100
0010
,  // measure 12
0001
1000
0001
0100
0000
0010
0000
0101
,  // measure 13
0000
1020
0000
0000
0000
0000
0130
0010
,  // measure 14
1000
0000
0001
1000
0000
0002
0010
0000
,  // measure 15
0000
0000
0000
0000
1000
0000
0000
0000
0000
0000
0000
0000
0103
0000
0001
0100
,  // measure 16
0001
0000
0001
1000
0000
1000
0100
0000
,  // measure 17
0010
0000
0000
0000
0100
0000
1000
0000
0000
0000
1000
0000
0001
0000
0100
0001
,  // measure 18
0100
0001
0100
0010
1000
0010
0010
0000
,  // measure 19
1000
0010
0100
0010
1000
0001
0000
0001
,  // measure 20
1000
0000
0000
0000
0100
0000
1000
0100
1000
0000
0000
0000
1000
0000
0200
0000
,  // measure 21
0010
0000
0001
0000
0310
0000
0010
0100
,  // measure 22
1000
0000
0001
0000
1000
0001
0010
0001
,  // measure 23
1000
0000
0010
0000
0001
0000
0010
0000
1000
0000
0000
0000
0001
0000
1000
0001
,  // measure 24
1000
0000
1000
0001
0000
0001
0020
0000
,  // measure 25
0230
0000
0000
0000
0010
0000
0010
0000
0000
0000
1000
0000
1300
0000
0100
1000
,  // measure 26
0100
1000
0100
0010
0001
0020
0001
0000
,  // measure 27
0130
0010
0001
2000
0010
0010
3001
1000
,  // measure 28
0100
0000
0010
0000
0100
0000
1000
0100
1000
0000
0001
0000
0100
0000
0002
0000
,  // measure 29
0100
0203
0001
0000
0310
0000
0010
0100
,  // measure 30
0001
0000
1000
0001
0000
2000
0100
0100
,  // measure 31
3001
1000
0001
0100
0010
0000
1000
0010
,  // measure 32
0100
0010
1000
0001
0000
0010
0000
1000
,  // measure 33
0000
0001
0100
1000
0100
0100
0000
1000
,  // measure 34
0100
0000
0100
0010
0000
0010
0100
1000
,  // measure 35
0000
0000
0000
0000
0100
0000
0000
0000
0000
0000
0000
1000
0000
0000
0000
0000
0001
0000
0000
0000
0000
0000
0001
0000
0000
0000
0000
0000
1000
0000
0000
0000
,  // measure 36
0010
0000
0000
0000
0100
0000
0010
0000
1000
0000
0000
0100
0000
0000
0001
0000
,  // measure 37
0000
1000
0010
0001
0010
0010
0000
0001
,  // measure 38
0010
0000
0010
0100
0000
0100
0000
1000
,  // measure 39
0000
1000
0000
0001
0000
0001
0100
0010
,  // measure 40
2000
0000
0010
0000
0000
0000
3010
2000
,  // measure 41
0001
0000
0100
0000
0000
0000
3100
2000
,  // measure 42
0001
0010
0000
0010
,  // measure 43
0000
0000
3010
0000
0000
0010
1000
0001
,  // measure 44
0020
0000
0100
0000
0000
0000
0130
0020
,  // measure 45
1000
0000
0100
0000
0000
0000
0130
0020
,  // measure 46
0001
0100
0000
0130
,  // measure 47
0000
0000
0000
0000
0100
0000
0010
0100
0010
0100
0010
0000
0001
0000
0010
0001
,  // measure 48
0010
0000
0001
1000
0000
1000
0020
0000
,  // measure 49
0230
0000
0000
0000
0010
0000
0010
0000
0000
0000
0001
0000
0301
0000
0100
0001
,  // measure 50
0100
0001
0100
0010
1000
0020
1000
0000
,  // measure 51
0130
0000
0010
0000
1000
0000
0002
0000
0010
0000
0010
0000
1003
0000
0001
1000
,  // measure 52
0001
0000
1000
0000
0010
0000
0100
0010
0100
0000
0001
0000
0100
0000
0002
0000
,  // measure 53
0100
0203
0001
0000
0310
0000
0010
0100
,  // measure 54
0001
0000
1000
0001
0000
2000
0100
0100
,  // measure 55
3001
0000
1000
0000
1010
0000
0000
0000
0100
0010
0100
0000
0010
0000
1000
0010
,  // measure 56
1000
0001
0010
0000
1000
0100
0001
0000
,  // measure 57
0001
0100
1000
0000
0010
0001
1000
0000
,  // measure 58
1000
0001
0100
0000
1000
0010
0001
0000
,  // measure 59
0001
0010
1000
0000
0100
0001
1000
0000
,  // measure 60
0001
0020
0130
0000
0000
0000
0000
0000
;

//---------------dance-single - ----------------
#NOTES:
     dance-single:
     :
     Medium:
     4:
     0.216192,0.284934,0.094584,0.189168,0.000000,208.000000,195.000000,13.000000,26.000000,0.000000,0.000000,0.216192,0.284934,0.094584,0.189168,0.000000,208.000000,195.000000,13.000000,26.000000,0.000000,0.000000:
0000
0000
0000
0000
,
0000
0000
0000
0000
,
0000
0000
0000
0000
,
0000
0000
0000
0000
,
2000
0000
0000
0000
0000
0000
0000
0002
,
0000
0000
0000
0000
0000
0000
3000
0200
,
0000
0000
0000
0000
,
0000
0000
0303
0000
0000
0001
1000
0000
,
0001
0000
0001
1000
0000
1000
0200
0000
,
0002
0000
0303
0001
,
0100
0000
1000
0100
0000
2000
0000
0000
,
0000
0000
0000
3001
0000
0000
0001
0000
,
1000
0000
0001
0100
0000
0010
0000
0002
,
0000
0020
0000
0000
0003
0000
0130
0000
,
0001
0000
0001
1000
0000
0220
0000
0000
,
0000
0000
0000
0330
,
0010
1000
0000
1000
0000
0100
0000
0100
,
0000
0001
0000
0001
0000
0010
0000
0010
,
1000
0100
0001
0100
,
1000
0100
0010
0001
,
1000
0001
0000
0001
0100
0000
1000
0000
,
0200
0000
0001
0000
0310
0000
0010
0100
,
0000
0000
0000
0000
0000
0010
1000
0000
,
0001
0010
1000
0100
,
0001
0000
0001
1000
0000
1000
0200
0000
,
0310
0000
0010
0100
0000
0100
1000
0000
,
1000
0000
0001
0100
0000
0020
0000
0000
,
0000
0031
0010
1000
,
0001
0000
1000
0100
0000
0010
0000
1000
,
0000
0020
0000
0000
1030
0000
0010
0000
,
0001
0000
0001
0100
0000
2001
0000
0000
,
0010
0010
3001
1000
,
0001
0011
1000
1010
,
0001
0000
0101
0000
0010
0100
0000
0100
,
0001
0000
0001
1000
0000
1000
0000
0100
,
0000
0100
0000
0010
0000
0100
0000
1000
,
0001
0101
1000
1010
,
0001
0000
0011
0000
0100
0010
0000
0010
,
0001
0000
0001
1000
0000
1000
0000
0010
,
0000
0010
0000
0100
0000
0100
0010
0000
,
2000
0000
0000
0000
0000
0000
0000
0002
,
0000
0000
0000
0000
0000
0000
3000
0020
,
0000
0000
0000
0000
,
0000
0000
0033
0000
0000
0001
1000
0000
,
0020
0000
0000
0000
0000
0000
0000
0200
,
0000
0000
0000
0000
0000
0000
0030
0002
,
0000
0000
0000
0000
,
0303
0000
0110
0100
0001
0000
1001
0000
,
1000
0000
1000
0001
0000
0001
0020
0000
,
0130
0000
0100
0010
0000
0010
0001
0000
,
0001
0000
1000
0010
0000
0200
0000
0000
,
0000
1300
0100
0001
,
1000
0000
0001
0010
0000
0100
0000
0001
,
0000
0200
0000
0000
0301
0000
0100
0000
,
1000
0000
1000
0010
0000
2001
0000
0000
,
3100
0000
1001
0000
0001
0001
1001
0000
,
1000
0010
0001
0100
,
0010
0100
0010
0010
,
0001
0100
1000
0010
,
0100
0010
0100
0100
,
2000
3001
0000
0000
;

//---------------dance-single - ----------------
#NOTES:
     dance-single:
     :
     Easy:
     3:
     0.202680,0.241098,0.029103,0.116411,0.000000,195.000000,191.000000,4.000000,16.000000,0.000000,0.000000,0.202680,0.241098,0.029103,0.116411,0.000000,195.000000,191.000000,4.000000,16.000000,0.000000,0.000000:
0000
0000
0000
0000
,
0000
0000
0000
0000
,
0000
0000
0000
0000
,
0000
0000
0000
0000
,
1000
0001
0000
0001
,
0001
0100
0000
0100
,
0010
1000
0000
1000
,
0000
1000
0000
1000
,
0001
0100
1000
0200
,
0002
0000
0303
0001
,
0001
0100
0010
0020
,
0000
0000
0230
0302
,
1003
0100
0001
0100
,
2000
0002
3003
0001
,
0001
1000
0010
0220
,
0000
0000
0000
0330
,
0010
0000
0000
0010
0000
0000
0000
0000
,
1000
0000
0000
1000
0000
0000
0000
0000
,
0001
0001
1000
1000
,
0100
0010
0001
1000
,
0001
0000
0001
0100
,
0010
0000
0010
1000
,
0001
0000
0000
1000
,
0100
0001
0100
1000
,
0001
0000
0000
0001
0000
0000
0100
0000
,
0010
0000
0000
0010
0000
0000
0100
0000
,
0010
1000
0100
0020
,
0130
0010
0001
0100
,
0010
0001
0010
1000
,
0002
0023
1000
0130
,
0100
0010
0001
1000
,
0001
0100
1000
0100
,
0010
0010
1000
1000
,
0001
0001
0010
0100
,
1000
1000
0001
0001
,
0100
0100
0010
0100
,
0001
0001
1000
1000
,
0100
0100
0010
0100
,
1000
1000
0001
0001
,
0100
0100
0010
0100
,
0001
1000
0000
1000
,
1000
0100
0000
0100
,
0010
0001
0000
0001
,
0000
0001
0000
0001
,
0100
0010
0000
0010
,
1000
0001
0000
0001
,
0010
0100
0000
0100
,
0000
0100
1000
1001
,
1000
0000
0000
1000
0000
0000
0010
0000
,
0100
0000
0000
0100
0000
0000
0010
0000
,
0100
0001
0010
0200
,
0310
0100
1000
0010
,
0100
1000
0100
0001
,
2000
3200
0001
0310
,
0010
0100
1000
0001
,
0100
1001
0010
1001
,
1000
0100
0001
0100
,
0010
0100
0001
0100
,
1000
0010
0001
0010
,
0100
0010
0001
0010
,
2000
3001
0000
0000
;

//---------------dance-single - ----------------
#NOTES:
     dance-single:
     :
     Beginner:
     1:
     0.075875,0.109590,0.000000,0.138238,0.000000,73.000000,73.000000,0.000000,19.000000,0.000000,0.000000,0.075875,0.109590,0.000000,0.138238,0.000000,73.000000,73.000000,0.000000,19.000000,0.000000,0.000000:
0000
0000
0000
0000
,
0000
0000
0000
0000
,
0000
0000
0000
0000
,
0000
0000
0000
0000
,
0100
0000
0000
0000
,
0001
0000
0000
0000
,
2000
0000
0000
0000
,
0000
3000
0000
1000
,
1000
0000
0000
0000
,
0010
0000
0000
0000
,
0001
0000
0000
0000
,
0001
0000
0001
0000
,
0001
0000
0000
0000
,
0100
0000
0000
0000
,
1000
0000
0000
0000
,
1000
0000
0000
0000
,
0002
0000
0000
0003
0000
0000
0000
0000
,
2000
0000
0000
3000
0000
0000
0000
0000
,
0001
0000
0001
0000
,
0100
0000
0100
0000
,
0010
0000
0000
0000
,
1000
0000
0000
0000
,
0001
0000
0000
0000
,
0001
0000
0000
0000
,
2000
0000
3000
0000
,
0200
0000
0300
0000
,
0020
0000
0030
0000
,
0010
0000
0010
0000
,
0002
0000
0003
0000
,
2000
0000
3000
0000
,
0020
0000
0030
0000
,
0010
0000
0000
0000
,
0100
0000
0100
0000
,
0001
0000
0001
0000
,
0010
0000
0010
0000
,
1000
0000
1000
0000
,
0010
0000
0010
0000
,
1000
0000
1000
0000
,
0100
0000
0100
0000
,
0010
0000
0020
0030
,
0100
0000
0000
0000
,
0001
0000
0000
0000
,
2000
0000
0000
0000
,
0000
3000
0000
1000
,
1000
0000
0000
0000
,
0100
0000
0000
0000
,
0020
0000
0000
0000
,
0000
0030
0010
0000
,
0001
0000
0000
0000
,
0200
0000
0300
0000
,
0020
0000
0030
0000
,
0010
0000
0010
0000
,
2000
0000
3000
0000
,
0002
0000
0003
0000
,
0020
0000
0030
0000
,
0010
0000
0100
0100
,
0200
0000
0000
0000
,
0000
0000
0000
0300
,
0100
0000
1000
0000
,
0010
0000
0001
0000
,
0200
0300
0000
0000
;
