#TITLE:We Are Number One;
#SUBTITLE:but it's a half-assed simfile tycoon submission;
#ARTIST:Robbie Rotten;
#TITLETRANSLIT:;
#SUBTITLETRANSLIT:;
#ARTISTTRANSLIT:;
#GENRE:Villainous Ska;
#CREDIT:;
#BANNER:[Round E] - We Are Number One.png;
#BACKGROUND:[Round E] - We Are Number One-bg.png;
#LYRICSPATH:;
#CDTITLE:cdtitle.png;
#MUSIC:[Round E] - We Are Number One.ogg;
#OFFSET:2.592102;
#SAMPLESTART:5.930416;
#SAMPLELENGTH:11.851852;
#LASTBEATHINT:2.137627;
#SELECTABLE:YES;
#DISPLAYBPM:81.000000:162.000000;
#BPMS:0.000000=81.000000
,11.000000=162.000000
,44.000000=81.000000
,48.000000=162.000000
,84.000000=324.000000
,90.000000=162.000000
,103.000000=81.000000
,104.000000=162.000000
,186.000000=324.000000
,188.000000=81.000000
,195.000000=162.000000
,213.500000=324.000000
,216.500000=81.000000
,219.000000=162.000000
;
#STOPS:104.000000=0.370000,
354.000000=0.741000
;
#BGCHANGES:3.125=[Round E] - We Are Number One.avi=1.000=1=0=0=StretchNoLoop==CrossFade==,
99999=-nosongbg-=1.000=0=0=0 // don't automatically add -songbackground-
;
#KEYSOUNDS:;
#ATTACKS:;

//---------------dance-single - ----------------
#NOTES:
     dance-single:
     :
     Challenge:
     9:
     0.625977,0.692879,0.593669,0.607804,0.229693,620.000000,534.000000,84.000000,86.000000,39.000000,1.000000,0.625977,0.692879,0.593669,0.607804,0.229693,620.000000,534.000000,84.000000,86.000000,39.000000,1.000000:
// measure 0
0000
0000
0000
0000
,  // measure 1
0000
0000
0000
0000
,  // measure 2
0000
0000
0000
0000
0000
0000
1001
M00M
,  // measure 3
0201
0000
0000
0000
0310
0000
1000
0000
0001
0010
0001
0010
0001
0000
1000
0000
,  // measure 4
1010
0000
0101
0000
0001
0100
1000
0100
,  // measure 5
0110
0101
1001
0011
,  // measure 6
0001
0010
1000
0010
0001
0000
1001
M00M
,  // measure 7
1200
0000
0000
0000
0310
0000
0001
0000
1000
0010
1000
0010
1000
0000
0001
0000
,  // measure 8
0011
0000
1100
0000
1000
0100
0001
0100
,  // measure 9
0110
1100
1010
0101
,  // measure 10
1000
0010
0001
0010
1000
0000
0001
1000
,  // measure 11
0100
0000
0000
0000
,  // measure 12
0010
0001
1000
0001
0100
0010
1000
0001
,  // measure 13
2000
0000
3100
0002
0000
0103
1000
0001
,  // measure 14
1000
0010
0001
0010
1000
0100
0010
0001
,  // measure 15
0200
0000
0310
2000
0000
3001
0001
1000
,  // measure 16
0010
0100
0001
1000
0100
0010
0100
1000
,  // measure 17
0002
0000
0000
0000
0103
0000
2000
0000
0000
0000
3100
0010
0100
0000
0001
0000
,  // measure 18
1000
0100
0001
0100
0010
0001
0100
0010
,  // measure 19
2000
0000
0000
3001
0000
0000
0020
0000
0000
0000
0130
0000
0100
0000
1000
0000
,  // measure 20
0010
0000
0100
0000
0010
0000
0100
0000
0010
0000
0100
0000
0010
0000
0400
0040
,  // measure 21
0000
0000
0000
0000
,  // measure 22
0000
0000
0330
0001
,  // measure 23
1000
1000
0100
1000
0001
0000
1000
0010
,  // measure 24
0100
0100
0010
0000
1001
0000
1000
0000
,  // measure 25
0100
0100
0001
0100
1000
0000
0220
0000
,  // measure 26
0330
0MM0
0000
0000
0000
0000
0000
0000
0000
0000
0000
0000
0000
0000
0000
0000
0000
0000
M000
0000
0000
0000
0000
0000
0000
0000
0000
0000
0000
0000
0000
0000
0000
0000
0000
0000
000M
0000
0000
0000
0000
0000
0000
0000
0000
0000
0000
0000
0000
0000
0000
0000
0000
0000
0000
0000
0000
0000
0000
0000
0000
0000
0000
0000
0000
0000
0000
0000
0000
0000
0000
0000
0000
0000
0000
0000
0000
0000
M000
0000
0000
0000
0000
0000
00M0
0000
0000
0000
0000
0000
0000
0000
0000
0000
0000
0000
0000
0000
0000
0000
0000
0000
0000
0000
0000
0000
0000
0000
0000
0000
0000
0000
0000
0000
0000
0000
0000
0000
0000
0000
0M00
0000
0000
0000
0000
0000
000M
0000
0000
0000
0000
0000
0000
0000
0000
0000
0000
0000
0000
0000
0000
0000
0000
0000
0000
0000
0000
0000
0000
0000
M000
0000
0000
0000
0000
0000
0000
0000
0000
0000
0000
0000
0000
0000
0000
0000
0000
0000
0M00
0000
0000
0000
0000
0000
0000
0000
0000
0000
0000
0000
00M0
0000
0000
0000
0000
0000
0000
0000
0000
0000
0000
0000
,  // measure 27
000M
0000
0M00
0000
00M0
0000
M000
0000
0M0M
M000
00M0
0000
0000
0000
0000
0000
0011
0000
0000
0000
0000
0000
0000
0000
1100
0000
0000
0000
1000
0000
0000
0000
,  // measure 28
0001
0100
0010
1000
0200
0000
0000
0000
0310
0000
0001
0000
1000
0010
1000
0010
,  // measure 29
1000
0001
0011
0000
1100
0000
0001
0100
,  // measure 30
1000
0100
0101
0000
1001
0000
0011
0000
,  // measure 31
0110
0000
1000
0100
0001
0100
1000
0001
,  // measure 32
1001
0000
M00M
0000
0201
0000
0000
0000
0310
0000
1000
0000
0001
0010
0001
0010
,  // measure 33
0001
1000
1010
0000
0101
0000
1000
0100
,  // measure 34
0001
0100
1100
0000
1010
0000
0101
0000
,  // measure 35
0011
0000
0000
0000
0001
0000
0100
0000
1000
0000
0100
0000
0001
0100
0000
0001
,  // measure 36
1000
0000
0000
0000
1000
0000
0100
0000
0001
0000
1000
0000
0010
0000
0001
1000
,  // measure 37
0001
1000
0001
1000
0002
0000
0000
0000
1003
0000
0010
0000
0100
0001
0100
0001
,  // measure 38
0100
0001
0011
0000
1100
0000
0001
0100
,  // measure 39
1000
0100
0101
0000
1010
0000
1100
0000
,  // measure 40
0011
0000
0000
0000
1000
0000
0010
0000
0001
0000
0010
0000
1000
0010
0000
1000
,  // measure 41
0001
0000
0000
0000
0010
0000
0000
0010
0000
0000
0020
0000
0000
0000
0000
0000
,  // measure 42
0000
0130
0010
0001
1000
0001
0100
0010
,  // measure 43
1000
0001
0010
0100
1000
0001
1000
0010
,  // measure 44
0100
0001
0010
0001
0100
0010
1000
0100
,  // measure 45
1000
0010
0100
0001
1000
0100
0010
0001
,  // measure 46
0100
0010
1010
0000
M00M
0000
0000
0000
,  // measure 47
2002
3003
0000
0000
0000
0000
0000
0000
,  // measure 48
0000
0000
0000
0000
0000
0000
0000
0000
0000
0000
0000
0000
0000
0000
0000
1000
0001
0000
1000
0000
0001
0000
1000
0000
0100
0000
0000
0000
0010
0000
0000
0000
,  // measure 49
0100
1000
0001
0100
0010
0100
0002
0000
,  // measure 50
1003
0200
0000
0301
0100
0010
0001
1000
,  // measure 51
0010
0100
0010
1000
0001
0010
1000
0020
,  // measure 52
0000
0032
0000
0103
0010
2002
0000
0000
,  // measure 53
0000
0000
0000
0000
0000
3003
MMMM
0000
0000
0000
0000
0000
0000
0000
0000
0000
,  // measure 54
0000
1111
0000
0000
0000
0000
1010
0000
,  // measure 55
0101
0000
0001
0000
1000
0100
0010
0001
2000
0000
0000
0000
3010
0000
0100
0000
,  // measure 56
0001
1000
0001
1000
0001
0000
0010
0000
0011
0000
0000
0000
1100
0000
0000
0000
,  // measure 57
1000
0010
0100
0001
0020
0000
2030
0000
,  // measure 58
3020
0000
0032
0000
0103
1000
0100
0001
,  // measure 59
1000
0000
1001
M00M
0002
0000
0013
0100
,  // measure 60
1000
0001
1000
0001
1000
0000
0010
0000
1010
0000
0000
0000
0101
0000
0000
0000
,  // measure 61
0001
0010
0100
1000
0020
0000
0032
0000
,  // measure 62
0023
2030
3100
0100
,  // measure 63
0100
0000
0000
0010
0001
0000
1000
0000
1020
0000
0000
0000
0130
0000
0001
0000
,  // measure 64
0010
0001
0010
0001
0010
0000
0001
0000
0202
0000
0303
0000
2002
0000
3003
0000
,  // measure 65
1000
0200
0320
0032
0203
0000
2300
0000
,  // measure 66
3002
0000
0023
0000
1030
0100
0001
0100
,  // measure 67
1000
0000
1001
M00M
0021
0000
0130
1000
,  // measure 68
0010
1000
0010
1000
0010
0000
1000
0000
2200
0000
3300
0000
2002
0000
3003
0000
,  // measure 69
0001
0200
0320
2030
3200
0000
0302
0000
,  // measure 70
2003
3020
0031
1001
,  // measure 71
0001
0100
0001
0100
0010
0000
0000
0000
1002
0000
0000
0000
0013
0000
1000
0000
,  // measure 72
0010
0001
0010
0001
0010
0000
0001
0000
0101
0000
0000
0000
2010
0000
0000
0000
,  // measure 73
3010
0001
0010
1000
1001
0000
1100
0000
,  // measure 74
0110
0000
0011
0000
0001
0100
1000
0100
,  // measure 75
0010
1000
0000
0001
0010
0000
0001
0000
2001
0000
0000
0000
3010
0000
0001
0000
,  // measure 76
0010
1000
0010
1000
0010
0000
1000
0000
1100
0000
0000
0000
0012
0000
0000
0000
,  // measure 77
0013
1000
0010
0001
0101
0000
1010
0000
,  // measure 78
1100
0000
0011
0000
1000
0100
0001
0100
,  // measure 79
0010
0001
0000
1000
0010
0000
0100
0000
0201
0000
0000
0000
1300
0000
0100
0000
,  // measure 80
0001
0010
0001
0010
0001
0000
0100
0000
2200
0000
3300
0000
0202
0000
0303
0000
,  // measure 81
0001
0020
0230
2300
3020
0000
0032
0000
,  // measure 82
2003
0000
3200
0000
0301
0010
1000
0010
,  // measure 83
0001
0100
0000
0001
0010
0000
0100
0000
1200
0000
0000
0000
0301
0000
0100
0000
,  // measure 84
1000
0010
1000
0010
1000
0000
0100
0000
0202
0000
0303
0000
2200
0000
3300
0000
,  // measure 85
1000
0020
0230
0302
0023
0000
2030
0000
,  // measure 86
3002
0000
0203
0000
1300
0010
0001
0010
,  // measure 87
1000
0000
0110
0000
0001
0010
1000
0010
,  // measure 88
0001
0000
0110
0000
1001
0000
1001
M00M
,  // measure 89
1001
M00M
0000
0000
0000
0000
0000
0000
;
