#TITLE:東京盆踊り2020;
#SUBTITLE:(マクドナルド);
#ARTIST:黃明志 feat. 二宮芽生;
#TITLETRANSLIT:Tokyo Bon;
#SUBTITLETRANSLIT:(Makudonarudo);
#ARTISTTRANSLIT:Namewee feat. Meu Ninomiya;
#MUSIC:[Round E] - Tokyo Bon (Makudonarudo).ogg;
#SAMPLESTART:47.26;
#SAMPLELENGTH:14.015;
#BPMS:0=137;

//---------------dance-single - ----------------
#NOTES:
     dance-single:
     :
     Easy:
     3:
     :
0000
0000
0000
0000
,
0000
0000
0000
0000
,
0000
0000
0000
0000
,
0000
0000
0000
0000
,
0000
0000
0000
0000
,
1001
0001
0100
0000
,
1001
1000
0100
0000
,
1001
0001
0010
0001
,
1001
0110
1001
0000
,
1000
0000
0000
1000
,
0010
0000
0000
0010
,
0100
0000
0000
0100
,
0001
1000
0001
0000
,
0001
0000
0000
0001
,
0010
0000
0000
0010
,
0100
0000
0000
0100
,
1000
0001
1000
0000
,
0010
0000
0000
0010
,
0100
0001
1000
0001
,
1000
0000
0000
1000
,
0001
0010
0100
0010
,
0100
0000
0000
0100
,
1000
0001
1000
0001
,
1000
0000
0000
0010
,
0100
0000
0000
0001
,
2000
0000
0000
3000
,
0002
0023
0230
2300
,
3001
0100
0001
0000
,
1000
0010
1000
0000
,
0100
0100
0010
0010
,
0100
0010
0110
0000
,
0001
1000
0010
0000
,
1000
0001
0100
0000
,
0002
0003
2000
3000
,
0001
1000
1001
0000
,
1000
0000
0010
0000
,
0100
0000
0001
0000
,
2000
3000
0002
0003
,
0010
0100
0110
0000
,
0001
0000
0010
0000
,
0100
0000
1000
0000
,
0002
0003
2000
3000
,
0001
1000
1001
0000
,
0001
0000
0010
0000
,
0100
0000
1000
0000
,
0002
0003
2000
3000
,
0010
0000
0100
0100
,
0001
0000
1000
0000
,
0001
0010
0100
0000
,
2000
3000
0002
0003
,
0200
0320
2030
3002
,
0003
0100
0001
0000
,
1000
0010
1000
0000
,
0100
0100
0010
0010
,
0100
0010
0110
0000
,
0001
1000
0010
0000
,
1000
0001
0100
0000
,
0002
0003
2000
3000
,
0001
1000
1001
0000
,
0002
0003
0020
0030
,
0100
1000
0002
0003
,
2000
3010
0200
0301
,
1000
0001
1001
0000
,
0002
0003
0020
0030
,
0100
1000
0002
0003
,
2000
3000
0020
0030
,
1000
0001
1001
0200
,
0300
0000
0000
0000
;

//---------------dance-single - ----------------
#NOTES:
     dance-single:
     :
     Medium:
     5:
     :
0000
0000
0000
0000
,
0000
0000
0000
0000
,
0000
0000
0000
0000
,
0000
0000
0000
0000
,
0000
0000
0000
0000
,
1001
0001
0100
0000
,
1001
1000
0100
0000
,
1001
0001
0010
0001
,
1001
0110
1001
0000
,
1000
0100
1000
0000
,
0001
0010
0001
0000
,
0100
0100
0010
0100
,
0001
0000
1000
0001
0000
1000
0001
0000
0000
0000
0000
0000
,
1000
0001
0010
0000
,
0001
0100
0010
0000
,
1000
0001
1000
0000
,
1010
0101
1100
0001
,
0020
0100
0000
0130
,
0010
0000
0001
0010
0000
0001
0000
0000
0000
0101
0000
0000
,
0120
1000
0000
1030
,
0001
0000
1000
0001
0000
1000
0000
0000
0000
1010
0000
0000
,
0210
0001
0000
0301
,
1000
0000
0001
1000
0000
0001
0000
0000
0000
0011
0000
0000
,
0110
0000
0000
1000
0000
0000
0001
0000
0000
0100
0000
0001
,
0100
0000
0000
0010
0000
0000
1000
0000
0000
0100
0000
1000
,
0200
0010
1000
0310
,
0002
0023
0230
2300
,
3001
0000
0000
0100
0000
0000
0001
0000
1000
0001
0000
0000
,
1000
0000
0000
0100
0000
0000
1000
0000
0001
1000
0000
0000
,
0001
0010
1000
0010
,
0001
0000
1000
0001
0000
1000
0001
0000
0000
0000
0000
0000
,
1000
0000
0000
0010
0000
0000
0100
0000
0010
0100
0000
0000
,
0001
0000
0000
0010
0000
0000
0100
0000
0010
0100
0000
0000
,
1000
0010
0001
0010
,
1000
0000
0000
0001
0000
1000
0001
0000
0000
0000
0000
0000
,
1000
0000
0000
0001
0000
0000
0010
0000
0000
0001
0000
0010
,
0001
0000
0000
0010
0000
0001
0010
0000
0000
0100
0000
0000
,
2000
3001
0200
0310
,
1010
0110
0101
0000
,
0001
0000
0000
1000
0000
0000
0010
0000
0000
1000
0000
0100
,
1000
0000
0000
0100
0000
1000
0100
0000
0000
1000
0000
0000
,
0002
0103
0020
1030
,
1001
0011
1100
0000
,
0002
1003
2000
3001
,
0002
0013
0020
0130
,
2000
3100
0002
0103
,
1000
0000
0000
0001
0000
0000
0100
0000
0010
0100
0000
0000
,
1002
0000
0000
0013
0000
0000
0001
0000
1000
0001
0000
0000
,
2001
0000
0000
3010
0000
0000
1000
0000
0001
1000
0000
0000
,
0100
0000
0010
0100
0000
0000
1000
0000
0001
1000
0000
0000
,
0020
0000
0000
0230
0000
0000
0301
0000
1000
0001
0000
0000
,
1000
0000
0000
0010
0000
0000
1000
0000
0001
1000
0000
0000
,
0001
0000
0000
0010
0000
0000
0001
0000
1000
0001
0000
0000
,
1000
0100
0001
0100
,
1000
0000
0001
1000
0000
0001
1000
0000
0000
0000
0000
0000
,
0001
0000
0000
0100
0000
0000
0010
0000
0100
0010
0000
0000
,
1000
0000
0000
0100
0000
0000
0010
0000
0100
0010
0000
0000
,
0001
0100
1000
0100
,
0001
0000
0000
1000
0000
0001
1000
0000
0000
0000
0000
0000
,
2000
3001
0002
1003
,
2000
3100
0200
0310
,
0002
0013
2000
3010
,
0001
0000
0000
1000
0000
0000
0010
0000
0100
0010
0000
0000
,
2001
0000
0000
3100
0000
0000
1000
0000
0001
1000
0000
0000
,
1002
0000
0000
0103
0000
0000
0001
0000
1000
0001
0000
0000
,
0010
0000
0100
0010
0000
0000
0001
0000
1000
0001
0000
0000
,
0200
0000
0000
0320
0000
0000
1030
0000
0001
1000
0000
0001
;

//---------------dance-single - ----------------
#NOTES:
     dance-single:
     :
     Hard:
     8:
     :
0000
0000
0000
0000
,
0000
0000
0000
0000
,
0000
0000
0000
0000
,
0000
0000
0000
0000
,
0000
0000
0000
0000
,
1010
0000
0000
0010
0000
1000
0001
0000
0001
0010
0000
0000
,
0110
0000
0000
0001
0000
1000
0010
0000
0010
0100
0000
0000
,
0001
1000
0001
1000
0000
0001
0010
0000
0100
0010
0000
0001
,
1000
0000
0000
1010
0000
0000
1001
0000
1000
0100
0000
1000
,
0001
0000
0001
0010
0000
0100
0010
0000
0010
0001
0000
1000
,
0010
0000
0010
0100
0000
0001
1000
0000
1000
0100
0000
1000
,
0010
0000
0010
0100
0000
0001
1000
0000
1000
0100
0000
1000
,
0001
0000
0010
0001
0000
1000
0010
0000
0000
0010
0000
1000
,
0001
0000
0001
0010
0000
0001
0100
0000
0000
0110
0000
0010
,
1000
0000
1000
0100
0000
1000
0001
0000
0001
0010
0000
0100
,
1000
0000
1000
0010
0000
0100
0001
0000
1000
0000
0000
0001
,
0011
0000
1000
1100
0000
0001
0011
0000
0100
0010
0000
0010
,
0002
0000
0000
0000
0000
0100
0000
0000
1003
0010
0000
1000
,
0001
0000
0010
0100
0000
1000
0000
0000
1000
0010
0000
0010
,
2000
0000
0000
0000
0000
0001
0000
0000
3100
0010
0000
0010
,
0001
0000
0100
0001
0000
1000
0000
0000
0010
0100
0000
0001
,
0020
0000
0000
0000
0000
1000
0000
0000
0031
1000
0000
0001
,
0100
0000
0100
0010
0000
1000
0000
0000
0001
0010
0000
0100
,
1000
0000
0000
0000
0000
1001
0000
0000
0010
0001
0000
0100
,
0010
0000
0000
0000
0000
1010
0000
0000
0001
1000
0000
0100
,
0020
0001
1000
0031
,
0011
0110
1100
1001
,
1000
0000
1000
0010
0000
1000
0001
0000
0010
0100
0000
0000
,
1000
0000
1000
0010
0000
1000
0001
0000
0100
0010
0000
0000
,
0102
1003
2100
3001
,
0011
0000
0010
0001
0000
1000
0001
0000
0000
0101
0000
0000
,
1010
0000
1000
0010
0000
1000
0001
0000
0010
0100
0000
1000
,
0010
0000
0010
1000
0000
0001
0100
0000
0001
0010
0000
0000
,
1200
0310
0201
0310
,
1001
0000
0000
0110
0000
0001
1001
0000
0000
0000
0000
0000
,
1000
0000
0000
0001
0000
0000
0010
0000
0000
0001
0000
0001
,
0100
0000
0000
0010
0000
0010
1000
0000
0000
0001
0000
0000
,
1000
0100
0010
0001
0000
0000
1000
0010
0100
0001
0000
0000
,
0011
0000
0000
0110
0000
0000
1100
0000
0001
1000
0000
0001
,
1000
0000
0000
0010
0000
0000
0100
0000
0000
0001
0000
0001
,
0010
0000
0000
0010
0000
0010
0001
0000
0000
1000
0000
0000
,
0001
0100
0010
1000
0000
0000
0001
0010
0100
1000
0000
0000
,
1010
0110
0101
0000
,
0001
0000
0010
0100
0000
0000
0010
0000
0001
0100
0000
0000
,
0001
0000
1000
0010
0000
0010
0100
0000
0001
1000
0000
0000
,
0002
0013
2000
3010
,
0001
0000
0100
0010
0000
1000
0001
0000
0001
1000
0000
0000
,
1002
0000
0000
0013
0000
0000
1100
0000
1000
0010
0000
0000
,
1100
0000
1000
0100
0000
1000
0001
0010
0100
1000
0000
0000
,
0001
0000
0100
0010
0000
0100
0001
0000
0010
0100
0000
0010
,
0001
0100
0010
1000
0100
0010
0001
0000
1000
0002
0000
0000
,
1003
0000
1000
0100
0000
1000
0001
0000
0010
0100
0000
0000
,
0010
0000
0010
0001
0000
1000
0001
0000
0100
0010
0000
0000
,
2010
3001
0012
1003
,
1010
0000
1000
0100
0000
1000
0001
0000
0000
0110
0000
0000
,
1000
0000
1000
0100
0000
1000
0001
0000
0010
0100
0000
1000
,
0010
0000
0010
0100
0000
0100
0001
0000
1000
0001
0000
0000
,
0021
0130
1020
0130
,
1001
0000
0000
0110
0000
1000
1001
0000
0000
0000
0000
0000
,
0000
0000
1010
0000
0000
0101
0000
0000
0011
0000
0000
0110
,
0000
0000
1001
0000
0000
0001
1000
0000
1000
0001
0000
0010
,
0000
0000
0011
0000
0000
0110
0000
0000
1100
0000
0000
1001
,
0000
0000
0001
0100
0000
1000
0100
0000
0001
0100
0000
0010
,
0000
0000
1010
0000
0000
1001
0000
0000
1100
0000
0000
1001
,
0000
0000
0011
0000
0000
0010
0001
0000
0010
1000
0000
0010
,
0000
0000
0110
0000
0000
1001
0000
0000
0110
0000
0000
1000
,
0001
0000
0100
1000
0000
0100
0001
0000
1000
0002
0000
1003
;

//---------------dance-single - ----------------
#NOTES:
     dance-single:
     :
     Challenge:
     7:
     :
0000
0000
0000
0000
,
0000
0000
0000
0000
,
0000
0000
0000
0000
,
0000
0000
0000
0000
,
0000
0000
0000
0000
,
0110
0000
0000
0001
0000
0001
1000
0000
1000
0100
0000
0000
,
0110
0000
0000
1000
0000
1000
0001
0000
0001
0100
0000
0000
,
0010
0100
0010
0100
0000
0000
0001
0000
1000
0001
0000
0000
,
1001
0110
1001
MMMM
,
0110
0000
0000
0001
0000
0001
0000
0000
1000
0001
0000
0000
,
0110
0000
0000
1000
0000
1000
0000
0000
0001
1000
0000
0000
,
1100
0000
0000
0001
0000
0001
0000
0000
0010
0001
0000
0000
,
0010
0000
0010
0100
0000
0010
0100
0000
0000
MMMM
0000
0000
,
1100
0000
0000
0001
0000
0001
0000
0000
0010
0001
0000
0000
,
0101
0000
0000
1000
0000
1000
0000
0000
0010
1000
0000
0000
,
1001
0000
0000
0010
0000
0010
0000
0000
0100
0010
0000
0000
,
1001
0110
1001
MMMM
,
1000
0000
0000
MMMM
0000
1001
0000
0000
0000
MMMM
0000
0000
,
0001
0000
0000
MMMM
0000
0011
0000
0000
0000
MMMM
0000
0000
,
1000
0000
0000
MMMM
0000
1010
0000
0000
0000
MMMM
0000
0000
,
0001
0000
0000
MMMM
0000
1001
0000
0000
0001
0100
0000
0000
,
0001
0000
0000
MMMM
0000
1100
0000
0000
0000
MMMM
0000
0000
,
0010
0000
0000
MMMM
0000
0101
0000
0000
0000
MMMM
0000
0000
,
1001
0000
0000
MMMM
0000
1001
0000
0000
0001
0100
0000
0010
,
0110
0000
0000
MMMM
0000
0110
0000
0000
1000
0001
0000
1000
,
0100
0000
0100
2000
0000
0000
0010
0000
0000
3001
0000
0000
,
0011
MMMM
0011
MMMM
1100
MMMM
1100
MMMM
,
1001
0000
0001
0010
0000
0001
1000
0000
0001
1000
0000
0000
,
1001
0000
1000
0010
0000
1000
0001
0000
1000
0001
0000
0000
,
0011
MMMM
1100
MMMM
,
0100
0000
0100
0010
0000
0100
0010
0000
0000
MMMM
0000
0000
,
1001
0000
1000
0010
0000
1000
0001
0000
1000
0001
0000
0000
,
1000
0000
0001
0010
0000
0001
1000
0000
0001
1000
0000
0000
,
1010
MMMM
0101
MMMM
,
1001
0110
1001
MMMM
,
1000
0000
0000
0001
0000
0000
0010
0000
0000
0001
0000
0100
,
0001
0000
0000
1000
0000
0100
1000
0000
0000
0010
0000
0000
,
0110
MMMM
1001
MMMM
,
0011
0110
1100
MMMM
,
0001
0000
0000
1000
0000
0000
0010
0000
0000
1000
0000
0100
,
1000
0000
0000
0001
0000
0100
0001
0000
0000
1000
0000
0000
,
1001
MMMM
0110
MMMM
,
0011
0110
1001
MMMM
,
0011
MMMM
1100
MMMM
,
1010
MMMM
0101
MMMM
,
0002
1003
2000
3001
,
1001
0000
0000
MMMM
0000
0000
0010
0000
0100
0010
0000
0000
,
1001
0000
0000
MMMM
0000
0000
0100
0000
0010
0100
0000
0000
,
1001
0000
0000
MMMM
0000
0000
0100
0010
0100
0010
0000
0000
,
1001
MMMM
0110
MMMM
,
1001
0000
0000
0110
0000
0000
0001
1000
0001
1000
0001
1000
,
0001
0000
0001
0010
0000
0001
1000
0000
0001
1000
0000
0000
,
1001
0000
1000
0010
0000
1000
0001
0000
1000
0001
0000
0000
,
0011
MMMM
1100
MMMM
,
0100
0000
0100
0010
0000
0100
0010
0000
0000
MMMM
0000
0000
,
1001
0000
1000
0010
0000
1000
0001
0000
1000
0001
0000
0000
,
1000
0000
0001
0010
0000
0001
1000
0000
0001
1000
0000
0000
,
1010
MMMM
0101
MMMM
,
1001
0110
1001
MMMM
,
0000
0000
0011
0000
0000
1010
0000
0000
1100
0000
0000
0101
,
0000
0000
0011
0000
0000
0010
0100
0000
0100
0010
0000
0010
,
0000
0000
0011
0000
0000
0101
0000
0000
1100
0000
0000
1010
,
0000
0000
1000
0100
0000
0100
1000
0000
1000
0001
0000
1000
,
0000
0000
1010
0000
0000
0011
0000
0000
0101
0000
0000
1100
,
0000
0000
1010
0000
0000
0001
0100
0000
0100
0001
0000
1000
,
0000
0000
1001
0000
0000
0110
0000
0000
1001
0000
0000
0100
,
0001
0000
0001
1000
0000
0001
1000
0000
0010
0200
0000
0310
;
