#TITLE:Sugar Glider;
#SUBTITLE:;
#ARTIST:omniboi;
#TITLETRANSLIT:;
#SUBTITLETRANSLIT:;
#ARTISTTRANSLIT:;
#GENRE:Electronic;
#CREDIT:;
#BANNER:;
#BACKGROUND:;
#LYRICSPATH:;
#CDTITLE:;
#MUSIC:[Round E] - Sugar Glider.ogg;
#OFFSET:-6.857000;
#SAMPLESTART:34.266380;
#SAMPLELENGTH:13.714279;
#SELECTABLE:YES;
#DISPLAYBPM:70.000000:140.000000;
#BPMS:0.000000=140.000000
,28.000000=2100.000000
,30.000000=140.000000
,33.000000=2100.000000
,34.500000=140.000000
,37.000000=2100.000000
,39.000000=140.000000
,41.000000=2100.000000
,42.500000=140.000000
,45.000000=2100.000000
,47.000000=140.000000
,49.000000=2100.000000
,50.500000=140.000000
,53.000000=2100.000000
,55.000000=140.000000
,57.000000=2100.000000
,58.500000=140.000000
,61.000000=2100.000000
,63.000000=140.000000
,65.000000=2100.000000
,66.500000=140.000000
,69.000000=2100.000000
,71.000000=140.000000
,73.000000=2100.000000
,74.500000=140.000000
,77.000000=2100.000000
,79.000000=140.000000
,81.000000=2100.000000
,82.500000=140.000000
,85.000000=2100.000000
,87.000000=140.000000
,89.000000=2100.000000
,90.500000=140.000000
,93.000000=2100.000000
,95.000000=140.000000
,98.000000=280.000000
,98.500000=140.000000
,98.750000=70.000000
,100.750000=1050.000000
,101.000000=140.000000
,149.000000=70.000000
,151.000000=140.000000
,158.000000=280.000000
,160.000000=140.000000
,174.000000=2100.000000
,176.000000=140.000000
,191.000000=2100.000000
,192.000000=280.000000
,193.000000=140.000000
,193.500000=70.000000
,201.000000=140.000000
,213.000000=2100.000000
,215.000000=140.000000
,218.000000=2100.000000
,219.500000=140.000000
,222.000000=2100.000000
,224.000000=140.000000
,226.000000=2100.000000
,227.500000=140.000000
,230.000000=2100.000000
,232.000000=140.000000
,234.000000=2100.000000
,235.500000=140.000000
,238.000000=2100.000000
,240.000000=140.000000
,242.000000=2100.000000
,243.500000=140.000000
,246.000000=2100.000000
,248.000000=140.000000
,280.000000=70.000000
;
#STOPS:28.000000=0.300000,
28.750000=0.300000,
29.500000=0.200000,
30.000000=0.429000,
33.000000=0.300000,
33.750000=0.100000,
34.000000=0.200000,
37.000000=0.300000,
37.750000=0.100000,
38.000000=0.400000,
41.000000=0.300000,
41.750000=0.100000,
42.000000=0.200000,
45.000000=0.200000,
45.500000=0.200000,
46.000000=0.200000,
46.500000=0.200000,
49.000000=0.300000,
49.750000=0.100000,
50.000000=0.200000,
53.000000=0.300000,
53.750000=0.100000,
54.000000=0.400000,
57.000000=0.300000,
57.750000=0.100000,
58.000000=0.200000,
61.000000=0.200000,
61.500000=0.200000,
62.000000=0.200000,
62.500000=0.200000,
65.000000=0.300000,
65.750000=0.100000,
66.000000=0.200000,
69.000000=0.300000,
69.750000=0.100000,
70.000000=0.400000,
73.000000=0.300000,
73.750000=0.100000,
74.000000=0.200000,
77.000000=0.200000,
77.500000=0.200000,
78.000000=0.200000,
78.500000=0.200000,
81.000000=0.300000,
81.750000=0.100000,
82.000000=0.200000,
85.000000=0.300000,
85.750000=0.100000,
86.000000=0.400000,
89.000000=0.300000,
89.750000=0.100000,
90.000000=0.200000,
93.000000=0.200000,
93.500000=0.200000,
94.000000=0.200000,
94.500000=0.200000,
100.750000=0.100000,
100.875000=0.100000,
174.000000=0.100000,
174.250000=0.100000,
174.500000=0.100000,
174.750000=0.100000,
175.000000=0.100000,
175.250000=0.100000,
175.500000=0.200000,
191.000000=0.400000,
213.000000=0.300000,
213.750000=0.300000,
214.500000=0.200000,
215.000000=0.428000,
218.000000=0.300000,
218.750000=0.100000,
219.000000=0.200000,
222.000000=0.300000,
222.750000=0.100000,
223.000000=0.400000,
226.000000=0.300000,
226.750000=0.100000,
227.000000=0.200000,
230.000000=0.200000,
230.500000=0.200000,
231.000000=0.200000,
231.500000=0.200000,
234.000000=0.300000,
234.750000=0.100000,
235.000000=0.200000,
238.000000=0.300000,
238.750000=0.100000,
239.000000=0.400000,
242.000000=0.300000,
242.750000=0.100000,
243.000000=0.200000,
246.000000=0.200000,
246.500000=0.200000,
247.000000=0.200000,
247.500000=0.200000
;
#BGCHANGES:;
#KEYSOUNDS:;
#ATTACKS:TIME=57.970001:LEN=5.000000:MODS=*9999 Stealth, *9999 Dark:TIME=58.189999:LEN=5.000000:MODS=*9999 No Stealth, *9999 No Dark;

//---------------dance-single - ----------------
#NOTES:
     dance-single:
     C 03 X 03:
     Easy:
     3:
     0.119854,0.154026,0.029182,0.124023,0.000000,115.000000,111.000000,4.000000,17.000000,0.000000,0.000000,0.119854,0.154026,0.029182,0.124023,0.000000,115.000000,111.000000,4.000000,17.000000,0.000000,0.000000:
// measure 0
1000
0000
0000
0000
,  // measure 1
0001
0000
0000
0000
,  // measure 2
1000
0000
0000
0000
,  // measure 3
0001
0000
0000
0000
,  // measure 4
0100
0000
0100
0000
,  // measure 5
0010
0000
0010
0000
,  // measure 6
0100
0000
0100
0000
,  // measure 7
0002
0000
1000
0000
,  // measure 8
0000
0003
0000
2000
,  // measure 9
0000
3000
0000
0002
,  // measure 10
0000
0003
0000
2000
,  // measure 11
0000
3000
0000
0020
,  // measure 12
0000
0030
0000
0200
,  // measure 13
0000
0300
0000
0020
,  // measure 14
0000
0030
0000
0200
,  // measure 15
0000
0300
0000
0001
,  // measure 16
0000
0001
0000
1000
,  // measure 17
0000
1000
0000
0001
,  // measure 18
0000
0001
0000
1000
,  // measure 19
0000
1000
0000
0100
,  // measure 20
0000
0100
0000
0010
,  // measure 21
0000
0010
0000
0100
,  // measure 22
0000
0100
0000
0010
,  // measure 23
0000
0100
0000
0020
,  // measure 24
0000
0000
0030
0000
,  // measure 25
0000
0002
0000
0000
,  // measure 26
0000
0003
0000
0000
,  // measure 27
0000
0000
0000
0000
,  // measure 28
0000
1000
0000
1000
,  // measure 29
0000
0001
0000
0001
,  // measure 30
0000
0200
0000
0000
,  // measure 31
0300
0020
0000
0000
,  // measure 32
0030
1000
0000
0001
,  // measure 33
0000
1000
0000
0001
,  // measure 34
0000
1000
0000
1000
,  // measure 35
0000
1000
0000
1000
,  // measure 36
0000
0010
0000
0100
,  // measure 37
0000
0010
0000
0020
,  // measure 38
0000
0000
0030
0200
,  // measure 39
0000
0000
0000
0000
,  // measure 40
0300
0000
0000
0000
,  // measure 41
0001
0000
0001
0000
,  // measure 42
1000
0000
1000
0000
,  // measure 43
0001
0000
0200
0000
,  // measure 44
0300
0000
0000
0000
,  // measure 45
0110
0000
0000
0000
,  // measure 46
1001
0000
0000
0000
,  // measure 47
0110
0000
0000
1000
,  // measure 48
0000
0000
0000
0001
,  // measure 49
0001
0002
0000
0000
,  // measure 50
0003
0010
0000
0000
,  // measure 51
0000
0010
0000
0000
,  // measure 52
0000
0100
0000
0100
,  // measure 53
0000
0100
0000
1001
,  // measure 54
0000
0000
1000
0000
,  // measure 55
0100
0000
0010
0010
,  // measure 56
0000
0000
0001
0000
,  // measure 57
0100
0000
0010
0010
,  // measure 58
0000
0000
1000
0000
,  // measure 59
0001
0000
0010
0010
,  // measure 60
0000
0000
0001
0000
,  // measure 61
1000
0000
0010
0010
,  // measure 62
0100
0000
0100
0000
,  // measure 63
0010
0000
0010
0010
,  // measure 64
1000
0000
0001
0000
,  // measure 65
1000
0000
0001
0001
,  // measure 66
0010
0000
0010
0000
,  // measure 67
0100
0000
0100
0000
,  // measure 68
1000
0000
0100
0000
,  // measure 69
0010
0000
0001
1000
,  // measure 70
0002
0000
0000
0003
0000
0000
0000
0000
;

//---------------dance-single - ----------------
#NOTES:
     dance-single:
     C 05 X 06:
     Medium:
     5:
     0.227202,0.333723,0.138614,0.430434,0.000000,218.000000,199.000000,19.000000,59.000000,0.000000,0.000000,0.227202,0.333723,0.138614,0.430434,0.000000,218.000000,199.000000,19.000000,59.000000,0.000000,0.000000:
// measure 0
1000
0000
0001
0000
,  // measure 1
1000
0000
0001
0000
,  // measure 2
0100
0000
0010
0000
,  // measure 3
0100
0000
0010
0000
,  // measure 4
1000
0001
1000
0000
,  // measure 5
0010
0100
0010
0000
,  // measure 6
0100
0010
0100
0000
,  // measure 7
0002
0000
0003
2000
,  // measure 8
3000
1001
0000
0020
,  // measure 9
0030
0110
0000
2000
,  // measure 10
3000
1100
0000
0002
,  // measure 11
0003
0011
0000
0200
,  // measure 12
0300
0101
0000
0020
,  // measure 13
0030
1010
0000
2000
,  // measure 14
3000
1001
0000
0002
,  // measure 15
0003
0100
0100
0020
,  // measure 16
0230
0310
0000
2000
,  // measure 17
3000
1001
0000
0002
,  // measure 18
0023
0031
0000
2000
,  // measure 19
3000
1100
0000
0020
,  // measure 20
2030
3010
0000
0200
,  // measure 21
0300
0101
0000
0002
,  // measure 22
2003
3100
0000
0020
,  // measure 23
0030
0100
0100
0200
,  // measure 24
0000
0000
0300
0000
,  // measure 25
0000
2000
0000
0000
,  // measure 26
0000
0000
3000
0002
0000
0000
0023
0000
,  // measure 27
0000
2030
0000
0000
3020
0000
0000
0032
,  // measure 28
0000
0000
1003
0000
0000
1000
0000
0000
,  // measure 29
1000
0000
0001
0000
0000
0001
0000
0000
,  // measure 30
0001
0000
0000
2000
0000
0000
3020
0000
,  // measure 31
0000
0032
0000
0000
0023
0000
0000
2030
,  // measure 32
0000
3001
0010
0100
,  // measure 33
1000
0001
0100
0010
,  // measure 34
1000
0000
0000
0002
0000
0000
0023
0000
,  // measure 35
0000
2030
0000
0000
3200
0000
0000
0302
,  // measure 36
0000
0000
1003
1000
0000
0001
0001
0000
,  // measure 37
0100
0000
0020
0000
0000
0030
0000
2000
,  // measure 38
0000
0000
3200
0000
0000
0302
0000
0000
,  // measure 39
0023
0000
0000
2030
0000
0000
0000
0000
,  // measure 40
3000
0000
0000
0001
,  // measure 41
0001
0000
0000
0100
0000
0000
0001
0000
,  // measure 42
1000
0000
0000
0100
0000
0000
1000
0000
,  // measure 43
0010
0000
0000
0000
0020
0000
0000
0030
,  // measure 44
0200
0000
0000
0302
0000
0000
0013
0001
,  // measure 45
0020
0000
0000
0230
0000
0000
1300
0100
,  // measure 46
2000
0000
0000
3002
0000
0000
0103
0010
,  // measure 47
0200
0000
0000
0302
0000
0000
2003
0000
,  // measure 48
0000
0000
0000
3000
0000
0000
0010
0000
,  // measure 49
1000
0020
0000
0000
,  // measure 50
2030
0000
0000
3000
0001
0000
0000
0000
0010
0000
0000
0000
0100
0000
0000
0000
,  // measure 51
0100
1000
0010
0100
,  // measure 52
0100
0001
0010
0100
,  // measure 53
0010
0002
0000
1003
,  // measure 54
1000
0100
0010
0010
,  // measure 55
0001
0100
0010
0010
,  // measure 56
1000
0001
0010
0010
,  // measure 57
0001
1000
0010
0010
,  // measure 58
1000
0100
0001
1000
,  // measure 59
0001
0100
1000
1000
,  // measure 60
0001
0100
1000
0001
,  // measure 61
1000
0100
0001
0001
,  // measure 62
1000
0000
0101
0000
,  // measure 63
1000
0000
0011
0000
,  // measure 64
0001
0000
1010
0000
,  // measure 65
0001
0000
1100
0000
,  // measure 66
0001
0100
1100
1000
,  // measure 67
0010
1000
0011
0001
,  // measure 68
1000
0001
0110
0100
,  // measure 69
0010
0100
1001
0110
,  // measure 70
2000
0010
0002
3003
0000
0000
0000
0000
;

//---------------dance-single - ----------------
#NOTES:
     dance-single:
     C 07 X 11:
     Hard:
     7:
     0.361648,0.410736,0.000000,0.569048,0.116728,347.000000,347.000000,0.000000,78.000000,0.000000,0.000000,0.361648,0.410736,0.000000,0.569048,0.116728,347.000000,347.000000,0.000000,78.000000,0.000000,0.000000:
// measure 0
1000
0001
1000
0001
,  // measure 1
0100
0010
0100
0010
,  // measure 2
1000
0010
1000
0010
,  // measure 3
0100
0001
0100
0001
,  // measure 4
1000
0000
0001
0010
0001
0000
1000
0000
,  // measure 5
0001
0000
1000
0010
1000
0000
0001
0000
,  // measure 6
0100
0000
0001
0010
0001
0000
0100
0000
,  // measure 7
0001
0000
0000
0001
0000
0000
0001
0000
1000
0000
0000
0000
2000
0000
3000
0000
,  // measure 8
0200
0000
0300
0000
0010
0000
0000
0000
0000
0000
0000
0000
0001
0000
0000
0010
,  // measure 9
0000
0100
1000
0000
0000
0000
0002
0003
,  // measure 10
0200
0000
0300
0000
0010
0000
0000
0000
0000
0000
0000
0000
1000
0000
0000
0010
,  // measure 11
0000
0100
0001
0000
0000
0000
2000
3000
,  // measure 12
0200
0000
0300
0000
0001
0000
0000
0000
0000
0000
0000
0000
0100
0000
0000
0010
,  // measure 13
0000
0100
1000
0000
0000
0000
0002
0003
,  // measure 14
0200
0000
0300
0000
1000
0000
0000
0000
0000
0000
0000
0000
0100
0000
0000
0010
,  // measure 15
0000
0100
0001
0000
0000
0000
1000
0100
,  // measure 16
0010
0000
0100
0000
0000
0000
0000
0000
0000
0000
1000
0000
0001
0000
0000
0001
,  // measure 17
0000
0001
0000
0000
0000
0000
1000
0010
,  // measure 18
0100
0000
0010
0000
0000
0000
0000
0000
0000
0000
1000
0000
0100
0000
0000
0100
,  // measure 19
0000
0100
0000
0000
2000
0000
3001
0010
,  // measure 20
0100
1000
0000
0000
0002
0203
0000
2300
,  // measure 21
0000
3002
0023
0000
2030
0000
3001
0100
,  // measure 22
0010
0000
2000
0000
0000
0000
0000
0000
3000
0000
0010
0000
0100
0000
0000
0100
,  // measure 23
0000
0100
0001
0010
1000
0010
0002
0000
,  // measure 24
0000
0000
0000
0000
0000
0000
0000
0000
0003
0000
0000
0000
0100
0000
0010
0010
,  // measure 25
0000
1000
1000
0000
0001
0000
0000
0000
0010
0000
0010
0000
0000
0000
0100
0000
,  // measure 26
0100
0100
0000
2000
0000
0000
3020
0000
,  // measure 27
0000
0032
0000
0000
0203
0000
0000
2300
,  // measure 28
0000
0000
3001
0000
0001
1000
0000
1000
,  // measure 29
0001
0000
1000
0000
1000
0001
0000
0001
,  // measure 30
1000
0001
0000
0200
0000
0000
2300
0000
,  // measure 31
0000
3002
0000
0000
0023
0000
0000
2030
,  // measure 32
0000
0000
3001
0000
0001
0010
0000
0100
,  // measure 33
1000
0010
1000
0000
1000
0010
0000
0100
,  // measure 34
0001
0010
0000
0002
0000
0010
0023
0000
,  // measure 35
1000
2030
0000
0100
3200
0000
0001
0302
,  // measure 36
0000
1000
1003
0000
0100
0010
0000
0100
,  // measure 37
0002
0000
0000
0000
1003
0000
0010
0100
0000
0010
0002
0000
0003
0000
2000
0000
,  // measure 38
0000
0010
3002
0000
0100
2003
0000
0100
,  // measure 39
3002
0000
0000
0000
0013
0100
0020
0000
0000
0000
0000
0000
0000
0000
0000
0000
,  // measure 40
0032
0000
0000
2003
,  // measure 41
3020
0000
0000
0000
0000
0000
0001
0000
0000
0000
0000
0000
1030
0000
0000
0002
,  // measure 42
0000
0010
0000
0010
0000
1000
0000
1003
,  // measure 43
0200
0010
0000
0310
0001
0010
0100
1000
,  // measure 44
0002
0000
0000
0203
0000
0000
2300
0000
0000
0000
0000
0000
3100
0000
0010
0000
,  // measure 45
2000
0000
0000
3020
0000
0000
0032
0000
0000
0000
0000
0000
0013
0000
0100
0000
,  // measure 46
0002
0000
0000
0023
0000
0000
2030
0000
0000
0000
0000
0000
3010
0000
0100
0000
,  // measure 47
2000
0000
0000
3200
0000
0000
0302
0000
0000
0000
0000
0000
0103
0000
0000
0000
,  // measure 48
0020
0000
0000
0030
0000
0000
0001
0000
,  // measure 49
1000
0000
0000
0000
0010
0200
0000
0000
0000
0000
0000
0000
0000
0000
0000
0000
,  // measure 50
0020
0300
0000
0030
2000
0000
0000
0000
0100
0000
3002
0000
0000
0000
0100
0000
,  // measure 51
2003
0000
0010
3002
0000
0010
2003
0000
,  // measure 52
0000
3100
0010
0100
0010
0001
1000
0001
,  // measure 53
1000
0000
0010
0000
0100
0000
0000
0100
0000
0000
0100
0000
0001
0000
0000
0000
,  // measure 54
0001
0010
0100
1000
0010
0000
0010
1000
,  // measure 55
0100
0000
0000
0010
0000
0000
0001
0000
0100
0000
0000
0000
0100
0000
0000
0000
,  // measure 56
0001
0100
0010
1000
0100
0000
0100
1000
,  // measure 57
0010
0000
0000
0100
0000
0000
0001
0000
0100
0000
1000
0000
0100
0000
0001
0000
,  // measure 58
1000
0010
0100
0010
1000
0000
2000
3200
,  // measure 59
0000
0302
0000
2003
3020
0000
0032
0000
,  // measure 60
1003
0100
0010
0100
1000
0000
0001
0001
,  // measure 61
0010
0000
0000
0010
0000
0000
0010
0000
1000
0000
0010
0000
0001
0000
0100
0000
,  // measure 62
1000
0000
0000
0100
0010
0000
0100
0000
0001
0000
0000
0000
0010
0000
0000
0000
,  // measure 63
1000
0000
0000
0010
0100
0000
0010
0000
0001
0000
0000
0000
0100
0000
0000
0000
,  // measure 64
0001
0000
0000
0010
0100
0000
0010
0000
1000
0000
0000
0000
0010
0000
0000
0000
,  // measure 65
0001
0000
0000
0100
0010
0000
0100
0000
1000
0000
0100
0000
0001
0000
0010
0000
,  // measure 66
0100
0000
0000
1000
0010
0000
1000
0000
0001
0000
0000
0010
2000
0000
3020
0000
,  // measure 67
0000
0032
0000
2003
3020
0000
0032
0000
,  // measure 68
0013
0000
0000
1000
0100
0000
1000
0000
0010
0000
0000
0100
0001
0000
0000
0000
,  // measure 69
0010
0000
0000
0001
0100
0000
0001
0000
0010
0000
1000
0000
0100
0000
0001
0000
,  // measure 70
2000
0002
3000
0003
0000
0000
0000
0000
;
