#TITLE:So High;
#SUBTITLE:;
#ARTIST:Channel X;
#TITLETRANSLIT:;
#SUBTITLETRANSLIT:;
#ARTISTTRANSLIT:;
#CREDIT:;
#BANNER:;
#BACKGROUND:;
#LYRICSPATH:;
#CDTITLE:;
#MUSIC:So High.ogg;
#OFFSET:-0.980;
#SAMPLESTART:70.620;
#SAMPLELENGTH:12.000;
#SELECTABLE:YES;
#BPMS:0.000=150.090;
#STOPS:;
#BGCHANGES:;

//---------------dance-single - ----------------
#NOTES:
     dance-single:
     :
     Challenge:
     1:
     0.000,0.000,0.000,0.000,0.000:
0000
0000
0000
0000
;

//---------------dance-single - ----------------
#NOTES:
     dance-single:
     :
     Hard:
     9:
     0.806,0.857,0.477,0.174,0.552: // measure 1
0000
0000
0000
0000
,  // measure 2
0000
0000
0000
0000
,  // measure 3
0000
0000
0000
0000
,  // measure 4
0000
0000
0000
0000
,  // measure 5
0011
0000
1000
0000
0001
0000
0000
0000
0001
0000
0100
0010
0000
0010
1000
0000
,  // measure 6
0001
0000
0100
0000
0001
0000
0000
0000
1000
0000
0100
0010
0000
0010
0001
0000
,  // measure 7
1000
0000
0100
0000
1000
0000
0000
0000
0001
0000
0100
0010
0000
0010
1000
0000
,  // measure 8
0001
0000
0000
0001
0000
0000
0100
0000
0001
0000
0000
0000
1000
0000
0000
0000
,  // measure 9
1001
0000
1000
0000
0100
0010
0000
0010
0001
0000
0001
0100
0000
0100
0010
0000
,  // measure 10
1000
0000
1000
0000
0010
0100
0000
0100
0001
0000
0001
0010
0000
0010
0100
0000
,  // measure 11
1000
0000
1000
0000
0100
0010
0000
0010
0001
0000
0001
0100
0000
0100
0010
0000
,  // measure 12
0220
0000
0300
0000
,  // measure 13
1030
0000
0100
0001
0100
1000
0010
0001
,  // measure 14
0000
0010
1000
0100
0001
0100
0010
0001
,  // measure 15
0000
0010
0001
0100
1000
0100
0000
0120
,  // measure 16
0000
1030
0000
1200
0000
0310
0000
0011
,  // measure 17
0000
0001
0100
1000
0100
0001
0010
0001
,  // measure 18
0100
1000
0000
0000
0100
0001
0010
1000
,  // measure 19
0000
0010
0000
0001
0100
1000
0000
1200
,  // measure 20
0000
0310
0000
0120
0000
1030
0000
1010
,  // measure 21
1000
0001
0000
0001
0010
0001
0000
0001
,  // measure 22
0100
0010
0000
0010
1000
0100
0001
0100
,  // measure 23
1000
0010
0000
0010
0100
0001
0000
0001
,  // measure 24
0010
1000
0010
0001
0100
0010
1000
0001
,  // measure 25
0100
0010
0000
0010
1000
0100
0000
0100
,  // measure 26
0001
0100
0000
0100
0010
0001
0100
0010
,  // measure 27
1000
0001
0000
0001
0100
0001
0000
0001
,  // measure 28
0010
0000
0001
0000
0100
0000
0010
0000
1000
0100
1000
0100
1000
0000
0010
0000
,  // measure 29
0100
0000
0000
0100
0000
0000
0100
0000
0000
0000
0101
0000
0000
0000
0001
0000
,  // measure 30
1000
0000
0000
1000
0000
0000
1000
0000
0000
0000
1100
0000
0000
0000
0100
0000
,  // measure 31
0010
0000
0000
0010
0000
0000
0010
0000
0000
0000
0011
0000
0000
0000
0001
0000
,  // measure 32
1001
1001
1100
1100
,  // measure 33
1001
0000
0000
1001
0000
0000
1001
0000
0000
0000
0011
0000
0000
0000
0001
0000
,  // measure 34
0101
0000
0000
0101
0000
0000
0101
0000
0000
0000
1001
0000
0000
0000
1000
0000
,  // measure 35
1100
0000
0000
1100
0000
0000
1100
0000
0000
0000
1001
0000
0000
0000
0001
0000
,  // measure 36
0012
0100
1000
0013
,  // measure 37
0011
0000
0000
0001
0000
0000
0100
0000
0000
1000
0000
0000
0100
0000
0001
0000
,  // measure 38
0010
0000
0000
1000
0000
0000
0010
0000
0000
0001
0000
0000
0100
0000
0010
0000
,  // measure 39
1000
0000
0000
0100
0000
0000
0001
0000
0000
0100
0000
0000
1000
0000
0010
0000
,  // measure 40
0100
0000
0000
1000
0000
0000
0100
0000
0000
0001
0000
0000
0010
0000
0001
0000
,  // measure 41
1001
0000
0000
0000
1000
0000
0001
0000
0000
0000
0100
0000
0001
1000
0001
0000
,  // measure 42
0000
0000
0001
0000
1000
0100
1000
0000
0000
0000
1000
0000
0001
0000
1000
0000
,  // measure 43
0100
0000
0010
0001
0000
0100
0000
0010
,  // measure 44
0000
0000
0100
0000
0001
1000
0001
0000
0000
0000
0001
0000
0100
0000
0001
0000
,  // measure 45
0101
0000
0001
0100
0000
0100
0010
0000
0010
1000
0000
1000
0001
0000
1000
0000
,  // measure 46
0100
0000
0010
0001
0000
0001
0100
0000
0100
0010
0000
0010
1000
0000
0001
0000
,  // measure 47
1000
0000
0100
0010
0000
0010
0001
0000
0001
0100
0000
0100
0010
0000
1000
0000
,  // measure 48
0001
0000
0010
0100
0000
0100
1000
0000
1000
0010
0000
0010
0100
0000
0001
0000
,  // measure 49
0010
0000
0001
1000
0000
1000
0010
0000
0010
0100
0000
0100
0001
0000
1000
0000
,  // measure 50
0100
0000
0010
0001
0000
0001
0100
0000
0100
0010
0000
0010
1000
0000
0100
0000
,  // measure 51
0010
0000
0001
0100
0000
0100
0010
0000
0010
1000
0000
1000
0001
0000
0010
0000
,  // measure 52
0100
0000
1000
0001
1000
0001
1000
0000
0100
0000
0000
0010
0001
0000
1000
0000
,  // measure 53
1001
2002
0000
0000
0000
0000
3003
0000
,  // measure 54
0101
0202
0000
0000
0000
0000
0303
0000
,  // measure 55
1100
2200
0000
0000
0000
0000
3300
0000
,  // measure 56
1001
2002
0000
0003
0001
0000
3001
0000
,  // measure 57
0001
0000
0100
0000
0001
0000
0000
0000
1000
0000
0100
0010
0000
0010
0001
0000
,  // measure 58
1000
0000
0100
0000
1000
0000
0000
0000
0001
0000
0100
0010
0000
0010
1000
0000
,  // measure 59
0001
0000
0100
0000
0001
0000
0000
0000
1000
0000
0100
0010
0000
0010
0001
0000
,  // measure 60
1000
0000
0000
1000
0000
0000
0100
0000
1000
0000
0000
0000
0001
0000
0000
0000
,  // measure 61
0101
0000
1000
0000
0001
0000
0000
0000
1000
0000
0100
0010
0000
0010
0001
0000
,  // measure 62
1000
0000
0100
0000
1000
0000
0000
0000
0001
0000
0100
0010
0000
0010
1000
0000
,  // measure 63
0001
0000
0100
0000
0001
0000
0000
0000
1000
0000
0100
0010
0000
0010
0001
0000
,  // measure 64
1000
0000
0000
1000
0000
0000
0100
0000
1000
0000
0000
0000
0001
0000
0000
0000
,  // measure 65
0100
0000
0010
0000
0010
1000
0000
1000
0001
0000
0001
0010
0000
0010
0100
0000
,  // measure 66
1000
0000
1000
0000
0010
0100
0000
0100
0001
0000
0001
0010
0000
0010
0100
0000
,  // measure 67
1000
0000
1000
0000
0010
0100
0000
0100
0001
0000
0001
0010
0000
0010
0100
0000
,  // measure 68
1000
0000
0000
0000
;

//---------------dance-single - ----------------
#NOTES:
     dance-single:
     :
     Medium:
     6:
     0.475,0.545,0.174,0.233,0.035: // measure 1
0000
0000
0000
0000
,  // measure 2
0000
0000
0000
0000
,  // measure 3
0000
0000
0000
0000
,  // measure 4
0000
0000
0000
0000
,  // measure 5
0001
1000
0001
0000
0100
0000
0010
0000
,  // measure 6
1000
0001
1000
0000
0100
0000
0010
0000
,  // measure 7
0001
1000
0001
0000
0100
0000
0010
0000
,  // measure 8
1000
1000
0001
1000
,  // measure 9
2200
3300
0100
0010
,  // measure 10
0001
0010
0001
0000
1000
0001
1000
0000
,  // measure 11
0020
0030
0100
0001
,  // measure 12
2002
0000
3000
0000
,  // measure 13
1003
0000
0100
0000
0001
0100
0000
1000
,  // measure 14
0000
0010
0000
0100
0000
0001
0000
0010
,  // measure 15
0000
0001
0000
0100
0000
0010
0000
1000
,  // measure 16
0000
1000
0000
0100
0000
0010
0000
0002
,  // measure 17
0000
0000
0103
0010
0000
1000
0000
0001
,  // measure 18
0000
1000
0000
0000
0100
0000
0010
0001
,  // measure 19
0000
1000
0000
0001
0000
0100
0000
1000
,  // measure 20
0000
0100
0000
0001
0000
0010
0000
0200
,  // measure 21
0000
0000
0000
0300
0000
0000
0000
0000
,  // measure 22
0000
0000
0000
1000
0001
1000
0100
1000
,  // measure 23
0000
0002
0000
0003
0000
0000
0000
0100
,  // measure 24
0000
0010
0000
1000
0000
0001
0000
0020
,  // measure 25
0000
0000
0030
0000
,  // measure 26
0000
0000
0000
0001
1000
0001
0100
0001
,  // measure 27
0000
2000
0000
3000
0000
0000
0000
0000
,  // measure 28
1001
0000
0000
0000
0000
0000
0000
1000
,  // measure 29
0100
0000
0000
0100
0000
0000
0100
0000
0000
0000
0010
0000
0000
0000
0001
0000
,  // measure 30
0100
0000
0000
0100
0000
0000
0100
0000
0000
0000
0010
0000
0000
0000
1000
0000
,  // measure 31
0100
0000
0000
0100
0000
0000
0100
0000
0010
0000
0000
0000
0000
0000
0001
0000
,  // measure 32
1000
1000
0100
0100
,  // measure 33
1000
0000
0000
1000
0000
0000
1000
0000
0000
0000
0010
0000
0000
0000
0100
0000
,  // measure 34
0001
0000
0000
0001
0000
0000
0001
0000
0000
0000
0010
0000
0000
0000
0100
0000
,  // measure 35
1000
0000
0000
1000
0000
0000
1000
0000
0000
0000
0010
0000
0000
0000
0100
0000
,  // measure 36
0101
0001
1000
1000
,  // measure 37
0020
0000
0000
0000
,  // measure 38
0030
0000
0000
0000
0000
0000
1000
0002
,  // measure 39
0000
0000
0000
0000
0000
0000
0013
0001
,  // measure 40
0100
0000
1000
0000
0100
0000
0001
0010
,  // measure 41
0100
0000
1000
0010
0000
0100
0001
1000
,  // measure 42
0000
0100
1000
1000
0000
1000
0001
1000
,  // measure 43
0100
0000
0010
0001
0000
0100
0010
1000
,  // measure 44
0000
0001
0100
0100
0000
0010
0100
0001
,  // measure 45
0100
0000
1000
0000
0100
0000
0001
0010
,  // measure 46
1000
0000
0010
0000
0001
0000
0100
0010
,  // measure 47
1000
0000
0100
0000
0001
0000
0100
1000
,  // measure 48
0010
0000
0100
0000
0001
0000
0010
0100
,  // measure 49
1000
0000
0010
0000
1000
0000
0100
0010
,  // measure 50
0001
0100
1000
0100
,  // measure 51
0101
0001
0010
0100
,  // measure 52
1100
1000
0010
0100
,  // measure 53
1001
2002
0000
0000
0000
0000
3003
0000
,  // measure 54
0101
0202
0000
0000
0000
0000
0303
0000
,  // measure 55
1001
2002
0000
0000
0000
0000
3003
0000
,  // measure 56
1100
2200
0000
0000
0000
0000
3300
0000
,  // measure 57
1000
0100
1000
0000
0001
0000
0010
0000
,  // measure 58
0001
0100
0001
0000
1000
0000
0010
0000
,  // measure 59
1000
0100
1000
0000
0001
0000
0010
0000
,  // measure 60
0001
0001
0001
0100
,  // measure 61
0001
0100
1000
0000
0100
0000
0001
0000
,  // measure 62
0010
0001
0100
0000
0001
0000
0010
0000
,  // measure 63
1000
0010
0001
0000
0100
0000
0010
0000
,  // measure 64
1000
1000
0100
1000
,  // measure 65
1100
0000
1000
1000
,  // measure 66
0001
0100
0001
0000
0010
0000
0010
0000
,  // measure 67
0100
0000
1000
1000
,  // measure 68
0001
0000
0000
0000
;

//---------------dance-single - ----------------
#NOTES:
     dance-single:
     :
     Beginner:
     1:
     0.138,0.234,0.105,0.000,0.000:
0000
0000
0000
0000
,
0000
0000
0000
0000
,
0000
0000
0000
0000
,
0000
0000
0000
0000
,
1001
0000
0000
0000
,
0001
0000
0000
0000
,
0001
0000
0000
0000
,
0001
0000
1000
0000
,
1001
0000
0000
0000
,
0000
0000
0000
0000
,
1000
0000
0000
0000
,
1001
0000
0000
0000
,
1000
0000
0000
0000
,
0100
0000
0000
0000
,
0001
0000
0000
0000
,
0100
0000
0000
0000
,
0010
0000
0000
0000
,
0001
0000
0000
0000
,
0100
0000
0000
0000
,
1000
0000
0000
0000
,
0100
0000
0000
0000
,
0000
0000
0010
0010
,
0010
0000
0000
0000
,
1000
0000
0001
0000
,
1000
0000
0000
0000
,
0000
0000
0100
0100
,
0100
0000
0000
0000
,
0010
0000
0001
0000
,
1000
0000
0000
0000
,
0001
0000
0000
0000
,
1000
0000
0000
0000
,
1001
0000
0000
0000
,
0001
0000
0000
0000
,
1000
0000
0000
0000
,
0001
0000
0000
0000
,
1001
0000
0000
0000
,
1000
0000
0000
0000
,
0000
0000
0000
0000
,
0010
0000
0000
0000
,
0100
0000
0000
0000
,
0001
0000
0000
0000
,
0000
0000
0000
0000
,
0010
0000
0000
0000
,
0100
0000
0000
0000
,
1000
0000
1000
0000
,
0001
0000
0001
0000
,
0010
0000
0010
0000
,
0100
0000
0100
0000
,
1000
0000
1000
0000
,
0010
0000
0010
0000
,
0100
0000
0001
0000
,
1000
0000
0001
0000
,
1001
0000
0000
0000
,
1001
0000
0000
0000
,
1001
0000
0000
0000
,
1001
0000
0000
0000
,
1000
0000
0000
0000
,
1000
0000
0000
0000
,
1000
0000
0000
0000
,
0001
0000
0000
0000
,
0001
0000
0000
0000
,
0001
0000
0000
0000
,
0001
0000
0000
0000
,
1000
0000
0000
0000
,
0001
0000
0000
0000
,
0100
0000
0000
0000
,
0010
0000
0000
0000
,
1000
0000
0000
0000
;

//---------------dance-single - ----------------
#NOTES:
     dance-single:
     :
     Easy:
     4:
     0.354,0.467,0.209,0.186,0.000: // measure 1
0000
0000
0000
0000
,  // measure 2
0000
0000
0000
0000
,  // measure 3
0000
0000
0000
0000
,  // measure 4
0000
0000
0000
0000
,  // measure 5
1000
0100
1000
0000
,  // measure 6
1000
0001
1000
0000
,  // measure 7
1000
0010
1000
0000
,  // measure 8
0001
0001
0001
0000
,  // measure 9
0101
0000
0001
0100
,  // measure 10
0010
0000
0010
1000
,  // measure 11
0001
0000
0010
0100
,  // measure 12
2200
0000
0300
0000
,  // measure 13
3001
0100
0001
0100
,  // measure 14
1000
0100
1000
0100
,  // measure 15
0001
0100
0001
0100
,  // measure 16
0010
0010
1000
1000
,  // measure 17
0100
1000
0001
1000
,  // measure 18
0100
0010
0100
1000
,  // measure 19
0100
0010
0001
0100
,  // measure 20
0010
0010
1000
1000
,  // measure 21
0002
0000
0003
0000
,  // measure 22
0000
0000
1000
0100
,  // measure 23
1000
1000
0000
0000
,  // measure 24
0010
0100
0001
1000
,  // measure 25
0002
0000
0003
0000
,  // measure 26
0000
0000
0010
0001
,  // measure 27
0010
0000
0000
0000
,  // measure 28
0100
1000
0010
0100
,  // measure 29
0001
0000
0000
0000
0000
1001
0000
0000
,  // measure 30
1000
0000
0000
0000
0000
1001
0000
0000
,  // measure 31
0001
0000
0000
0000
0000
1001
0000
0000
,  // measure 32
0110
0110
0101
0101
,  // measure 33
1000
0000
0000
0000
0000
1100
0000
0000
,  // measure 34
0001
0000
0000
0000
0000
0101
0000
0000
,  // measure 35
1000
0000
0000
0000
0000
1010
0000
0000
,  // measure 36
0012
1000
0100
1000
,  // measure 37
0023
0000
0000
0000
,  // measure 38
0000
0030
0000
0000
0000
0000
0001
2000
,  // measure 39
0000
0000
0000
3010
,  // measure 40
1000
0100
0001
0100
,  // measure 41
0020
0000
0000
0030
,  // measure 42
0000
0000
0000
0001
,  // measure 43
0100
1000
0100
0001
,  // measure 44
0010
1000
0010
0001
,  // measure 45
1000
1000
0010
0100
,  // measure 46
0001
0001
0100
0010
,  // measure 47
1000
1000
0100
0010
,  // measure 48
0001
1000
0001
0010
,  // measure 49
0100
0100
1000
0010
,  // measure 50
0100
0100
0001
0010
,  // measure 51
0001
0100
1000
0100
,  // measure 52
0001
0010
1000
0010
,  // measure 53
2002
3003
0000
0000
0000
0000
0000
0000
,  // measure 54
0202
0303
0000
0000
0000
0000
0000
0000
,  // measure 55
2002
3003
0000
0000
0000
0000
0000
0000
,  // measure 56
2200
3300
0000
0000
0000
0000
0000
0000
,  // measure 57
0001
0100
0001
0000
,  // measure 58
0001
1000
0001
0000
,  // measure 59
0001
0010
0001
0000
,  // measure 60
1000
1000
1000
0000
,  // measure 61
1000
0100
1000
0000
,  // measure 62
1000
0001
1000
0000
,  // measure 63
1000
0010
1000
0000
,  // measure 64
0001
0001
0001
0000
,  // measure 65
0101
0000
0100
0010
,  // measure 66
1000
0000
1000
0001
,  // measure 67
0010
0000
0100
1000
,  // measure 68
0001
0000
0000
0000
;
