#VERSION:0.83;
#TITLE:KISS CANDY FLAVOR;
#SUBTITLE:;
#ARTIST:カラフル・サウンズ・ポート;
#TITLETRANSLIT:;
#SUBTITLETRANSLIT:;
#ARTISTTRANSLIT:COLORFUL SOUNDS PORT;
#GENRE:TECHNO POP;
#ORIGIN:;
#CREDIT:;
#BANNER:[Round E] - KISS CANDY FLAVOR.png;
#BACKGROUND:[Round E] - KISS CANDY FLAVOR-bg.png;
#PREVIEWVID:;
#JACKET:[Round E] - KISS CANDY FLAVOR-jacket.png;
#CDIMAGE:;
#DISCIMAGE:;
#LYRICSPATH:;
#CDTITLE:cdtitle.png;
#MUSIC:[Round E] - KISS CANDY FLAVOR.ogg;
#OFFSET:-0.361000;
#SAMPLESTART:69.382004;
#SAMPLELENGTH:15.000000;
#SELECTABLE:YES;
#BPMS:0.000=146.000;
#STOPS:;
#DELAYS:;
#WARPS:;
#TIMESIGNATURES:0.000=4=4;
#TICKCOUNTS:0.000=4;
#COMBOS:0.000=1;
#SPEEDS:0.000=1.000=0.000=0;
#SCROLLS:0.000=1.000;
#FAKES:;
#LABELS:0.000=Song Start;
#BGCHANGES:0.000=[Round E] - KISS CANDY FLAVOR.avi=1.000=0=0=0=StretchNoLoop==CrossFade_Fastest==,
99999=-nosongbg-=1.000=0=0=0 // don't automatically add -songbackground-
;
#KEYSOUNDS:;
#ATTACKS:
;

//---------------dance-single - ----------------
#NOTEDATA:;
#CHARTNAME:;
#STEPSTYPE:dance-single;
#DESCRIPTION:;
#CHARTSTYLE:;
#DIFFICULTY:Beginner;
#METER:1;
#RADARVALUES:0.106272,0.147981,0.015998,0.039995,0.000000,93.000000,91.000000,2.000000,5.000000,0.000000,0.000000,0.000000,0.000000,0.000000,0.106272,0.147981,0.015998,0.039995,0.000000,93.000000,91.000000,2.000000,5.000000,0.000000,0.000000,0.000000,0.000000,0.000000;
#CREDIT:;
#NOTES:
0000
0000
0000
0000
,
0000
0000
0000
0000
,
0000
0000
0000
0000
,
0000
0000
0000
0000
,
1000
0000
0000
0000
,
0000
0000
1000
0000
,
1000
0000
0000
0000
,
0000
0000
1000
0000
,
0001
0000
0000
0000
,
0000
0000
0001
0000
,
0001
0000
0000
0000
,
0001
0000
0000
0000
,
1000
0000
0000
0000
,
1000
0000
0000
0000
,
0010
0000
0000
0000
,
0010
0000
0000
0000
,
0100
0000
0000
0000
,
0100
0000
0000
0000
,
0001
0000
0000
0000
,
0002
0000
0003
0000
,
1000
0000
1000
0000
,
1000
0000
0000
0000
,
0001
0000
0001
0000
,
0001
0000
0000
0000
,
0100
0000
0100
0000
,
0100
0000
0000
0000
,
0010
0000
0010
0000
,
0010
0000
0000
0000
,
0100
0000
0100
0000
,
0100
0000
0000
0000
,
0001
0000
0001
0000
,
0001
0000
0000
0000
,
1000
0000
1000
0000
,
1000
0000
0000
0000
,
0010
0000
0010
0000
,
0010
0000
0000
0000
,
1000
0000
0000
0000
,
1000
0000
1000
0000
,
0001
0000
0000
0000
,
0001
0000
0001
0000
,
0010
0000
0000
0000
,
1001
0000
0000
0000
,
0001
0000
0000
0000
,
0001
0000
0001
0000
,
1000
0000
0000
0000
,
1000
0000
1000
0000
,
0010
0000
0000
0000
,
0010
0000
0010
0000
,
0100
0000
0000
0000
,
0100
0000
0000
0000
,
0010
0000
0000
0000
,
0010
0000
0010
0000
,
0100
0000
0000
0000
,
0100
0000
0100
0000
,
0001
0000
0000
0000
,
0001
0000
0001
0000
,
1000
0000
0000
0000
,
1000
0000
0000
0000
,
0001
0000
0000
0000
,
0001
0000
0001
0000
,
1000
0000
1000
0000
,
2000
0000
3000
0000
,
0100
0000
0000
0000
,
0100
0000
0100
0000
,
0010
0000
0010
0000
,
0020
0000
0030
0000
,
0001
0000
0001
0000
,
0001
0000
0000
0000
,
1000
0000
1000
0000
,
1000
0000
0000
0000
,
0020
0000
0000
0000
,
0030
0000
0000
0000
,
0200
0000
0000
0000
,
0300
0000
0000
0000
,
1001
0000
0000
0000
;

//---------------dance-single - ----------------
#NOTEDATA:;
#CHARTNAME:;
#STEPSTYPE:dance-single;
#DESCRIPTION:;
#CHARTSTYLE:;
#DIFFICULTY:Easy;
#METER:3;
#RADARVALUES:0.231970,0.266366,0.031996,0.071991,0.000000,203.000000,199.000000,4.000000,9.000000,0.000000,0.000000,0.000000,0.000000,0.000000,0.231970,0.266366,0.031996,0.071991,0.000000,203.000000,199.000000,4.000000,9.000000,0.000000,0.000000,0.000000,0.000000,0.000000;
#CREDIT:;
#NOTES:
0000
0000
0000
0000
,
0000
0000
0000
0000
,
0000
0000
0000
0000
,
0000
0000
0000
0000
,
1000
0000
0100
0000
,
0001
0100
1000
0000
,
1000
0000
0010
0000
,
0001
0010
1000
0000
,
0001
0000
0100
0000
,
1000
0100
0001
0000
,
0001
0010
1000
0000
,
1000
0010
0001
0000
,
1000
0010
1000
0000
,
0001
0100
1000
0000
,
1000
0100
0001
0000
,
1000
0100
1000
0000
,
0001
0010
0001
0000
,
1000
0100
0001
0000
,
0001
0100
1000
0000
,
2002
0000
3003
0000
,
0001
0010
0001
0000
,
1000
0010
0100
0000
,
0001
0100
0001
0000
,
1000
0100
0010
0000
,
0001
0100
0010
0000
,
1000
0100
0001
0000
,
0100
1000
0010
0000
,
0100
0001
1000
0000
,
1000
0010
1000
0000
,
0001
0010
0100
0000
,
1000
0100
1000
0000
,
0001
0100
0010
0000
,
1000
0100
0010
0000
,
0001
0100
1000
0000
,
0100
0001
0010
0000
,
0100
1000
0001
0000
,
1000
1000
0001
0001
,
0100
0010
0100
0000
,
0001
0001
1000
1000
,
0100
0010
0100
0000
,
1000
1000
0001
0001
,
1001
0000
1001
0000
,
1000
0000
0010
0000
,
1000
0100
0001
0100
,
1000
0000
0010
0000
,
0001
0010
1000
0000
,
0001
0000
0010
0000
,
0001
0100
1000
0100
,
0001
0000
0010
0000
,
0100
0010
0001
0000
,
1000
0000
0100
0000
,
1000
0010
0100
0010
,
1000
0000
0100
0000
,
0001
0100
1000
0000
,
0001
0000
0100
0000
,
0001
0010
0100
0010
,
0001
0000
0100
0000
,
0010
1000
0001
0000
,
1000
0000
0100
0000
,
0001
0100
1000
1000
,
0001
0001
0100
0100
,
0020
0000
0130
0000
,
0001
0000
0100
0000
,
1000
0100
0001
0001
,
1000
1000
0100
0100
,
0020
0000
0130
0000
,
1000
0010
1000
0000
,
0001
0100
0001
0000
,
1000
0100
1000
0000
,
0001
0010
0001
0000
,
2000
0000
3000
0000
,
0020
0000
0030
0000
,
0200
0300
0002
0003
,
2000
3000
0001
1000
,
1001
0000
0000
0000
;

//---------------dance-single - ----------------
#NOTEDATA:;
#CHARTNAME:;
#STEPSTYPE:dance-single;
#DESCRIPTION:;
#CHARTSTYLE:;
#DIFFICULTY:Medium;
#METER:6;
#RADARVALUES:0.374809,0.414347,0.183976,0.247968,0.000000,328.000000,305.000000,23.000000,31.000000,0.000000,0.000000,0.000000,0.000000,0.000000,0.374809,0.414347,0.183976,0.247968,0.000000,328.000000,305.000000,23.000000,31.000000,0.000000,0.000000,0.000000,0.000000,0.000000;
#CREDIT:;
#NOTES:
0000
0000
0000
0000
,
0000
0000
0000
0000
,
0000
0000
0000
0000
,
0000
0000
0000
0000
,
1000
1000
0001
0001
,
0100
0001
1000
1001
,
0001
0001
1000
1000
,
0010
1000
1001
0000
,
0001
0001
1000
1000
,
0100
1000
1001
0001
,
2000
3200
0320
0031
,
0002
0203
0320
1030
,
1000
0000
0100
0010
0100
0000
1000
0010
,
1000
0001
0010
0100
,
1000
0000
0001
0100
0001
0000
0010
0100
,
0010
0000
0001
0000
0100
0010
0100
0000
,
0001
0000
0100
0010
0100
0000
0001
0010
,
0001
1000
0010
0100
,
0001
0000
1000
0100
1000
0000
0010
0000
,
2002
0000
0000
3003
,
0001
0000
0100
0010
0100
0000
0001
0000
,
0010
0100
1000
0001
,
1000
0000
0010
0100
0010
0000
1000
0000
,
0100
0010
0100
0000
1000
0000
0001
0000
,
1000
0000
0100
0010
0100
0000
1000
0000
,
0010
0100
0001
1000
,
0001
0000
0010
0100
0010
0000
0001
0000
,
0100
0010
0100
0000
0001
0000
1000
0000
,
0010
0000
0100
0001
0100
0000
0010
0000
,
1000
0100
0001
0100
,
1000
0000
0010
0100
0010
0000
1000
0000
,
0001
0010
0001
0000
1000
0000
0100
0000
,
0010
0000
0100
1000
0100
0000
0010
0000
,
0001
0100
1000
0100
,
0001
0000
0010
0100
0010
0000
0001
0000
,
1000
0010
1000
0000
0001
0000
0100
0000
,
0010
1000
0010
0000
1000
0010
1000
0000
,
0001
0010
0100
1000
,
0002
0103
0200
0310
,
0010
1000
0010
1000
0010
0000
0100
0000
,
0001
0010
0001
0000
0010
0001
0010
0000
,
0220
0330
2002
3003
,
1000
0010
0001
0010
,
1000
0100
1000
0000
0001
0000
1001
0000
,
1000
0100
0001
0100
,
1000
0010
1000
0000
1001
0000
0001
0000
,
1000
0010
0001
0010
,
1000
0100
1000
0000
1001
0000
0001
0000
,
2000
3002
0203
0320
,
1030
1001
0110
1001
,
0001
0010
1000
0010
,
0001
0100
0001
0000
1000
0000
1001
0000
,
0001
0100
1000
0100
,
0001
0010
0001
0000
1001
0000
1000
0000
,
0001
0010
1000
0010
,
0001
0100
0001
0000
1001
0000
1000
0000
,
0002
2003
3200
0320
,
0032
0203
0320
1030
,
1000
0100
0010
0001
,
1000
0010
1000
0000
1001
0000
0001
0001
,
0000
1000
1000
0000
0001
0000
0100
0000
,
0020
1000
1030
1001
,
0001
0100
0010
1000
,
0001
0010
0001
0000
1001
0000
1000
1000
,
0000
0001
0001
0000
1000
0000
0100
0000
,
0020
0001
0031
1001
,
1000
0000
0100
0010
0100
0000
1000
0000
,
0010
0100
0001
1000
,
0001
0000
0010
0100
0010
0000
0001
0000
,
0100
0010
0100
0000
0001
0000
0010
0000
,
0220
0000
0000
0330
,
2002
0000
0000
3003
,
0001
0000
0000
1000
0000
0000
0000
1001
,
0000
0000
0001
1000
,
1001
0000
0000
0000
;

//---------------dance-single - ----------------
#NOTEDATA:;
#CHARTNAME:;
#STEPSTYPE:dance-single;
#DESCRIPTION:;
#CHARTSTYLE:;
#DIFFICULTY:Hard;
#METER:8;
#RADARVALUES:0.547359,0.562328,0.503936,0.487938,0.071991,479.000000,416.000000,63.000000,61.000000,0.000000,0.000000,0.000000,0.000000,0.000000,0.547359,0.562328,0.503936,0.487938,0.071991,479.000000,416.000000,63.000000,61.000000,0.000000,0.000000,0.000000,0.000000,0.000000;
#CREDIT:;
#NOTES:
0000
0000
0000
0000
,
0000
0000
0000
0000
,
0000
0000
0000
0000
,
0000
0000
0000
0000
,
2000
0000
3010
0200
0000
0301
2000
0000
,
3100
0001
0100
1000
0001
0000
1001
0000
,
2000
0000
3100
0020
0000
0031
2000
0000
,
3010
0001
0010
1000
0100
0000
0100
0010
,
0002
0000
0013
0200
0000
1300
0002
0000
,
0103
1000
0100
0001
1000
0000
1000
0010
,
0200
0302
2003
3200
,
0310
0001
0100
1000
0100
0001
0010
0100
,
2000
0000
3010
0100
0001
0010
0001
0200
,
0000
0320
0000
1030
0100
0001
0100
1000
,
0002
0000
0013
0100
1000
0010
1000
0200
,
0000
0320
0000
0031
0100
1000
0100
0001
,
0020
0000
0130
1000
0001
0100
0010
2000
,
0000
3002
0000
0103
0010
1000
0001
0100
,
0020
0000
0130
0001
1000
0100
0010
0001
,
1001
0000
1000
0100
0001
0100
1000
0001
,
2000
0000
3010
0001
0020
0000
1030
0100
,
0001
0100
1000
0010
0000
0110
0000
0100
,
0002
0000
0013
0100
2000
0000
3010
0100
,
0001
0000
0010
0000
0100
0000
1000
0000
0001
0000
0000
0100
0001
0000
1000
0000
,
0002
0000
0013
1000
0020
0000
0031
0100
,
1000
0100
0001
0010
0000
0110
0000
0100
,
1000
0001
0100
0001
0000
0001
0010
0100
,
0000
0000
0100
0000
1000
0000
0010
0000
0100
0000
0010
0100
0010
0000
1000
0000
,
0002
0000
0103
0010
2000
0000
3010
0100
,
0001
0010
0001
0100
0000
1001
0000
0001
,
0020
0000
0130
1000
0002
0000
0103
0010
,
1000
0000
0100
0000
0001
0000
0100
0000
1000
0000
0000
0010
1000
0000
0001
0000
,
2000
0000
3100
0010
0002
0000
0013
0100
,
1000
0010
1000
0100
0000
1001
0000
1000
,
0010
0100
0001
1000
0000
1000
0001
0010
,
0000
0000
0010
0000
0100
0000
1000
0000
0002
0000
0000
0000
0103
0000
0001
0100
,
0001
0010
1000
0010
0001
0100
1000
0100
,
0001
0010
0100
2000
0000
3001
0100
0010
,
2000
0000
3100
0010
0002
0000
0013
0100
,
1000
0010
0001
0010
1000
0100
0010
0001
,
0200
0000
0301
1000
0020
0000
0130
0001
,
2001
3100
1002
0013
,
1001
1010
0101
1001
,
1000
0001
0010
0100
0110
0000
1001
0000
,
0101
0110
1010
1001
,
0001
0000
0100
0000
0010
0000
1000
0000
1100
0000
0000
0100
1000
0000
0000
0000
,
1001
0101
1010
1001
,
0001
0100
0010
1000
1001
0000
0001
0100
,
0010
0000
0000
0010
1000
0000
0000
1000
0100
0000
0000
0100
0010
0000
0000
0000
,
0011
0000
1100
0000
1001
0001
1000
0000
,
1001
0011
1100
1001
,
0001
1000
0010
0100
0110
0000
1001
0000
,
1100
0110
0011
1001
,
1000
0000
0100
0000
0010
0000
0001
0000
0101
0000
0000
0100
0001
0000
0000
0000
,
1001
1100
0011
1001
,
1000
0100
0010
0001
1001
0000
1000
0100
,
0010
0000
0000
0010
0001
0000
0000
0001
0100
0000
0000
0100
0010
0000
0000
0000
,
1010
0101
1001
0110
,
1001
1100
0101
1100
,
1000
0010
0100
0001
2001
0000
3100
0020
,
0000
0000
0031
0000
2000
0000
0000
0000
3010
0000
0100
0000
0001
0000
1000
0100
,
0000
1000
0100
0000
1000
0000
0010
0000
0001
0000
0010
0000
1000
0000
0000
0000
,
1001
0101
1100
0101
,
0001
0010
0100
1000
1002
0000
0103
0020
,
0000
0000
1030
0000
0002
0000
0000
0000
0013
0000
0100
0000
1000
0000
0001
0100
,
0000
0001
0100
0000
0001
0000
0100
0000
0010
0000
1000
0001
1000
0001
1000
0000
,
0002
0000
0103
0010
2000
0000
3100
0010
,
0001
0100
1000
0100
0001
0000
1001
0000
,
2000
0000
3100
0010
0002
0000
0103
0010
,
1000
0100
0001
0100
1000
0000
1001
0000
,
0202
0000
0000
0303
,
2020
0000
0000
3030
,
1002
0000
0000
0203
0000
0000
0000
0320
,
0000
0000
2030
3001
,
1001
0000
0000
0000
;

//---------------dance-single - ----------------
#NOTEDATA:;
#CHARTNAME:;
#STEPSTYPE:dance-single;
#DESCRIPTION:;
#CHARTSTYLE:;
#DIFFICULTY:Challenge;
#METER:9;
#RADARVALUES:0.665058,0.680713,0.231970,0.119985,0.363953,582.000000,553.000000,29.000000,15.000000,0.000000,0.000000,0.000000,0.000000,0.000000,0.665058,0.680713,0.231970,0.119985,0.363953,582.000000,553.000000,29.000000,15.000000,0.000000,0.000000,0.000000,0.000000,0.000000;
#CREDIT:;
#NOTES:
// measure 0
0000
0000
0000
0000
,  // measure 1
0000
0000
0000
0000
,  // measure 2
0000
0000
0000
0000
,  // measure 3
0000
0000
0000
0000
,  // measure 4
0001
0000
0000
1000
0010
0000
0200
0000
0000
0000
0301
0000
1000
0000
0100
0000
,  // measure 5
0001
0100
1000
0010
1010
0000
0101
0000
,  // measure 6
0001
0000
0000
1000
0100
0000
0020
0000
0000
0000
0031
0000
1000
0000
0010
0000
,  // measure 7
0001
0010
1000
0001
0101
0000
0100
0010
,  // measure 8
1000
0000
0000
0001
0010
0000
0200
0000
0000
0000
1300
0000
0001
0000
0100
0000
,  // measure 9
1000
0100
0001
0010
0011
0000
0001
1000
,  // measure 10
1010
0000
0110
0000
0101
0000
0001
1001
,  // measure 11
0000
0000
1000
0000
0100
1000
0000
0010
0000
0100
0001
0000
0100
0000
0001
1000
,  // measure 12
0001
0000
0000
0010
0001
0000
0100
0000
0010
0000
1000
0100
1000
0000
0001
0000
,  // measure 13
0100
0000
0010
0000
1000
0000
0100
0010
0100
0000
1000
0000
0010
0000
0100
0000
,  // measure 14
0001
0000
0000
0010
0100
0000
1000
0000
0010
0000
0100
0010
0100
0000
0001
0000
,  // measure 15
1000
0000
0100
0000
0010
0000
0001
0100
0001
0000
0100
0010
0100
0000
0010
0000
,  // measure 16
1000
0000
0000
0010
1000
0000
0100
0000
0010
0000
0001
0100
0001
0000
1000
0000
,  // measure 17
0100
0000
0010
0000
0001
0000
0100
0010
0100
0000
0001
0000
0010
0000
0100
0000
,  // measure 18
1000
0000
0000
0010
0100
0000
0001
0000
0010
0000
0100
0010
0100
0000
1000
0000
,  // measure 19
0001
0000
0010
0001
0010
0000
0100
0010
0100
0000
1000
0000
0010
0000
0100
0000
,  // measure 20
0001
0000
0000
0010
0001
0000
1000
0000
0010
0000
0000
0100
0010
0000
1000
0000
,  // measure 21
0001
0010
0100
1000
0010
1000
0100
0010
,  // measure 22
0001
0000
0000
0100
0001
0000
0010
0000
0100
0000
0000
1000
0100
0000
0010
0000
,  // measure 23
0001
0000
0100
0000
0010
0000
1000
0000
0001
0000
0010
0100
0010
0000
0001
0000
,  // measure 24
1000
0000
0000
0010
1000
0000
0001
0000
0010
0000
0000
0100
0010
0000
0001
0000
,  // measure 25
1000
0010
0100
0001
0010
0001
0100
0010
,  // measure 26
1000
0100
0001
0200
0000
1300
0010
0200
,  // measure 27
0000
0000
0301
0000
0010
0000
0100
0000
1000
0000
0010
0100
0010
0100
0001
0000
,  // measure 28
1000
0000
0000
0010
1000
0000
0001
0000
0010
0000
0000
0100
0010
0000
0001
0000
,  // measure 29
1000
0010
0100
0001
0010
0001
0100
0010
,  // measure 30
1000
0000
0000
0100
1000
0000
0010
0000
0100
0000
0000
0001
0100
0000
0010
0000
,  // measure 31
1000
0000
0100
0000
0010
0000
0001
0000
1000
0000
0010
0100
0010
0000
1000
0000
,  // measure 32
0001
0000
0000
0010
0001
0000
1000
0000
0010
0000
0000
0100
0010
0000
1000
0000
,  // measure 33
0001
0010
0100
1000
0010
1000
0100
0010
,  // measure 34
0001
0100
1000
0200
0000
0301
0010
0200
,  // measure 35
0000
0000
1300
0000
0010
0000
0100
0000
0001
0000
0010
0000
0100
0000
1000
0010
,  // measure 36
1000
0100
0001
0100
1000
0010
0001
0010
,  // measure 37
1000
0100
0010
0001
0100
0010
1000
0100
,  // measure 38
0002
0000
0103
1000
0002
0000
0103
1000
,  // measure 39
0001
0010
1000
0100
0010
0001
0100
1000
,  // measure 40
0001
0010
1000
0100
0010
0001
1000
0010
,  // measure 41
2010
0000
3001
0100
0101
0000
0110
0000
,  // measure 42
1001
0000
0000
0001
1000
0000
0100
0000
0001
0000
0100
0000
1000
0000
0001
0000
,  // measure 43
0010
0000
0100
1000
0100
0000
0010
0000
0110
0000
0000
0000
1001
0000
0000
0000
,  // measure 44
0011
0000
0000
0010
0001
0000
1000
0000
0010
0000
0001
0000
0010
0000
1000
0000
,  // measure 45
0100
0000
0010
0100
0010
0000
0001
0000
1000
0000
0010
0100
0010
0000
0000
0000
,  // measure 46
1001
0000
0000
1000
0001
0000
0010
0000
0100
0000
1000
0000
0001
0000
0100
0000
,  // measure 47
0010
0000
1000
0100
1000
0000
0001
0000
0101
0000
0000
0100
0001
0000
1000
0000
,  // measure 48
0001
0000
0000
0001
0100
0000
0000
0100
0010
0000
0000
0010
1000
0000
0100
0000
,  // measure 49
0010
0000
0001
0100
0001
0000
1000
0000
0001
0000
0010
0100
0010
0000
0000
0000
,  // measure 50
1001
0000
0000
1000
0001
0000
0100
0000
1000
0000
0100
0000
0001
0000
1000
0000
,  // measure 51
0010
0000
0100
0001
0100
0000
0010
0000
0110
0000
0000
0000
1001
0000
0000
0000
,  // measure 52
1010
0000
0000
0010
1000
0000
0001
0000
0010
0000
1000
0000
0010
0000
0001
0000
,  // measure 53
0100
0000
0010
0100
0010
0000
1000
0000
0001
0000
0010
0100
0010
0000
0000
0000
,  // measure 54
1001
0000
0000
0001
1000
0000
0010
0000
0100
0000
0001
0000
1000
0000
0100
0000
,  // measure 55
0010
0000
0001
0100
0001
0000
1000
0000
1100
0000
0000
0100
1000
0000
0001
0000
,  // measure 56
1000
0000
0000
1000
0100
0000
0000
0100
0010
0000
0000
0010
0001
0000
1001
0000
,  // measure 57
0000
0000
1000
0100
1000
0000
0001
0000
0100
0000
0001
0010
0001
0010
0001
0000
,  // measure 58
0101
0000
0000
0100
0010
0000
1000
0000
0100
0000
0001
0000
0100
0000
1000
0000
,  // measure 59
0001
0000
0100
0010
0100
0000
0001
0000
1001
0000
0000
1000
0010
0000
0100
0000
,  // measure 60
0000
0001
0100
0000
0010
0000
0000
0100
0001
0000
1000
0000
0010
0000
1000
0001
,  // measure 61
0000
1000
0001
0000
1000
0001
1000
0000
0001
1000
0001
0000
1000
0000
0000
0000
,  // measure 62
1100
0000
0000
0100
0010
0000
0001
0000
0100
0000
1000
0000
0100
0000
0001
0000
,  // measure 63
1000
0000
0100
0010
0100
0000
1000
0000
1001
0000
0000
0001
0010
0000
0100
0000
,  // measure 64
0000
1000
0100
0000
0010
0000
0000
0100
1000
0000
0001
0000
0100
0000
0001
1000
,  // measure 65
0000
0001
1000
0000
0001
1000
0001
1000
0001
1000
0001
1000
0001
0000
1000
0000
,  // measure 66
1001
0000
0000
0001
0100
0000
0010
0000
1000
0000
0000
0100
0010
0000
0100
0000
,  // measure 67
1000
0010
0001
0100
1000
0010
0100
0001
,  // measure 68
1000
0000
0000
0100
1000
0000
0010
0000
0100
0000
0000
0001
0100
0000
0010
0000
,  // measure 69
1000
0000
0100
0000
0001
0000
0100
0000
1000
0000
0010
0000
0100
0000
0001
1000
,  // measure 70
0002
0000
0100
0000
,  // measure 71
0203
0000
0010
0000
,  // measure 72
0320
0000
0000
2030
0000
0000
0000
3200
,  // measure 73
0000
0000
0000
0000
0010
0000
0000
0000
0310
0000
0000
0000
0100
0000
1000
0001
,  // measure 74
1000
0000
0000
0000
;
