#VERSION:0.82;
#TITLE:I Can't Take It Anymore;
#SUBTITLE:;
#ARTIST:Sample Boys feat. Sarah J. Brown;
#TITLETRANSLIT:;
#SUBTITLETRANSLIT:;
#ARTISTTRANSLIT:;
#GENRE:;
#ORIGIN:;
#CREDIT:;
#BANNER:I Can't Take It Anymore.png;
#BACKGROUND:I Can't Take It Anymore-bg.png;
#PREVIEWVID:;
#JACKET:I Can't Take It Anymore-jacket.png;
#CDIMAGE:;
#DISCIMAGE:;
#LYRICSPATH:;
#CDTITLE:;
#MUSIC:I Can't Take It Anymore.ogg;
#OFFSET:-0.150000;
#SAMPLESTART:62.830002;
#SAMPLELENGTH:12.000000;
#SELECTABLE:YES;
#BPMS:0.000=122.140,
37.000=124.360,
46.000=121.820,
47.000=121.640,
48.000=121.800,
49.000=121.140,
85.000=121.360,
169.000=121.640,
909.000=122.280;
#STOPS:;
#DELAYS:22.062=0.480,
45.062=0.480,
84.062=0.480;
#WARPS:14.062=8.000,
37.062=8.000,
76.062=8.000;
#TIMESIGNATURES:0.000=4=4;
#TICKCOUNTS:0.000=4;
#COMBOS:0.000=1;
#SPEEDS:0.000=1.000=0.000=0;
#SCROLLS:0.000=1.000;
#FAKES:;
#LABELS:0.000=Song Start;
#BGCHANGES:;
#KEYSOUNDS:;
#ATTACKS:
;

//---------------dance-single - ----------------
#NOTEDATA:;
#CHARTNAME:;
#STEPSTYPE:dance-single;
#DESCRIPTION:;
#CHARTSTYLE:;
#DIFFICULTY:Challenge;
#METER:8;
#RADARVALUES:0.552060,0.659348,0.145827,0.166660,0.489563,341.000000,14.000000,16.000000,0.000000,0.000000,0.000000,0.000000,38.000000,0.552060,0.659348,0.145827,0.166660,0.489563,341.000000,14.000000,16.000000,0.000000,0.000000,0.000000,0.000000,38.000000;
#CREDIT:;
#NOTES:
// measure 0
0000
0000
0000
0000
,  // measure 1
0000
0000
0000
0000
,  // measure 2
0000
0000
0000
0000
,  // measure 3
0000
0000
0000
0000
0000
0000
0000
0000
1001
0000
0000
0000
M000
0000
000M
M000
,  // measure 4
000M
0M00
0000
000M
0000
M000
0M00
00M0
0000
00M0
000M
0M00
000M
0000
M000
000M
,  // measure 5
M000
0M00
0000
0000
0000
0000
0000
0000
0000
0000
0000
0000
1000
0000
0001
1000
,  // measure 6
0001
0100
0000
0001
0000
1000
0100
0010
0000
0010
0001
0100
0001
0000
1000
0001
,  // measure 7
1000
0100
0000
0010
0000
0001
1000
0010
0000
0010
1000
0001
0100
0000
0001
1000
,  // measure 8
0010
1000
0000
0001
0000
0010
0100
1000
0000
0100
0010
0001
1000
0000
0010
0100
,  // measure 9
0010
1000
0000
0001
0010
0000
F000
0000
0020
0000
0000
0000
F030
0000
0F00
00F0
,  // measure 10
0000
00F0
000F
0000
F000
0000
F000
0000
00F0
0000
0000
0000
0000
0000
0000
0000
,  // measure 11
0000
0000
0000
0000
0000
0000
0001
0000
0200
0000
0000
0000
0301
0000
0010
0100
,  // measure 12
0000
0100
1000
0000
0001
0000
0001
0000
0200
0000
0000
0000
0310
0000
1000
0001
,  // measure 13
0000
0001
0100
0000
0010
0000
0010
0000
0200
0000
0000
0000
1300
0000
0100
0001
,  // measure 14
0000
0001
0010
0000
0100
0000
0100
0000
2000
0000
0000
0000
3001
0000
0200
0000
,  // measure 15
0010
0000
0000
0000
0301
0000
1000
0000
0020
0000
0000
0000
1030
0000
0001
0100
,  // measure 16
0000
0001
1000
0000
0100
0000
0100
0000
0020
0000
0000
0000
0031
0000
1000
0010
,  // measure 17
0000
0100
0001
0000
1000
0000
1000
0000
0020
0000
0000
0000
0130
0000
0001
1000
,  // measure 18
0000
0100
0010
0000
0001
0000
0001
0000
0100
0000
0010
0000
1000
0000
0100
0000
,  // measure 19
0010
0000
0000
0000
0010
0000
0010
0000
0010
0000
0010
00F0
0000
0010
0000
0000
,  // measure 20
00F0
00F0
00F0
0010
0010
0000
0000
0000
,  // measure 21
0000
0000
0000
0000
0001
0000
1000
0000
0010
0000
0100
0001
0000
0010
0000
0000
,  // measure 22
1000
0000
0001
0000
1000
0000
0100
0000
0010
0000
0001
0100
0000
1000
0000
0000
,  // measure 23
0001
0000
0100
0000
0001
0000
1000
0000
0100
0000
0010
0001
0000
0100
0000
0000
,  // measure 24
1000
0000
0010
0000
0100
0000
0001
0000
1000
0001
0000
0001
0020
0000
0000
0000
,  // measure 25
1030
0000
0000
0000
0001
0000
0100
0000
0010
0000
1000
0010
0000
0100
0000
0000
,  // measure 26
0100
0000
0001
0000
1000
0000
0100
0000
0010
0000
0100
1000
0000
0001
0000
0000
,  // measure 27
0001
0000
1000
0000
0010
0000
0000
0010
1000
0000
0000
1000
0001
0000
0000
0001
,  // measure 28
0100
0000
0000
0100
0001
0000
0010
0000
0100
0000
1000
0020
0000
0000
0000
0000
,  // measure 29
0030
0000
0000
0000
0101
0000
0001
0010
0000
0012
0000
0000
0000
1003
0000
0000
,  // measure 30
0000
0000
1000
0000
0001
0000
0010
0000
0001
0000
1000
0020
0100
0000
0000
0000
,  // measure 31
0130
0100
0001
0010
1000
0010
0001
0100
,  // measure 32
1000
0100
0002
0000
1003
0000
1100
1001
,  // measure 33
0101
0000
0000
0000
1010
0000
1000
0100
0000
2100
0000
0000
0000
3001
0000
0000
,  // measure 34
0000
0000
0001
0000
1000
0000
0010
0000
1000
0000
0001
0020
0100
0000
0000
0000
,  // measure 35
0130
0100
1000
0001
0010
0100
1000
0010
,  // measure 36
0100
0001
1000
1000
0001
0002
0000
0000
,  // measure 37
0103
0010
1000
0001
0100
0010
1000
0001
,  // measure 38
0100
0000
0010
0000
1000
0000
0001
0000
0100
0010
0100
0000
0000
0000
0000
0000
,  // measure 39
0100
0001
0010
0100
1000
0001
0010
0100
,  // measure 40
1000
0000
0001
0000
0010
0000
0100
0000
1000
0001
1000
0000
0000
0000
0000
0000
,  // measure 41
0100
1000
0010
0100
0001
1000
0100
0010
,  // measure 42
0001
0000
1000
0000
0010
0000
0100
0000
0001
0010
0001
0000
0000
0000
0000
0000
,  // measure 43
0100
0010
1000
0001
0010
0100
1000
0001
,  // measure 44
0100
0000
0010
0000
1000
0000
0001
0000
0010
0100
0010
0000
0100
0000
0000
1001
,  // measure 45
0000
0000
0110
0000
1000
0010
0000
0000
1000
0000
0001
0100
0000
0000
1000
0000
,  // measure 46
0100
0000
0010
0000
0001
0100
0000
0000
0001
0000
1000
0010
0000
0000
0001
0000
,  // measure 47
0100
0000
0010
0000
1000
0001
0000
0000
0010
0000
0010
0100
0000
0000
1000
0000
,  // measure 48
0001
0000
0010
0000
0001
1000
0000
0000
0100
0000
0100
0010
0000
0000
0001
0000
,  // measure 49
0100
0000
0010
0000
1000
0001
0000
0000
1100
0000
0001
0100
0000
0000
0010
0000
,  // measure 50
1000
0000
1000
0000
0001
1000
0000
0000
0101
0000
1000
0100
0000
0000
0010
0000
,  // measure 51
0001
0000
0001
0000
0100
0010
0000
0000
0110
0000
0001
1000
0000
0000
0001
0000
,  // measure 52
0100
0000
0010
0000
1000
0100
0000
0000
0010
0000
0010
0000
1001
0000
0000
0000
;

//---------------dance-single - ----------------
#NOTEDATA:;
#CHARTNAME:;
#STEPSTYPE:dance-single;
#DESCRIPTION:;
#CHARTSTYLE:;
#DIFFICULTY:Hard;
#METER:7;
#RADARVALUES:0.383913,0.439565,0.104162,0.083330,0.140619,240.000000,10.000000,8.000000,0.000000,0.000000,0.000000,0.000000,27.000000,0.383913,0.439565,0.104162,0.083330,0.140619,240.000000,10.000000,8.000000,0.000000,0.000000,0.000000,0.000000,27.000000;
#CREDIT:;
#NOTES:
0000
0000
0000
0000
,
0000
0000
0000
0000
,
0000
0000
0000
0000
,
0000
0000
0000
0000
1001
0000
1000
0010
,
0100
0000
0000
0001
0000
0100
0000
0010
0000
0000
0000
0000
0001
0000
1000
0000
,
0100
0000
0000
1000
0000
0000
0000
0000
0000
0000
0000
0000
1000
0000
0010
0000
,
0100
0000
0000
0001
0000
0100
0000
0010
0000
0000
0000
0000
0001
0000
1000
0000
,
0100
0000
0000
1000
0000
0001
0000
0010
0000
0000
0000
0000
1000
0000
0100
0000
,
0001
0000
0000
1000
0000
0010
0000
0001
0000
0000
0000
0000
0100
0000
0001
0000
,
1000
0100
0010
0100
1000
0000
0001
0000
,
0100
0000
0001
0010
0001
0000
1000
0000
,
0000
0000
0000
0100
1000
0000
0001
0000
,
0100
0000
0001
0010
0001
0000
1000
0000
,
0010
0000
0100
0001
0100
0000
0010
0000
,
1000
0000
0100
1000
0100
0000
0010
0200
,
0000
0000
0300
1000
0010
0000
0001
0000
,
0100
0000
0010
1000
0010
0000
1000
0000
,
0100
0000
0010
0001
0010
0000
0100
0000
,
1000
0000
0001
0100
0010
0000
0100
0010
,
1000
0001
0010
1100
,
0100
1000
0001
0000
0001
1000
0000
0000
,
0000
0001
0010
1100
,
0100
1000
0001
0000
0001
1000
0100
0000
,
0100
1000
0010
0000
0001
0000
0010
0000
,
1000
0100
0010
0110
,
1001
1000
0010
0101
,
0100
0001
1000
0000
1000
0001
0100
0000
,
0100
0010
1000
0000
0100
0010
0001
0000
,
1000
0000
0100
0000
0010
0010
0020
0000
,
0030
0000
0000
0000
0001
0000
1000
0000
0010
0000
0200
0000
0000
0301
0000
0000
,
0000
0000
0001
0000
0100
0000
0000
0000
1010
0000
0000
0101
0000
0000
0000
0000
,
1000
0001
2000
0000
3100
0000
0002
0000
,
0103
0000
1000
0000
0001
0000
0010
0100
,
0100
0000
0000
0000
1000
0000
0001
0000
0100
0000
0020
0000
0000
1030
0000
0000
,
0000
0000
1000
0000
0100
0000
0000
0000
0011
0000
0000
1100
0000
0000
0000
0000
,
0001
1000
0002
0000
0103
0000
2000
0000
,
3100
0000
0001
0010
1000
0010
0000
0000
,
0001
0100
0010
0000
0001
0100
0010
0000
,
0001
0100
0010
0100
0001
0001
0000
0000
,
1000
0100
0010
0000
1000
0100
0010
0000
,
1000
0100
0010
0100
1000
1000
0000
0000
,
0001
0100
0010
0000
1000
0100
0010
0000
,
0001
0100
0010
1000
0100
0100
0000
0000
,
1000
0010
0100
0000
0001
0010
0100
0000
,
1000
0010
0100
0001
0010
0010
0000
0000
,
0110
0000
0000
0000
1000
0000
0000
0000
0001
0000
0000
0100
0000
0000
0001
0000
,
1000
0000
0000
0000
0001
0000
0000
0000
1000
0000
0000
0100
0000
0000
1000
0000
,
0010
0000
0010
0000
1000
0000
0000
0000
0001
0000
0000
0100
0000
0000
0010
0000
,
1000
0000
0000
0000
0001
0000
0000
0000
1000
0000
0000
0100
0000
0000
0010
0000
,
0010
0000
0000
0000
0001
1000
0000
0000
0100
0000
1000
0001
0000
0000
0100
0000
,
0010
0000
0010
0000
1000
0001
0000
0000
0100
0000
0001
1000
0000
0000
0010
0000
,
0100
0000
0100
0000
0001
0010
0000
0000
0100
0000
0010
0001
0000
0000
1000
0000
,
0010
0010
1000
0001
0010
0001
0100
0000
;

//---------------dance-single - ----------------
#NOTEDATA:;
#CHARTNAME:;
#STEPSTYPE:dance-single;
#DESCRIPTION:;
#CHARTSTYLE:;
#DIFFICULTY:Medium;
#METER:5;
#RADARVALUES:0.327367,0.329674,0.020832,0.333319,0.000000,186.000000,2.000000,32.000000,0.000000,0.000000,0.000000,0.000000,19.000000,0.327367,0.329674,0.020832,0.333319,0.000000,186.000000,2.000000,32.000000,0.000000,0.000000,0.000000,0.000000,19.000000;
#CREDIT:;
#NOTES:
0000
0000
0000
0000
,
0000
0000
0000
0000
,
0000
0000
0000
0000
,
0000
0000
1001
2000
,
3100
0002
0013
0002
,
0103
0000
0000
2000
,
3100
0002
0013
0002
,
0103
2000
3010
2000
,
3100
0002
0013
0002
,
2003
3100
1000
0001
,
0100
0000
0001
1000
0001
0000
1000
0000
,
0000
0000
1000
0001
,
0100
0000
0001
1000
0001
0000
1000
0000
,
0100
0000
1000
0001
1000
0000
0001
0000
,
0100
0000
0001
1000
0010
0000
0100
0200
,
0000
0300
0001
1000
,
0010
0000
1000
0001
1000
0000
0001
0000
,
0010
0000
0001
1000
0001
0000
1000
0000
,
0010
0000
1000
0001
0020
0000
0130
0000
,
0100
1000
0010
0100
,
0001
0010
0001
0000
,
0000
1000
0010
0100
,
0001
0010
0001
0100
,
0010
1000
1000
0001
,
0001
0010
0100
2000
,
3000
0001
0100
0010
,
1000
0100
1000
0010
,
0100
0001
0001
1000
,
1000
0010
0100
0110
,
0000
0000
0001
0000
0001
0100
0001
0000
,
0001
1000
0001
0000
0001
0010
0002
0000
,
0003
0200
0310
0020
,
0130
0001
1000
0020
,
0030
0000
1000
0000
1000
0100
1000
0000
,
1000
0001
1000
0000
1000
0010
2000
0000
,
3000
0200
0310
0020
,
0130
0000
1000
0001
1000
0001
0000
0000
,
0200
0301
2000
3001
,
0020
0000
0031
0000
1000
1000
0000
0000
,
0200
1300
0002
1003
,
0020
0000
1030
0000
0001
0001
0000
0000
,
0020
0031
0020
1030
,
0020
0000
0031
0000
0100
0100
0000
0000
,
0200
0301
0200
1300
,
0200
0000
0301
0000
0010
0020
0000
0000
,
0030
0100
1000
0100
,
0010
0001
0010
0000
0100
0000
1000
0000
,
0010
1000
0010
0000
0100
0000
0001
0000
,
0010
0100
0010
0000
0100
0000
1000
0000
,
0001
0100
0001
0100
,
0010
1000
0010
0000
1000
0000
0100
0000
,
0010
0001
0010
0000
0100
0000
1000
0000
,
0010
0100
0010
0000
0020
0000
1030
0000
;

//---------------dance-single - ----------------
#NOTEDATA:;
#CHARTNAME:;
#STEPSTYPE:dance-single;
#DESCRIPTION:;
#CHARTSTYLE:;
#DIFFICULTY:Easy;
#METER:3;
#RADARVALUES:0.223205,0.219783,0.010416,0.093746,0.000000,140.000000,1.000000,9.000000,0.000000,0.000000,0.000000,0.000000,15.000000,0.223205,0.219783,0.010416,0.093746,0.000000,140.000000,1.000000,9.000000,0.000000,0.000000,0.000000,0.000000,15.000000;
#CREDIT:;
#NOTES:
0000
0000
0000
0000
,
0000
0000
0000
0000
,
0000
0000
0000
0000
,
0000
0000
1001
1000
,
1000
0100
0100
0001
,
0001
0000
0000
1000
,
1000
0100
0100
0001
,
0001
0010
0010
1000
,
1000
0001
0001
1000
,
0001
0010
0001
1000
,
0001
0100
0001
1000
,
0000
0000
0001
1000
,
0001
0100
0001
1000
,
0001
0010
0001
1000
,
0100
1000
0001
0001
,
0020
0030
1000
0001
,
1000
0100
1000
0001
,
1000
0010
1000
0001
,
0100
0001
1000
1000
,
0010
0000
1000
0000
,
0100
0000
1000
0000
,
0000
0000
1000
0000
,
0100
0000
1000
0000
,
0100
0000
0010
0000
,
0001
0000
0010
0000
,
0001
0000
0100
0000
,
0001
0000
0100
0000
,
0001
0000
1000
0000
,
0010
1000
0010
0010
,
0000
0100
0100
0100
,
0000
0001
1000
0001
,
0000
2000
3000
0020
,
0030
0200
0300
0002
,
0003
0010
0010
0010
,
0000
1000
0001
1000
,
0000
0002
0003
0200
,
0300
0020
0000
0030
,
0100
0001
0100
0001
,
0100
0001
0010
0000
,
0100
1000
0100
1000
,
0100
1000
0010
0000
,
0100
0001
1000
0001
,
0100
0001
0010
0000
,
0100
1000
0001
1000
,
0100
1000
0020
0000
,
0030
1000
0001
1000
,
0100
1000
0001
1000
,
0010
1000
0001
0100
,
0001
0010
0010
0010
,
0000
0001
1000
0001
,
0100
0001
1000
0001
,
0010
0001
1000
0100
,
1000
0010
0010
0100
;

//---------------dance-single - ----------------
#NOTEDATA:;
#CHARTNAME:;
#STEPSTYPE:dance-single;
#DESCRIPTION:;
#CHARTSTYLE:;
#DIFFICULTY:Beginner;
#METER:1;
#RADARVALUES:0.101186,0.109891,0.000000,0.000000,0.000000,68.000000,0.000000,0.000000,0.000000,0.000000,0.000000,0.000000,0.000000,0.101186,0.109891,0.000000,0.000000,0.000000,68.000000,0.000000,0.000000,0.000000,0.000000,0.000000,0.000000,0.000000;
#CREDIT:;
#NOTES:
0000
0000
0000
0000
,
0000
0000
0000
0000
,
0000
0000
0000
0000
,
0000
0000
0000
0000
,
0000
0000
0000
0000
,
0000
0000
0000
1000
,
0000
0000
0000
0001
,
0000
0000
0000
1000
,
0000
0000
0000
0001
,
0000
0001
0000
0000
,
0000
0000
0000
0000
,
0000
0000
0000
1000
,
0000
1000
0000
0001
,
0000
0001
0000
1000
,
0000
1000
0000
0001
,
0000
0001
0000
0100
,
0000
0100
0000
0010
,
0000
0010
0000
0100
,
0000
0100
0000
0010
,
0010
0000
0000
0000
,
0000
0000
0000
0000
,
0000
1000
0000
0000
,
0000
0100
0000
0000
,
0000
0001
0000
0000
,
0000
0100
0000
0000
,
0000
1000
0000
0000
,
0000
0010
0000
0000
,
0000
0001
0000
0000
,
0000
0010
0000
0000
,
0000
0001
0000
0000
,
0000
1000
0000
0000
,
0000
0010
0000
0010
,
0000
0100
0000
0100
,
0000
0001
0000
0000
,
0000
1000
0000
0000
,
0000
0100
0000
0100
,
0000
0010
0000
0000
,
0000
0100
0000
0100
,
0000
0100
0000
0000
,
0000
0010
0000
0010
,
0000
0010
0000
0000
,
0000
0100
0000
0100
,
0000
0100
0000
0000
,
0000
0010
0000
0010
,
0000
0010
0000
0000
,
0000
0000
1000
0000
,
1000
0000
0001
0000
,
0001
0000
0010
0000
,
0010
0000
0100
0000
,
0100
0000
1000
0000
,
1000
0000
0001
0000
,
0001
0000
0100
0000
,
0100
0000
0010
0010
;
