#TITLE:Find Me;
#SUBTITLE:;
#ARTIST:Sigma feat. Birdy;
#TITLETRANSLIT:;
#SUBTITLETRANSLIT:;
#ARTISTTRANSLIT:;
#GENRE:Pop;
#CREDIT:TiKAL+;
#BANNER:[Round E] - Find Me.png;
#BACKGROUND:[Round E] - Find Me-bg.png;
#LYRICSPATH:;
#CDTITLE:cdtitle.png;
#MUSIC:[Round E] - Find Me.ogg;
#OFFSET:-0.437;
#SAMPLESTART:50.215;
#SAMPLELENGTH:14.222;
#SELECTABLE:YES;
#DISPLAYBPM:135.000;
#BPMS:0.000=135.000,33.500=117.878,34.500=135.000,41.500=149.502,43.000=135.000,242.000=117.878,242.500=135.000,246.000=117.878,246.500=135.000,247.000=117.878,247.500=135.000,250.000=117.878,251.000=135.000,253.000=117.878,253.500=135.000,254.000=117.878;
#STOPS:;
#BGCHANGES:;
#KEYSOUNDS:;

//---------------dance-single - TiKAL----------------
#NOTES:
     dance-single:
     TiKAL:
     Easy:
     2:
     0.101,0.110,0.000,0.026,0.000:
0000
0000
0000
0000
,
0000
0000
0000
0000
,
0000
0000
0000
0000
,
0000
0000
0000
0000
,
1000
0000
0000
0000
,
0100
0000
0000
0000
,
0010
0000
0000
0000
,
0001
0000
0000
0000
,
1000
0000
0000
0000
,
0100
0000
0000
0000
,
0010
0000
0000
0000
,
0001
0000
0000
0000
,
1000
0000
0000
0000
,
0010
0000
0000
0000
,
0100
0000
0000
0000
,
0001
0000
0001
0000
,
1000
0000
0000
0000
,
0010
0000
0000
0000
,
0100
0000
0000
0000
,
0001
0000
0001
0000
,
1000
0000
0000
0000
,
1000
0000
0000
0000
,
0001
0000
0000
0000
,
0001
0000
0000
0000
,
1000
0000
0000
0000
,
0010
0000
0000
0000
,
0100
0000
0000
0000
,
0002
0000
0000
0003
,
1000
0000
1000
0000
,
0001
0000
0001
0000
,
1000
0000
0001
0000
,
0100
0000
0010
0000
,
1000
0000
1000
0000
,
0001
0000
0001
0000
,
1000
0000
0001
0000
,
0100
0000
0010
0000
,
1000
0000
0000
0000
,
0001
0000
0000
0000
,
1000
0000
0000
0000
,
0001
0000
0000
0000
,
0100
0000
0000
0000
,
0010
0000
0000
0000
,
0100
0000
0000
0000
,
0010
0000
0000
0000
,
1000
0000
0000
0000
,
1000
0000
0000
0000
,
0001
0000
0000
0000
,
0001
0000
0000
0000
,
1000
0000
0000
0000
,
0010
0000
0000
0000
,
0100
0000
0000
0000
,
0002
0000
0000
0003
,
1000
0000
1000
0000
,
0001
0000
0001
0000
,
1000
0000
0001
0000
,
0100
0000
0010
0000
,
1000
0000
1000
0000
,
0001
0000
0001
0000
,
1000
0000
0001
0000
,
0100
0000
0010
0000
,
1000
0000
0000
0000
,
0100
0000
0000
0000
,
0010
0000
0000
0000
,
0002
0000
0000
1003
;

//---------------dance-single - TiKAL----------------
#NOTES:
     dance-single:
     TiKAL:
     Medium:
     4:
     0.245,0.279,0.173,0.173,0.000:
0000
0000
0000
0000
,
0000
0000
0000
0000
,
0000
0000
0000
0000
,
0000
0000
0000
0000
,
1000
0000
0000
0000
,
0100
0000
0000
0000
,
0010
0000
0000
0000
,
0001
0000
0000
0000
,
1000
0000
0000
0000
,
0010
0000
0000
0000
,
0100
0000
0000
0000
,
0001
0000
0000
0000
,
1000
0000
0000
0100
0000
0000
1000
0000
,
0001
0000
0000
0100
0000
0000
0001
0000
,
1000
0000
0000
0010
0000
0000
1000
0000
,
0002
0000
1000
1003
,
0001
0000
0000
0010
0000
0000
0001
0000
,
1000
0000
0000
0010
0000
0000
1000
0000
,
0001
0000
0000
0100
0000
0000
0001
0000
,
2000
0000
0001
3001
,
1001
0000
0000
0110
0000
0000
1001
0000
,
0000
1000
0001
1000
,
1001
0000
0000
0110
0000
0000
1001
0000
,
0000
0001
1000
0001
,
1000
0000
0000
0100
1000
0000
1000
0000
,
0001
0000
0000
0010
0001
0000
0001
0000
,
1000
0100
0010
0001
,
2002
0000
0000
3003
,
0110
1000
0001
0100
,
0010
1000
0001
0100
,
0001
0010
1000
0001
,
0100
1000
0001
0100
,
0010
1000
0001
0100
,
0010
1000
0001
0100
,
0001
0010
1000
0001
,
0100
1000
0001
1000
,
0002
0000
0000
0000
,
2003
0000
0000
0000
,
3020
0000
0000
0000
,
0230
0000
0000
0000
,
0302
0000
0000
0000
,
2003
0000
0000
0000
,
3020
0000
0000
0000
,
0230
0000
0000
0300
,
1001
0000
0000
0110
0000
0000
1001
0000
,
0000
0001
1000
0001
,
1001
0000
0000
0110
0000
0000
1001
0000
,
0000
1000
0001
1000
,
0001
0000
0000
0010
0001
0000
0001
0000
,
1000
0000
0000
0100
1000
0000
1000
0000
,
0001
0010
0100
1000
,
2002
0000
0000
3003
,
0110
0001
1000
0010
,
0100
0001
1000
0010
,
1000
0100
0001
1000
,
0010
0001
1000
0010
,
0100
0000
0000
0001
1000
0000
1001
0000
,
0100
0000
0000
1000
0001
0000
1001
0000
,
0010
0000
0000
0001
1000
0000
1001
0000
,
0120
0000
1000
1030
,
0002
0000
0000
0003
,
0020
0000
0000
0030
,
0200
0000
0000
0300
,
2000
0000
0000
0002
,
0000
0000
3003
0000
;

//---------------dance-single - TiKAL----------------
#NOTES:
     dance-single:
     TiKAL:
     Hard:
     7:
     0.383,0.419,0.277,0.260,0.000:
0000
0000
0000
0000
,
0000
0000
0000
0000
,
0000
0000
0000
0000
,
0000
0000
0000
0000
,
2000
0000
0000
3000
,
0200
0000
0000
0000
0000
0000
0300
0100
,
0020
0000
0000
0032
,
2000
0000
0000
3003
,
0002
0000
0000
0003
,
0020
0000
0000
0000
0000
0000
0030
0010
,
0200
0000
0000
2300
,
0002
0000
0000
3003
,
1000
0010
0000
0010
0100
0000
0100
0000
,
0001
0010
0000
0010
0100
0000
0100
0000
,
1000
0001
0000
0001
0100
0000
0100
0000
,
1001
0000
1000
0000
1000
0001
0100
0000
,
0001
0010
0000
0010
0100
0000
0100
0000
,
1000
0010
0000
0010
0100
0000
0100
0000
,
0001
1000
0000
1000
0100
0000
0100
0000
,
1001
0000
0001
0000
0001
1000
0100
0000
,
0110
0000
0000
0011
0000
0000
1001
0000
,
1000
0010
0100
0001
1000
0000
1000
0000
,
1001
0000
0000
1010
0000
0000
0110
0000
,
0001
0010
0100
1000
0010
0000
0010
0000
,
1000
0001
0000
0001
0100
0000
1001
0000
,
0001
1000
0000
1000
0100
0000
1001
0000
,
1000
0100
0000
0010
0001
0000
0110
0000
,
2002
0000
0000
3003
,
1100
0000
0010
0001
0100
0000
0100
0001
,
0010
0000
0100
1000
0010
0000
0010
1000
,
0100
0001
1000
0010
0001
1000
0100
0001
,
0100
1000
0001
0001
0001
0000
1001
0000
,
0101
0000
0010
1000
0100
0000
0100
1000
,
0010
0000
0100
0001
0010
0000
0010
0001
,
0100
1000
0001
0010
1000
0001
0100
1000
,
0100
0001
1000
1000
1000
0000
1001
0000
,
0002
0000
0000
0000
,
2003
0000
0000
0000
,
3010
0000
0000
0020
0000
0000
0030
0000
,
0100
0000
0000
0200
0000
0000
0301
0000
,
2000
0000
0000
0000
,
3002
0000
0000
0000
,
0103
0000
0000
0200
0000
0000
0300
0000
,
0010
0000
0000
0020
0000
0000
1030
0000
,
1001
0000
0000
0101
0000
0000
0110
0000
,
1000
0100
0010
0001
1000
0000
1000
0000
,
0110
0000
0000
1010
0000
0000
1001
0000
,
0001
0100
0010
1000
0100
0000
0100
0000
,
1000
0001
0000
0001
0010
0000
1001
0000
,
0001
1000
0000
1000
0010
0000
1001
0000
,
1000
0010
0000
0100
0001
0000
0110
0000
,
2002
0000
0000
3003
,
1010
0000
0100
0001
0010
0000
0010
0001
,
0100
0000
0010
1000
0100
0000
0100
1000
,
0010
0001
1000
0100
0001
1000
0010
0001
,
0010
1000
0001
0001
0001
0000
1001
0000
,
0011
0000
0100
1000
0010
0000
0010
1000
,
0100
0000
0010
0001
0100
0000
0100
0001
,
0010
0100
0000
1000
0001
0000
1001
0000
,
0110
0000
1000
0001
1000
0000
1001
0000
,
0002
0000
0000
0023
0000
0000
0031
0000
,
0020
0000
0000
0230
0000
0000
0310
0000
,
0200
0000
0000
2300
0000
0000
3100
0000
,
1000
0000
0001
1000
0002
0000
2000
0000
,
0000
0000
3003
0000
;

//---------------dance-single - TiKAL----------------
#NOTES:
     dance-single:
     TiKAL:
     Challenge:
     9:
     0.676,0.726,0.415,0.710,0.338:
0000
0000
0000
0000
,
0000
0000
0000
0000
,
0000
0000
0000
0000
,
0000
0000
0000
0000
0000
0000
0000
1000
,
0001
0000
0000
0001
0000
0000
0002
0000
0000
0000
0003
0000
0100
0000
0100
0000
,
0020
0030
0010
0020
0000
0030
0000
1000
,
0002
0000
0013
0200
0000
0000
2300
0002
,
0000
0000
0000
3003
0000
0000
0000
0000
,
1000
0000
0000
1000
0000
0000
2000
0000
0000
0000
3001
0000
0100
0000
0100
0000
,
0010
0000
0000
0010
0000
0000
0020
0000
0000
0000
0030
0000
0100
0000
0001
0000
,
1000
0000
0000
1000
0000
0000
2000
0000
0000
0000
3000
0000
0001
0000
0020
0000
,
0000
0230
0000
2300
0000
0002
0000
3003
,
0110
2000
0000
3001
2000
0000
3020
0030
,
0110
0002
0000
1003
0002
0000
0203
0300
,
1010
2000
0000
3100
0020
0000
0032
0003
,
0101
0000
0000
0000
0001
0000
0100
0000
0010
1000
0010
0000
1000
0000
0001
0000
,
1001
0002
0000
0103
0002
0000
0023
0030
,
1001
2000
0000
3010
2000
0000
3200
0300
,
0011
0002
0000
0013
0200
0000
2300
3000
,
1100
0000
0000
0000
1000
0000
0001
0000
0100
0010
0100
0000
0001
0000
1000
0000
,
1001
0000
0001
0200
1300
0000
0200
0300
,
0001
0000
0010
0000
0100
0000
1000
0000
0001
1000
0001
0000
0100
0000
0000
0000
,
1001
0000
1000
0200
0301
0000
0200
0300
,
1000
0000
0100
0000
0010
0000
0001
0000
1000
0001
1000
0000
0100
0000
0000
0000
,
1100
0020
0000
0031
0200
0000
0320
0030
,
1010
2000
0000
3100
0020
0000
0032
0003
,
1000
1000
0001
0001
0100
0100
0010
0010
,
1000
0100
0010
0001
1000
0010
1000
0001
0100
0001
1000
0001
0010
0100
1000
0001
,
0010
0000
0010
0000
0110
0000
0100
1000
0001
1000
0010
0000
0110
0000
0100
0001
,
1000
0000
1000
0000
1001
0000
0001
0010
0100
0010
0001
0000
1001
0000
1000
0010
,
0100
0000
0001
0000
0101
0000
1000
0100
0010
0001
0010
0000
1100
0000
1000
0001
,
0100
0000
0010
0000
1010
0000
1000
0001
0100
0010
0100
0000
0101
0000
0001
0010
,
0001
0000
0001
0000
1001
0000
1000
0010
1000
0001
0100
0000
0110
0000
0010
1000
,
0100
0000
0100
0000
0110
0000
0010
0001
1000
0001
0100
0000
0110
0000
0010
1000
,
0100
0000
1000
0000
1010
0000
0001
0010
0001
1000
0001
0000
0101
0000
0100
0010
,
1000
0000
1000
0000
1001
0000
0001
0010
0100
1000
0010
0000
0110
0000
0100
0001
,
2000
0000
0000
0000
,
3200
0000
0000
0000
,
0320
0000
0000
0032
0000
0000
2003
0000
0000
0000
0000
0000
3000
0000
0001
0000
,
0200
0000
0000
0320
0000
0000
2030
0000
0000
0000
0000
0000
0002
0000
3003
0000
,
0002
0000
0000
0000
,
0023
0000
0000
0000
,
0230
0000
0000
2300
0000
0000
3002
0000
0000
0000
0000
0000
0003
0000
1000
0000
,
0020
0000
0000
0230
0000
0000
0302
0000
0000
0000
0000
0000
2000
0000
3003
0000
,
1001
0000
1000
0020
0031
0000
0020
0030
,
1000
0100
0010
0001
2000
3000
0020
0030
,
1001
0000
0001
0020
1030
0000
0020
0030
,
0001
0010
0100
1000
0002
0003
0020
0030
,
1100
0000
0200
0000
0000
0000
1300
0000
0010
0100
0010
0000
0100
0000
0000
0000
,
0101
0000
0002
0000
0000
0000
0013
0000
0100
1000
0100
0000
1000
0000
0000
0000
,
0001
0001
1000
1000
0010
0010
0100
0100
,
0001
0010
0100
1000
0001
0100
0001
1000
0010
1000
0001
1000
0100
0010
0001
1000
,
0100
0000
0100
0000
0110
0000
0010
0001
1000
0001
0100
0000
0110
0000
0010
1000
,
0001
0000
0001
0000
1001
0000
1000
0100
0010
0100
1000
0000
1001
0000
0001
0100
,
0010
0000
1000
0000
1010
0000
0001
0010
0100
1000
0100
0000
0011
0000
0001
1000
,
0010
0000
0100
0000
0101
0000
0001
1000
0010
0100
0010
0000
1010
0000
1000
0100
,
1000
0000
1000
0000
1001
0000
0001
0100
0001
1000
0010
0000
0110
0000
0100
0001
,
0010
0000
0010
0000
0110
0000
0100
1000
0001
1000
0010
0000
0110
0000
0100
0001
,
0010
0000
0001
0000
0101
0000
1000
0100
1000
0001
1000
0000
1010
0000
0010
0100
,
0001
0000
0001
0000
1001
0000
1000
0100
0010
0001
0100
0000
0110
0000
0010
1000
,
0001
0020
0000
0130
2000
0000
3002
0003
,
1000
0020
0000
0130
0002
0000
2003
3000
,
0001
0200
0000
0310
2000
0000
3002
0003
,
2000
0000
3001
0010
0100
2000
0002
0000
,
0000
0000
3003
0000
;
