#VERSION:0.83;
#TITLE:ENERGY SYNERGY MATRIX;
#SUBTITLE:;
#ARTIST:Tanchiky;
#TITLETRANSLIT:;
#SUBTITLETRANSLIT:;
#ARTISTTRANSLIT:;
#GENRE:POWER BASS;
#ORIGIN:;
#CREDIT:Daffa212162 (song), CuzcoBlocko (steps);
#BANNER:;
#BACKGROUND:;
#PREVIEWVID:;
#JACKET:;
#CDIMAGE:;
#DISCIMAGE:;
#LYRICSPATH:;
#CDTITLE:cdtitle.png;
#MUSIC:[Round E] - ENERGY SYNERGY MATRIX.ogg;
#OFFSET:-1.530000;
#SAMPLESTART:85.529999;
#SAMPLELENGTH:15.000000;
#SELECTABLE:YES;
#DISPLAYBPM:80.000000:160.000000;
#BPMS:0.000=160.000,
28.000=320.000,
29.500=160.000,
29.750=80.000,
30.000=160.000,
30.250=80.000,
30.500=320.000,
31.000=160.000,
31.250=80.000,
31.500=320.000,
32.000=160.000,
46.250=80.000,
46.500=320.000,
47.000=160.000,
47.250=80.000,
47.500=320.000,
48.000=160.000,
63.250=80.000,
63.500=320.000,
64.000=160.000,
88.000=240.000,
88.250=160.000,
88.417=80.000,
88.583=160.000,
88.750=240.000,
89.000=320.000,
91.000=240.000,
91.375=160.000,
91.750=106.667,
92.000=160.000,
92.250=240.000,
93.000=160.000,
93.250=240.000,
94.000=213.333,
95.000=320.000,
95.500=160.000,
95.750=80.000,
96.000=160.000,
124.000=240.000,
125.500=320.000,
126.333=160.000,
126.500=80.000,
126.667=320.000,
127.000=160.000,
127.167=80.000,
127.333=320.000,
127.667=160.000,
127.833=80.000,
128.000=160.000,
140.000=320.000,
140.250=160.000,
140.375=80.000,
140.500=160.000,
141.750=240.000,
142.125=106.667,
142.375=240.000,
142.750=106.667,
143.000=160.000,
143.125=80.000,
143.250=320.000,
143.500=160.000,
143.625=80.000,
143.750=320.000,
144.250=160.000,
144.375=80.000,
144.625=160.000,
144.750=320.000,
145.000=160.000,
156.188=80.000,
156.375=320.000,
156.750=160.000,
156.938=80.000,
157.125=320.000,
157.500=160.000,
157.688=80.000,
157.875=320.000,
158.250=160.000,
158.438=80.000,
158.625=320.000,
159.500=160.000,
159.750=80.000,
175.500=40.000,
175.563=120.000,
175.750=40.000,
175.813=120.000,
176.000=160.000,
207.000=80.000,
207.250=160.000,
207.500=320.000,
208.000=160.000,
268.250=240.000,
269.000=160.000,
269.250=240.000,
270.000=213.333,
271.000=320.000,
271.500=160.000,
271.750=80.000,
272.000=160.000,
286.250=80.000,
286.500=320.000,
287.000=160.000,
287.250=80.000,
287.500=320.000,
288.000=160.000,
300.000=320.000,
300.500=160.000,
300.750=80.000,
301.250=160.000,
301.500=320.000,
302.000=160.000,
302.125=80.000,
302.250=320.000,
302.500=160.000,
302.625=80.000,
302.750=320.000,
303.000=160.000,
303.250=80.000,
303.500=320.000,
304.500=160.000,
304.750=80.000,
305.250=160.000,
305.500=320.000,
306.000=240.000,
307.500=320.000,
308.000=160.000;
#STOPS:28.000=0.047,
28.250=0.047,
28.500=0.047,
28.750=0.047,
89.000=0.062,
89.333=0.062,
89.667=0.063,
90.000=0.047,
90.250=0.047,
90.500=0.047,
90.750=0.047,
92.000=0.094,
93.000=0.093,
94.000=0.047,
94.500=0.047,
124.000=0.094,
124.750=0.094,
125.500=0.094,
268.000=0.094,
269.000=0.093,
270.000=0.047,
270.500=0.047,
306.000=0.093,
306.750=0.094,
307.500=0.094;
#DELAYS:;
#WARPS:;
#TIMESIGNATURES:0.000=4=4;
#TICKCOUNTS:0.000=4;
#COMBOS:0.000=1;
#SPEEDS:0.000=0.750=0.000=0,
16.000=1.000=12.000=0;
#SCROLLS:0.000=1.000;
#FAKES:;
#LABELS:0.000=Song Start;
#BGCHANGES:;
#KEYSOUNDS:;
#ATTACKS:
;

//---------------dance-single - Slowly increases its tricks over the course.----------------
#NOTEDATA:;
#CHARTNAME:ITG 10 X 15;
#STEPSTYPE:dance-single;
#DESCRIPTION:Slowly increases its tricks over the course.;
#CHARTSTYLE:Pad;
#DIFFICULTY:Challenge;
#METER:10;
#RADARVALUES:0.817200,0.809748,0.753537,0.640101,0.887229,706.000000,613.000000,93.000000,79.000000,50.000000,0.000000,0.000000,0.000000,0.000000,0.817200,0.809748,0.753537,0.640101,0.887229,706.000000,613.000000,93.000000,79.000000,50.000000,0.000000,0.000000,0.000000,0.000000;
#CREDIT:CuzcoBlocko;
#DISPLAYBPM:80.000000:160.000000;
#NOTES:
// measure 0
0000
0000
0000
0000
,  // measure 1
0000
0000
0000
0000
,  // measure 2
0000
0000
0000
0000
,  // measure 3
0000
0000
0000
0000
,  // measure 4
100M
0000
0100
0000
0010
0000
0100
0000
10M0
0000
0100
0000
0001
0000
0100
0010
,  // measure 5
0M01
0000
0100
0000
0010
0000
0100
0000
M001
0000
0100
0000
1000
0000
0100
0010
,  // measure 6
200M
0000
0001
0000
3002
0000
0010
0000
M013
0100
0010
0100
0010
0100
0010
0100
,  // measure 7
1000
0001
1000
0001
0100
0000
0000
0000
2020
0000
3030
0000
2200
0000
3300
0000
,  // measure 8
0022
0000
0033
0000
0001
0000
0001
1000
0000
0010
0000
0010
0100
0000
0001
0000
,  // measure 9
1000
0001
1000
0000
0100
0000
0010
0001
0000
1000
0000
1000
0010
0000
0100
0000
,  // measure 10
0101
0000
0000
0000
0100
0000
0100
0001
0000
0010
0000
0010
0100
0000
1000
0000
,  // measure 11
2002
0000
30M3
0M00
000M
M000
0M00
M000
0022
0000
0033
0000
0202
0000
0303
0000
,  // measure 12
2020
0000
3030
0000
1000
0000
0001
0010
0000
0010
0000
0010
0001
0000
1000
0000
,  // measure 13
0100
0010
0100
0000
1000
0000
1000
0010
0000
0010
0000
0010
0100
0000
0001
0000
,  // measure 14
1001
0000
0000
0000
0001
0000
1000
0010
0000
0010
0000
0100
0001
0000
1000
0000
,  // measure 15
2002
0000
3M03
00M0
M000
000M
00M0
0M00
1001
0000
0100
0000
2002
0000
3003
0000
,  // measure 16
1010
0000
0000
0000
0010
1000
0000
0001
1000
0000
0100
0000
0110
0000
0000
0000
,  // measure 17
0011
0000
0000
0000
0010
0001
0000
1000
0001
0000
0100
0000
0010
0000
0010
0000
,  // measure 18
1010
0000
0000
0000
1000
0001
0000
0010
0001
0000
0100
0000
0110
0000
0000
0000
,  // measure 19
1010
0000
0000
0000
0010
1000
0000
0001
1000
0000
1000
0000
2001
0000
0MMM
0000
,  // measure 20
3010
0000
0100
0000
0001
0010
0000
0100
1000
0000
0010
0000
1010
0000
0000
0000
,  // measure 21
1001
0000
0001
0000
0010
0001
0000
1000
0001
0000
0100
0000
0010
0000
1000
0000
,  // measure 22
2010
0000
0000
0000
0000
0000
00M0
0000
0000
0000
0000
0000
3001
0000
0000
0000
1000
0000
0000
0000
0001
0000
0000
0000
1000
0000
0000
0100
0000
0000
1000
0000
0000
0100
0000
0000
2000
0000
0000
0000
0000
0000
0000
0000
0000
3000
0000
0000
,  // measure 23
1001
0000
0110
0000
1001
0100
M01M
0000
,  // measure 24
1001
0000
0001
0020
0000
0000
0100
0000
0001
0000
0000
0031
0000
0000
1001
0000
,  // measure 25
0001
0000
0010
0000
0120
0000
0000
0000
1000
0000
0000
0130
0000
0000
0011
0000
,  // measure 26
1001
0000
1000
0020
0000
0000
0100
0000
1000
0000
0000
1030
0000
0000
1001
0000
,  // measure 27
1010
0000
0000
1010
0000
0000
0011
0000
0000
0110
0000
0000
1001
0000
1000
0000
,  // measure 28
0001
0000
0010
0100
1000
0000
0001
0000
0200
0000
0000
1000
0000
0000
0301
0000
,  // measure 29
1001
0000
1000
0001
0010
0000
0200
0000
0001
0000
0000
1000
0000
0000
0310
0000
,  // measure 30
0011
0000
0001
1000
0010
0000
0100
0000
0001
1000
0001
1000
0001
1000
0001
1000
,  // measure 31
0100
0000
0000
0000
0000
0000
0000
0000
0000
0100
0000
0000
0000
0000
0000
0000
0000
0000
0100
0000
0000
0000
0000
0000
0110
0000
0000
0000
0000
0000
0000
0000
0001
0000
0000
0000
0000
0000
0000
0000
1000
0000
0000
0000
0000
0000
0000
0000
,  // measure 32
2002
0000
3003
1000
0001
0000
0100
0000
1000
0000
0100
0010
0000
0000
1000
0000
,  // measure 33
0001
1000
0001
0000
1000
0000
0100
0000
0001
0000
0100
0010
0000
0000
0001
0000
,  // measure 34
1000
0010
1000
0000
0001
0010
0001
0000
0010
0000
0100
0000
1000
0001
1000
0000
,  // measure 35
2010
0000
0000
0000
3010
0000
1000
0000
0001
0000
0000
0000
0000
0000
0011
0000
0000
0000
0000
0011
0000
0000
0000
0000
1001
0000
0000
0000
1001
0000
0000
0000
,  // measure 36
0022
0000
0033
0000
0001
0000
1000
0100
0000
0010
0000
0001
1000
0000
0001
0000
,  // measure 37
0100
0010
0100
0000
0010
0000
1000
0001
0000
0010
0000
0100
1000
0000
0001
0000
,  // measure 38
0100
0010
0100
0000
0010
1000
0001
0000
0010
0100
0010
0100
0010
0001
1000
0000
,  // measure 39
2020
3030
0000
2002
3003
0000
0022
0033
0000
2200
3300
0000
0220
0000
0330
0000
,  // measure 40
0021
0000
0100
0000
0001
0001
0001
0000
0032
0000
1000
0000
0010
0010
0013
0001
,  // measure 41
2000
0000
0001
0000
0010
0010
3010
1000
0001
0100
1000
0100
0002
1000
1003
0000
,  // measure 42
0200
0000
0001
0000
2300
0001
3001
0000
2000
0000
0010
0000
3002
1000
1003
0100
,  // measure 43
2000
0000
0000
0000
0000
0000
0000
0000
0010
0000
0000
0000
0000
0000
0000
0000
3002
0000
0000
0000
1000
0000
0000
0000
1003
0000
0000
0000
0010
0000
0000
0000
1000
0000
0000
0000
0100
0000
0000
0000
0001
0000
0000
0000
0100
0000
0000
0000
1000
0000
0000
0000
0000
0000
0000
0000
1M01
00M0
0000
0000
0M00
00M0
0000
0000
,  // measure 44
0101
0000
0000
0000
1001
0000
0000
1000
0000
0001
0000
1000
0100
0000
0001
0000
,  // measure 45
0100
0000
0100
0000
1000
0001
0000
0010
0000
0010
0000
0001
1000
0000
0010
0000
,  // measure 46
0110
0000
0000
0000
1001
0000
0000
0001
0000
1000
0000
0001
0100
0000
0010
0000
,  // measure 47
1010
0000
0000
1100
0000
0000
0011
0000
0000
0101
0000
0100
0010
0000
1000
0000
,  // measure 48
0001
0000
0100
0000
1000
0000
0100
0000
0001
0000
0010
0000
1000
0000
0010
0001
,  // measure 49
1000
0000
0010
0000
0001
0000
0010
0000
1000
0000
0100
0000
0001
0000
0100
1000
,  // measure 50
0001
0100
0001
0100
0010
1000
0010
1000
0001
0010
0001
0010
0100
1000
0100
1000
,  // measure 51
0200
00M0
M000
00M0
0001
0000
0000
0000
1000
0000
0000
0000
0310
0000
0MM0
0000
,  // measure 52
2002
0000
3003
0000
1000
0001
0000
0100
0000
0010
0000
0100
0001
0000
0010
0000
,  // measure 53
0100
0000
0100
0000
1000
0001
0000
0010
0000
0100
0000
1000
0001
0000
0010
0000
,  // measure 54
0220
0000
0330
0000
0100
1000
0000
0010
0000
0100
0000
0010
1000
0000
0100
0000
,  // measure 55
0010
0000
0010
0000
0001
0100
0000
0010
1000
0000
1010
0000
1010
0000
0000
0000
,  // measure 56
2002
0000
3003
0000
1000
0001
0000
0100
0000
0010
0000
1000
0100
0000
0010
0000
,  // measure 57
0001
0000
0001
0000
0100
0010
0000
1000
0000
0100
0000
0010
0001
0000
1000
0000
,  // measure 58
1010
0000
0000
1000
0100
0000
0010
0000
0011
0000
0000
0001
0100
0000
0010
0000
,  // measure 59
1010
0000
1000
0001
1000
0000
0100
0000
0001
0000
1000
0000
0010
0000
0001
0000
,  // measure 60
2002
0000
3003
0000
1000
0001
1000
0010
0000
0001
0000
0010
1000
0000
0100
0000
,  // measure 61
0010
0000
0100
0000
1000
0010
0100
0001
0000
0100
0000
1000
0100
0000
0001
0000
,  // measure 62
2002
0000
3003
0000
0001
1000
0001
0010
0000
1000
0000
0010
0001
0000
0100
0000
,  // measure 63
1000
0000
0100
0000
0010
0100
0010
1000
0001
0000
0001
0000
1002
0000
MMM0
0000
,  // measure 64
0013
0000
0100
0000
1000
0100
1000
0001
0000
0100
0000
1000
0100
0000
0010
0000
,  // measure 65
1000
0000
0001
0000
0010
0001
1000
0100
0000
0001
0000
0100
1000
0000
0001
0000
,  // measure 66
0011
1010
1100
0101
,  // measure 67
1001
0000
0110
0000
1001
0100
0010
0000
,  // measure 68
2002
0000
3003
0001
0010
0000
0100
1000
0001
0010
0000
0001
1000
0000
1000
0000
,  // measure 69
0100
1000
0100
0010
0001
0000
1000
0010
0100
0001
0000
1000
0010
0000
0010
0000
,  // measure 70
1010
0000
0000
0010
1000
0000
0001
0010
0100
1000
0000
0001
0010
0000
0010
0000
,  // measure 71
2002
0000
30M3
0M00
000M
M000
0M00
M000
0022
0000
0033
0000
0202
0000
0303
0000
,  // measure 72
2020
0000
3030
1000
0001
0000
1000
0100
0010
0001
0000
0001
0100
0000
1000
0000
,  // measure 73
0100
0010
0100
0001
1000
0000
0100
0010
0001
1000
0000
1000
0100
0000
0001
0000
,  // measure 74
0100
0000
0010
0001
1000
0000
0100
0010
0001
0100
0000
1000
0100
0000
0001
0000
,  // measure 75
2002
0000
0000
0000
3003
0000
0M00
00M0
000M
M000
00M0
0000
0M00
0000
0000
0000
0011
0000
0000
0000
1001
0000
0000
0000
1010
0000
0000
0000
0000
0000
0000
0000
,  // measure 76
0202
0000
0000
0000
0000
0000
0000
00M0
0000
0000
M303
0000
0000
0000
0000
0000
1100
0000
0000
0000
0000
0000
1010
0000
0000
0000
0000
0000
0011
0000
0000
0000
;
