#VERSION:0.81;
#TITLE:Tonight Again;
#SUBTITLE:;
#ARTIST:Guy Sebastian;
#TITLETRANSLIT:;
#SUBTITLETRANSLIT:;
#ARTISTTRANSLIT:;
#GENRE:;
#ORIGIN:;
#CREDIT:;
#BANNER:;
#BACKGROUND:;
#PREVIEWVID:;
#JACKET:;
#CDIMAGE:;
#DISCIMAGE:;
#LYRICSPATH:;
#CDTITLE:;
#MUSIC:Tonight Again.ogg;
#OFFSET:-0.300000;
#SAMPLESTART:27.469999;
#SAMPLELENGTH:18.110001;
#SELECTABLE:YES;
#BPMS:0.000=106.000,
144.000=53.000,
152.000=106.000;
#STOPS:;
#DELAYS:;
#WARPS:;
#TIMESIGNATURES:0.000=4=4;
#TICKCOUNTS:0.000=4;
#COMBOS:0.000=1;
#SPEEDS:0.000=1.000=0.000=0;
#SCROLLS:0.000=1.000;
#FAKES:;
#LABELS:0.000=Song Start;
#BGCHANGES:;
#KEYSOUNDS:;
#ATTACKS:
;

//---------------dance-single - ----------------
#NOTEDATA:;
#CHARTNAME:;
#STEPSTYPE:dance-single;
#DESCRIPTION:;
#CHARTSTYLE:;
#DIFFICULTY:Beginner;
#METER:1;
#RADARVALUES:0.077870,0.100312,0.037854,0.000000,0.000000,67.000000,5.000000,0.000000,0.000000,0.000000,0.000000,0.000000,0.000000,0.077870,0.100312,0.037854,0.000000,0.000000,67.000000,5.000000,0.000000,0.000000,0.000000,0.000000,0.000000,0.000000;
#CREDIT:;
#NOTES:
0000
0000
0000
0000
,
0000
0000
0000
0000
,
0000
0000
0000
0000
,
0000
0000
0000
0000
,
0000
0000
0000
0000
,
0000
0000
0000
0000
,
0000
0000
0000
0000
,
0000
0000
0000
0000
,
1000
0000
0000
0000
,
1000
0000
0000
0000
,
0001
0000
0000
0000
,
0001
0000
0000
0000
,
0000
0100
0000
0100
,
0000
0100
0000
0100
,
0100
0000
0000
0000
,
0010
0000
0000
0000
,
0000
1000
0000
1000
,
0000
1000
0000
1000
,
1000
0000
0000
0000
,
0001
0000
0000
0000
,
0100
0000
0000
0000
,
0010
0000
0000
0000
,
1000
0000
0000
0000
,
0001
0000
0000
0000
,
0010
0000
0000
0000
,
0100
0000
0000
0000
,
1000
0000
0000
0000
,
0001
0000
0000
0000
,
0100
0000
0000
0000
,
0010
0000
0000
0000
,
1000
0000
0000
0000
,
0001
0000
0000
0000
,
1001
0000
0000
0000
,
0110
0000
0000
0000
,
1001
0000
0000
0000
,
1000
1000
1000
0000
,
1000
0000
0100
0000
,
0010
0000
0001
0000
,
0000
0100
0000
0010
,
0000
0100
0000
0010
,
0010
0000
0000
0000
,
1000
0000
0000
0000
,
0000
0100
0000
0100
,
0000
0010
0000
0100
,
0100
0000
1000
0000
,
0001
0000
0100
0000
,
0000
0010
0000
0010
,
0000
0100
0000
0100
,
0100
0000
0010
0000
,
1000
0000
0001
0000
,
1001
0000
0100
0000
,
0100
0000
0100
0000
,
1001
0000
0010
0000
,
0010
0000
0000
0000
;

//---------------dance-single - ----------------
#NOTEDATA:;
#CHARTNAME:;
#STEPSTYPE:dance-single;
#DESCRIPTION:;
#CHARTSTYLE:;
#DIFFICULTY:Easy;
#METER:3;
#RADARVALUES:0.167637,0.202280,0.030283,0.174126,0.003785,128.000000,4.000000,23.000000,0.000000,0.000000,0.000000,0.000000,0.000000,0.167637,0.202280,0.030283,0.174126,0.003785,128.000000,4.000000,23.000000,0.000000,0.000000,0.000000,0.000000,0.000000;
#CREDIT:;
#NOTES:
0000
0000
0000
0000
,
0000
0000
0000
0000
,
0000
0000
0000
0000
,
0000
0000
0000
0000
,
0000
0000
0000
0000
,
0000
0000
0000
0000
,
0000
0000
0000
0000
,
0000
0000
0000
0000
,
1000
1000
2000
3000
,
0001
0001
0002
0003
,
0010
0001
0200
0300
,
0010
1000
1001
0000
,
0000
1000
0000
0100
,
0000
0010
0000
0001
,
0100
0100
0100
0100
,
0001
0010
0100
1000
,
0000
0001
0000
0100
,
0000
0010
0000
1000
,
0100
0100
0100
0000
,
1001
0000
0000
0000
,
0000
2000
3020
0230
,
0302
0000
1000
1003
,
1000
0002
0023
0230
,
2300
0000
3001
0000
,
0110
0000
0000
0000
,
0001
0000
0001
0000
,
0010
0000
0001
0000
,
0100
0100
0100
0010
,
1000
0000
1000
0000
,
0100
0000
1000
0000
,
0010
0000
1000
0000
,
0100
0100
0100
0010
,
0001
0000
0000
0002
0000
0000
0103
0000
,
0100
0000
0000
0200
0000
0000
0310
0000
,
0010
0000
0000
0020
0000
0000
1030
0000
,
1000
1000
0001
0001
,
0020
0000
0230
0000
,
2300
0000
3002
0000
,
0203
0000
0000
0000
,
0302
1000
1000
0000
,
0023
0100
0100
0000
,
0031
0001
1000
1000
,
0001
0100
0000
0010
,
1000
0100
0000
0010
,
0001
0001
0001
0000
,
1000
1000
1000
0010
,
0100
0001
0000
0010
,
0100
1000
0000
0001
,
0100
0100
0100
0000
,
0010
1000
0010
0100
,
0001
2000
0000
0100
,
3100
0010
0000
0001
,
1000
0020
0000
0100
,
0130
0000
0000
0000
0000
0000
0000
1001
0000
0000
0000
0000
0000
0000
0000
0000
;

//---------------dance-single - ----------------
#NOTEDATA:;
#CHARTNAME:;
#STEPSTYPE:dance-single;
#DESCRIPTION:;
#CHARTSTYLE:;
#DIFFICULTY:Medium;
#METER:5;
#RADARVALUES:0.235774,0.242736,0.068136,0.128702,0.049210,192.000000,9.000000,17.000000,0.000000,0.000000,0.000000,0.000000,0.000000,0.235774,0.242736,0.068136,0.128702,0.049210,192.000000,9.000000,17.000000,0.000000,0.000000,0.000000,0.000000,0.000000;
#CREDIT:;
#NOTES:
// measure 0
0000
0000
0000
0000
,  // measure 1
0000
0000
0000
0000
,  // measure 2
0000
0000
0000
0000
,  // measure 3
0000
0000
0000
0000
,  // measure 4
0000
0000
0000
0000
,  // measure 5
0000
0000
0000
0000
,  // measure 6
0000
0000
0000
0000
,  // measure 7
0000
0000
0000
0000
,  // measure 8
1000
0000
0000
0100
0000
0000
0010
0000
0000
0001
0000
0000
0000
0000
1000
0000
,  // measure 9
0001
0000
0000
0100
0000
0000
0010
0000
0000
1000
0000
0000
0000
0000
0001
0000
,  // measure 10
1000
0000
0000
0100
0000
0000
1000
0000
0000
0010
0000
0000
0000
0000
0100
0000
,  // measure 11
0001
1000
0110
0000
,  // measure 12
0001
0100
0010
1000
,  // measure 13
0100
0000
0010
0000
0100
1000
0001
0000
,  // measure 14
0002
0100
0010
1000
,  // measure 15
0023
0100
1000
0031
,  // measure 16
1000
0010
0100
0001
,  // measure 17
0010
0000
0100
0000
0010
0001
1000
0000
,  // measure 18
0020
0100
1000
0130
,  // measure 19
1001
0000
0000
0001
,  // measure 20
0200
1000
0010
0301
,  // measure 21
0001
0010
0001
1000
0100
0000
0100
0000
,  // measure 22
1000
0020
0001
0100
,  // measure 23
1030
0000
1000
0100
1000
0001
0100
0000
,  // measure 24
0110
0000
0000
0000
,  // measure 25
0010
0000
1000
0000
0010
1000
0010
0000
,  // measure 26
1000
0100
1000
0100
,  // measure 27
0020
0001
0001
0031
,  // measure 28
0001
0100
0001
0100
,  // measure 29
0010
0000
1000
0000
0010
1000
0100
0000
,  // measure 30
1000
0100
0010
0001
,  // measure 31
0200
0000
0010
0000
0310
0000
0000
1000
,  // measure 32
0100
0000
0000
0010
0000
0000
0001
0000
0000
0100
0000
0000
0000
0000
0010
0000
,  // measure 33
0100
0000
0000
0010
0000
0000
1000
0000
0000
0100
0000
0000
0000
0000
0010
0000
,  // measure 34
0100
0000
0000
0010
0000
0000
0001
0000
0000
0100
0000
0000
0000
0000
0010
0000
,  // measure 35
0100
0000
0001
0000
0010
0100
1000
0000
,  // measure 36
2100
0000
0200
3000
,  // measure 37
0002
0000
0000
0300
2000
0000
0000
0003
,  // measure 38
3001
1000
0001
1000
,  // measure 39
0010
1000
0010
1000
,  // measure 40
0010
0001
0100
1000
,  // measure 41
0100
0100
1001
0110
,  // measure 42
1000
0000
0100
0000
0010
0000
0001
1000
,  // measure 43
0001
0100
0010
0010
,  // measure 44
2000
0100
0010
3001
,  // measure 45
0002
0000
0010
0000
0100
0000
1003
0001
,  // measure 46
1000
0100
0010
0001
,  // measure 47
0100
0000
0010
0000
0100
0010
0100
0000
,  // measure 48
0002
0100
0010
1003
,  // measure 49
0010
0100
1001
0110
,  // measure 50
0002
0203
1000
0010
,  // measure 51
0301
0000
0010
0000
0100
1000
0100
0010
,  // measure 52
0001
0200
1000
0010
,  // measure 53
0301
0000
0000
0000
0000
0000
0000
0110
0000
0000
0000
0000
0000
0000
0000
0000
;

//---------------dance-single - ----------------
#NOTEDATA:;
#CHARTNAME:;
#STEPSTYPE:dance-single;
#DESCRIPTION:;
#CHARTSTYLE:;
#DIFFICULTY:Hard;
#METER:7;
#RADARVALUES:0.387188,0.451782,0.068136,0.378536,0.276331,299.000000,9.000000,50.000000,2.000000,0.000000,0.000000,0.000000,0.000000,0.387188,0.451782,0.068136,0.378536,0.276331,299.000000,9.000000,50.000000,2.000000,0.000000,0.000000,0.000000,0.000000;
#CREDIT:;
#NOTES:
// measure 0
0000
0000
0000
0000
,  // measure 1
0000
0000
0000
0000
,  // measure 2
0000
0000
0000
0000
,  // measure 3
0000
0000
0000
0000
,  // measure 4
0000
0000
0000
0000
,  // measure 5
0000
0000
0000
0000
,  // measure 6
0000
0000
0000
0000
,  // measure 7
0000
0000
0000
0000
,  // measure 8
1000
0100
0000
1000
0100
0000
0010
0001
0000
0010
0002
0000
0000
0000
0013
0000
,  // measure 9
0001
0100
0000
0001
0100
0000
0010
1000
0000
0010
2000
0000
0000
0000
3010
0000
,  // measure 10
0100
0010
0000
0100
0010
0000
1000
0001
0000
1000
0001
0000
0000
0000
0010
0000
,  // measure 11
0100
0000
1000
0000
0001
1000
0000
0000
0110
0000
0000
0000
0000
0000
0000
0000
,  // measure 12
2000
0000
3200
0000
0320
0000
0031
0010
,  // measure 13
0001
0000
0000
0000
0100
0000
0000
0000
0010
0000
0000
0000
0100
0010
0100
0000
,  // measure 14
0002
0000
0000
0023
0000
0000
0230
0000
0000
0000
0000
0000
0001
0000
0000
0000
,  // measure 15
2300
0000
0000
3020
0000
0000
0130
0000
0001
0000
0000
0000
1000
0000
0001
0000
,  // measure 16
2000
0000
3200
0000
0320
0000
0130
1000
,  // measure 17
0100
0000
0000
0000
0010
0000
0000
0000
0001
0000
1000
0000
0001
0100
0001
0000
,  // measure 18
0200
0000
0000
0320
0000
0000
2030
0000
0000
0000
0000
3001
1000
0000
0100
0010
,  // measure 19
0100
0000
0000
1001
,  // measure 20
2000
3200
0302
0203
,  // measure 21
1300
0000
0000
0000
0010
0100
0000
0100
0010
0000
1000
0000
0001
0000
1000
0100
,  // measure 22
2000
3200
0320
0032
,  // measure 23
0103
0000
0000
0000
0001
0100
0000
0100
0001
0000
0100
0010
0100
0000
0000
0000
,  // measure 24
1001
0000
0000
0000
,  // measure 25
1000
0100
1000
0001
,  // measure 26
0100
0000
0010
0000
1000
0010
1000
0000
0001
0000
0100
0000
0010
0000
1000
0100
,  // measure 27
1000
0100
0010
0001
,  // measure 28
1000
0000
0001
0100
0000
0100
0000
0020
0000
0000
1030
0001
0000
0100
0001
0000
,  // measure 29
1000
0100
0010
0001
,  // measure 30
1000
0100
1000
0100
1000
0000
0001
0100
0010
0000
0010
0000
1000
0000
0001
0100
,  // measure 31
0001
0000
0010
0000
0100
0000
1000
0001
,  // measure 32
1000
0001
0000
1000
0001
0000
1000
0010
0000
1000
0020
0000
0100
0000
0130
0000
,  // measure 33
0100
0001
0000
0100
0001
0000
1000
0010
0000
1000
0020
0000
1000
0000
1030
0000
,  // measure 34
0001
1000
0000
0001
1000
0000
0100
0010
0000
0100
0020
0000
0001
0000
0031
0000
,  // measure 35
0100
0000
0001
0000
0100
0010
0000
0010
0100
0000
0001
0000
1000
0100
0000
0100
,  // measure 36
200M
0000
0001
0000
0200
0000
0000
3000
,  // measure 37
0001
0000
0000
0002
0000
0000
0300
0000
1000
0000
0000
2000
0000
0000
0000
0003
,  // measure 38
30M1
1000
0001
1000
0001
1000
0010
1000
,  // measure 39
0010
0100
0010
0100
0010
0100
1000
0100
,  // measure 40
1000
0001
0100
0001
1000
0100
0010
0001
,  // measure 41
0100
1000
0100
0001
1000
0100
0110
0000
,  // measure 42
1002
0000
0100
0000
1000
0000
0013
0100
,  // measure 43
1000
0000
0000
0000
0001
0000
0000
0000
0100
0010
1000
0000
0010
1000
0010
0000
,  // measure 44
2000
0000
0000
0200
3000
0000
0020
0300
0000
0000
0000
0000
1000
0000
0000
0000
,  // measure 45
0032
0000
0000
0203
0000
0000
0320
0000
1030
0000
0000
0000
0001
0000
0100
0000
,  // measure 46
0020
0000
1000
0000
0001
0000
1030
0100
,  // measure 47
0010
0000
0000
0000
0100
0000
0000
0000
0010
0001
0010
0000
0001
0100
0001
0000
,  // measure 48
0200
0000
0000
0302
0000
0000
0023
0000
0030
0000
0000
0010
0001
0000
1000
0001
,  // measure 49
0100
0000
0000
0000
0010
1000
0000
1000
0010
0000
0100
0001
0100
0001
1000
0001
,  // measure 50
0010
1200
0302
2003
,  // measure 51
3002
0000
0000
0000
0103
0010
0000
0010
0100
0000
1000
0000
0001
0000
1000
0001
,  // measure 52
1000
0201
1000
0310
,  // measure 53
0101
0000
0000
0000
0000
0000
0000
2200
0000
0000
0000
0000
0000
0000
0000
0000
,  // measure 54
0000
3300
0000
0000
;
