#TITLE:This Fire;
#SUBTITLE:;
#ARTIST:Killswitch Engage;
#TITLETRANSLIT:;
#SUBTITLETRANSLIT:;
#ARTISTTRANSLIT:;
#GENRE:Metal;
#CREDIT:TiKAL+;
#BANNER:[Round D] - This Fire.png;
#BACKGROUND:[Round D] - This Fire-bg.png;
#LYRICSPATH:;
#CDTITLE:cdtitle.png;
#MUSIC:[Round D] - This Fire.ogg;
#OFFSET:-0.858;
#SAMPLESTART:38.571;
#SAMPLELENGTH:24.000;
#SELECTABLE:YES;
#DISPLAYBPM:83.100:140.000;
#BPMS:0.000=140.000,276.000=108.303,276.500=120.000,277.000=119.048,277.500=86.705,278.000=83.102,279.000=90.000,280.000=114.568;
#STOPS:;
#BGCHANGES:;
#KEYSOUNDS:;

//---------------dance-single - TiKAL----------------
#NOTES:
     dance-single:
     TiKAL:
     Challenge:
     12:
     0.770,0.930,0.383,0.542,0.621:
0000
0000
0000
0000
,
0000
0000
0000
0000
,
0000
0000
0000
0000
,
0000
0000
0000
0000
,
2000
0000
3100
1000
0100
1000
0100
0010
0002
0000
0103
0000
0010
0000
4000
0000
,
0000
0000
3001
0000
0010
0000
0100
1000
0002
0000
0103
0001
0100
0001
0100
0010
,
2000
0000
3001
0100
0001
0100
0001
1000
0010
0000
0100
0000
0001
0000
0001
0000
,
1000
0000
0100
0000
0100
0000
0010
0001
2000
0000
3001
0010
0100
1000
0100
0010
,
0002
0000
0103
0001
0100
0001
0100
0010
1000
0001
0010
0100
1000
0000
0004
0000
,
0000
0000
1003
0000
0100
0000
1000
0001
0200
0000
0301
0010
0001
0010
0001
1000
,
0020
0000
0130
0001
0100
0001
1000
0100
0010
0001
1000
0010
0100
0000
0101
0000
,
0001
0000
0000
0000
0000
0000
1001
0000
0000
0000
0000
0000
1001
0000
0000
0000
0000
0000
1000
0000
0000
0000
0000
0010
0100
0000
0000
0000
0000
0000
0001
0000
0000
0000
0000
0000
1001
0000
0000
0000
0000
0000
0000
0000
0000
0000
0000
0000
,
1000
0100
1000
0100
0010
0001
0010
0001
1000
0010
1000
0010
0100
0001
0100
0001
,
1000
0100
0010
0001
1000
0010
0100
0001
1000
0100
0010
0100
1000
0001
0010
0100
,
0010
0001
0010
0001
1000
0010
1000
0010
0100
0001
0100
0001
1000
0100
1000
0100
,
0010
0001
1000
0001
0010
0100
1000
0001
0100
0001
1000
0100
0010
0001
1000
0001
,
0100
0010
0100
0010
1000
0100
1000
0100
0010
0100
0010
0100
0010
0001
0010
0001
,
1000
0010
0100
0010
1000
0001
0100
0010
0100
0001
1000
0100
0010
0001
0010
0100
,
0010
0001
0010
0001
1000
0010
1000
0010
0100
0001
1000
0100
0010
0000
0110
0000
,
0100
1100
1100
1000
0001
0001
0001
2001
,
3M00
0M00
00M0
0M00
000M
0M00
00M0
0M00
,
0M00
0M00
00M0
0M00
M000
0M00
00M0
0M00
,
1001
0000
0001
1000
1010
0000
1000
0001
,
0010
0100
1000
0001
0101
0000
1000
0001
,
1001
0000
0001
0100
0101
0000
0001
0100
,
0010
1000
0010
0100
0101
0000
1000
0100
,
0010
0001
0100
0010
1001
0000
1000
0001
,
0010
0100
1000
0010
2010
0000
3002
0000
,
0103
0001
0100
0010
1010
0000
1000
0001
,
0100
0010
0100
0001
1001
1000
1010
0010
,
1000
0100
0010
0001
0101
0000
0001
0010
,
0100
1000
0100
0010
0011
0000
1000
0001
,
0100
0010
1000
0001
0101
0000
1000
0100
,
0110
0110
0011
0011
1001
1001
1010
0220
,
0000
0000
0000
0000
,
0000
0000
0000
0000
0000
0000
0000
0330
,
0202
0010
0303
0000
2200
0010
3310
0000
,
0022
1000
0033
0000
2020
0001
3031
0000
,
0220
0001
0330
0000
0220
1000
1330
0000
,
0001
0000
0000
0000
0100
0000
0000
0000
0040
0030
0000
0000
1000
0000
0000
0000
0002
0000
0000
0000
0013
0000
0000
0000
0400
0300
0000
0000
1000
0000
0000
0000
,
2200
0010
3300
0000
0202
0010
0313
0000
,
2020
0001
3030
0000
0022
1000
1033
0000
,
0220
1000
0330
0000
0220
0001
0331
0000
,
1000
0100
0010
0001
2000
3010
0200
0301
,
1000
0100
0010
0001
1000
0010
0100
0010
0100
0001
1000
0100
0010
0001
1000
0010
,
1000
0001
0100
0010
0100
0001
0010
0100
1000
0001
0010
0100
0010
0001
1000
0100
,
1000
0010
0100
0001
0010
0100
1000
0001
0100
0010
1000
0100
0010
0100
1000
0001
,
0100
0010
0100
0001
0010
0100
2000
3001
0100
0010
0200
0000
0301
1000
0002
0000
,
1003
0100
1000
0001
0100
0010
0100
0001
0010
0100
1000
0001
0100
0010
0100
0010
,
1000
0100
0010
0100
1000
0001
0010
0001
0100
0010
1000
0100
0010
0001
1000
0010
,
1000
0001
0100
0001
0010
0100
0010
0100
1000
0001
0100
0010
0100
0001
0010
0100
,
1000
0000
0100
0000
1000
0000
0100
0000
0000
0010
0000
0000
0000
0000
0000
0001
0000
0000
1000
0000
0000
0001
0000
0000
0100
0000
0000
0010
0000
0000
1000
0000
0000
0100
0000
0000
0020
0000
0000
0000
0000
0000
0031
0000
0000
1000
0000
0000
,
0001
0000
0100
0000
0020
0030
1000
0000
0100
0000
0010
0000
0200
0300
1000
0000
,
0001
0000
0010
0000
0002
0003
1000
0000
0100
0000
1000
0000
0020
0030
0100
0000
,
0001
0000
0010
0000
0200
0300
0010
0000
0100
0000
1000
0000
0002
0003
0100
0000
,
0001
0000
0010
0000
0200
0300
1000
0000
0010
0000
0100
0000
0002
0003
1000
0000
,
0001
0000
0100
0000
0020
0030
0100
0000
0001
0000
1000
0000
0200
0300
0010
0000
,
0100
0000
1000
0000
0002
0003
0010
0000
0100
0000
0010
0000
0002
0003
1000
0000
,
0010
0000
0100
0000
0002
0003
0010
0000
0100
0000
1000
0000
0002
0003
0100
0000
,
0010
1010
1000
0001
0102
0000
1000
1003
,
1001
0000
0010
0100
0101
0000
0001
0010
,
0001
1000
0010
0100
0110
0000
0001
1000
,
0100
0010
0100
0010
0110
0000
0010
0001
,
1000
0000
0000
0000
0000
0000
0001
0000
0000
1000
0000
0000
0001
0000
0000
0000
0000
0000
0100
0000
0000
0000
0000
0000
0110
0000
0000
0000
0000
0000
0000
0000
0000
0000
0000
0000
0010
0100
0000
0000
0000
0000
0000
0000
0000
0000
0000
0000
,
1002
1000
1000
1000
,
0003
1000
0100
0000
0010
0000
0001
1000
0001
0000
0100
0010
1000
0100
0010
0001
,
2000
0000
0000
0000
0000
0000
0001
0000
0000
0000
0000
0000
3002
0000
0000
1003
0100
1000
0100
0000
0000
0020
0000
0000
,
0000
0031
0010
0001
1000
0100
0010
0100
1000
0001
0100
0010
1000
0000
0000
0002
0000
0000
1003
0100
1000
0001
0100
0001
,
2000
0000
0000
0000
0000
0000
3001
0000
0000
0010
0000
0000
0002
0000
0000
0000
0000
0000
1003
0000
0000
0010
0000
0000
2000
0000
0000
0000
0000
0000
3002
0000
0000
0000
0000
0000
0203
0000
0000
0000
0300
0000
0110
0000
0000
0000
0000
0000
,
0010
0000
0000
0000
1000
0000
0000
0000
0001
0100
0001
0000
0100
0000
0000
0000
0220
0000
0000
0000
0000
0000
0330
0000
2002
0000
0000
0000
0000
0000
3003
0000
,
0001
1000
0020
0200
0000
0000
0000
0000
0000
0000
0000
0000
0000
0000
0000
0000
0000
0000
0000
0000
0000
0000
0000
0000
,
0000
0000
0000
0000
,
0000
0000
0000
0000
,
0000
0000
0000
0000
,
0000
0000
0000
0000
,
0000
0000
0000
0000
,
0000
0000
0000
0000
,
0000
0000
0000
0000
,
0330
0000
0000
0000
;
