#TITLE:The Right Thing;
#SUBTITLE:;
#ARTIST:Alphabeat;
#TITLETRANSLIT:;
#SUBTITLETRANSLIT:;
#ARTISTTRANSLIT:;
#GENRE:Synthpop;
#CREDIT:;
#BANNER:the right thing-bn.png;
#BACKGROUND:the right thing-bg.png;
#LYRICSPATH:;
#CDTITLE:cdtitle.png;
#MUSIC:The Right Thing.ogg;
#OFFSET:0.000000;
#SAMPLESTART:38.779999;
#SAMPLELENGTH:15.500000;
#SELECTABLE:YES;
#BPMS:0.000000=61.500000
,24.000000=123.000000
,52.000000=61.500000
,54.000000=123.000000
,86.000000=61.500000
,102.000000=123.000000
,130.000000=61.500000
,132.000000=123.000000
,164.000000=61.500000
;
#STOPS:
;
#BGCHANGES:;
#KEYSOUNDS:;
#ATTACKS:;

//---------------dance-single - ----------------
#NOTES:
     dance-single:
     :
     Hard:
     8:
     0.435667,0.486179,0.106075,0.512698,0.291708,345.000000,333.000000,12.000000,58.000000,0.000000,0.000000,0.435667,0.486179,0.106075,0.512698,0.291708,345.000000,333.000000,12.000000,58.000000,0.000000,0.000000:
// measure 0
0000
0000
0000
0000
,  // measure 1
0000
0000
0000
0000
,  // measure 2
2000
0000
0000
0000
3002
0000
0000
0000
1003
0001
0010
0001
0200
0000
0310
0100
,  // measure 3
0002
0000
0010
0000
0000
0100
0000
0000
0023
0000
0000
0000
0000
0000
0000
0000
0031
0000
1000
0000
0200
0000
0000
0000
0320
0000
0000
0000
2030
0000
0000
0000
,  // measure 4
3200
0000
0010
0000
0000
0001
0000
0000
0320
0000
0000
0000
0000
0000
0000
0000
1030
0000
0010
0000
0100
0000
0001
0000
1000
0000
0000
0000
0010
0000
0000
0000
,  // measure 5
2000
0000
0000
0000
3001
0000
0000
0000
1001
0000
0000
1000
0010
0001
0010
1000
,  // measure 6
0020
0000
0000
0000
2030
0000
3000
0000
0001
0000
0000
0010
0001
0000
0001
0000
,  // measure 7
2000
0000
0000
0000
3020
0000
0030
0000
1000
0000
0000
0010
0100
0000
0010
0000
,  // measure 8
2000
0000
0000
0000
3002
0000
0003
0000
0001
0000
0000
1000
0010
0000
1000
0000
,  // measure 9
0200
0000
2300
3100
1000
0100
0001
0100
,  // measure 10
2000
0000
0000
0000
3002
0000
0003
0000
0001
0000
0000
0001
1000
0000
0100
0000
,  // measure 11
2000
0000
0000
0000
3200
0000
0300
0000
1000
0000
0000
1000
0010
0000
0100
0000
,  // measure 12
0002
0000
0000
0000
0023
0000
0030
0000
0001
0000
0000
0001
0100
0000
0010
0000
,  // measure 13
0210
0000
0000
0000
0000
0000
0000
0000
0010
0010
0010
0000
0000
0000
0310
0000
0110
0000
0000
0000
0100
0000
0000
0000
1000
0000
0000
0000
0100
0000
0000
0000
,  // measure 14
0001
0000
0000
0100
0000
0000
0001
0000
1000
0000
0000
0000
0100
0000
1000
0000
,  // measure 15
0001
0000
0100
0000
0010
0000
0001
0000
0010
0000
0100
0000
0100
0000
0000
0100
,  // measure 16
0001
0000
0010
0000
0100
0000
0010
0000
0001
0000
1000
0000
1000
0000
0000
1000
,  // measure 17
0010
0000
0000
1000
0000
0000
0002
0000
1000
0000
0003
0000
1000
0000
0001
0000
,  // measure 18
0010
0000
0000
0100
0000
0000
0010
0000
0001
0000
1000
0000
1000
0000
0000
1000
,  // measure 19
0010
0000
0001
0000
0010
0000
1000
0000
0100
0000
0010
0000
0010
0000
0000
0010
,  // measure 20
0001
0000
0010
0000
0100
0000
0010
0000
0001
0000
1000
0000
1000
0000
0000
1000
,  // measure 21
0010
0000
0000
1000
0000
0000
0001
0000
1001
0000
1000
0000
0010
0000
0100
0010
,  // measure 22
0001
0000
0000
0010
0000
0000
0100
0000
0000
0010
0000
0000
1000
0000
0000
0000
0000
0001
0000
0000
1000
0000
0000
0000
1100
0000
0000
0000
0000
0000
1000
0000
0000
0000
0000
0000
0001
0000
0000
0000
0000
0000
0010
0000
0000
0001
0000
0000
,  // measure 23
1000
0100
0020
0000
0230
0000
0320
0000
0130
0000
1000
0000
0001
0000
0100
0001
,  // measure 24
1000
0001
0010
0100
0020
0000
0032
0000
2003
0000
0010
0000
3010
0000
1000
0000
,  // measure 25
1010
0000
1000
0001
1000
0010
1000
0001
2001
0000
0001
0000
3002
0000
1003
0000
,  // measure 26
1000
0000
0000
1000
0010
0000
0100
0000
0020
0000
1000
0000
2030
0000
3010
0000
,  // measure 27
1000
0001
0010
0100
0020
0001
0032
0013
,  // measure 28
0001
1000
0010
1000
0002
1000
2003
3100
,  // measure 29
1000
0100
0010
0100
0120
0001
0032
0013
,  // measure 30
0100
0000
0000
0100
1000
0000
0001
0000
0020
0000
0001
0000
0032
0000
0013
0000
,  // measure 31
0001
1000
0100
0010
0200
1000
2300
3100
,  // measure 32
1000
0000
0000
0000
0000
0000
1000
0000
0001
0000
0000
0000
0100
0000
0000
0000
0101
0000
0000
0000
0010
0000
0000
0000
0001
1000
0001
0000
0000
1000
0001
0000
,  // measure 33
1001
0000
0010
0000
0001
0000
0100
0000
0010
0000
0000
1000
0000
1000
0001
0000
,  // measure 34
1000
0000
0001
0000
1000
0001
0100
0000
0010
0000
0100
0000
0010
0100
0001
0000
,  // measure 35
1000
0000
0001
0000
0001
0000
0000
0001
0100
0000
0010
0000
0100
0000
1000
0000
,  // measure 36
0100
0000
0001
0000
0001
0000
0000
0001
1000
0000
0000
0010
0000
0000
2000
0000
,  // measure 37
0001
0000
3000
0000
0001
0000
1000
0000
0100
0000
0000
1000
0000
1000
0001
0000
,  // measure 38
0010
0000
0100
0000
0100
0000
0000
0100
1000
0000
0100
0000
1000
0000
0010
0000
,  // measure 39
1000
0000
0001
0000
0001
0010
0001
0000
0100
0000
0010
0000
1000
0000
0001
0000
,  // measure 40
2001
0000
0001
0000
0000
0010
0000
0000
0200
0000
0300
0000
0200
0000
3300
0000
,  // measure 41
1200
0010
1000
0010
2300
0100
0001
0100
,  // measure 42
3002
0000
0000
0000
1000
0000
0100
1000
0203
0000
0000
0000
0010
0000
0010
1000
,  // measure 43
0320
0000
0000
0000
0001
0000
0100
1000
0230
0000
0000
0000
0020
0000
0000
0000
,  // measure 44
0330
0000
0000
0000
;

//---------------dance-single - ----------------
#NOTES:
     dance-single:
     :
     Medium:
     6:
     0.347271,0.388943,0.088396,0.247509,0.083976,275.000000,265.000000,10.000000,28.000000,0.000000,1.000000,0.347271,0.388943,0.088396,0.247509,0.083976,275.000000,265.000000,10.000000,28.000000,0.000000,1.000000:
0000
0000
0000
0000
,
0000
0000
0000
0000
,
2000
0000
0000
0000
3200
0000
0000
0000
1300
0000
0010
0000
0100
0000
0001
0100
,
0002
0000
1000
0000
0000
1000
0000
0000
2003
0000
0000
0000
0000
0000
0000
0000
3001
0000
0000
0000
1000
0000
0000
0000
0010
0000
0000
0000
0100
0000
0000
0000
,
0002
0000
0010
0000
0000
0010
0000
0000
0023
0000
0000
0000
0000
0000
0000
0000
0031
0000
0000
0000
0100
0000
0000
0000
0001
0000
0000
1000
0001
0000
0100
0000
,
0020
0000
2030
0000
3001
0000
0010
0010
,
0021
0000
0031
0000
1000
0000
0001
0100
,
0010
0000
1000
0000
0001
1000
0100
0010
,
0100
0000
0100
0000
2000
0000
3020
0100
,
0130
0000
0000
0000
0010
0000
0100
0000
0001
0000
0000
1000
0000
0000
0001
0000
,
0010
0000
0001
0000
0001
0010
1000
0100
,
0010
0000
0100
0000
0001
1000
0010
0100
,
0001
0000
0010
0000
0002
0000
2003
0010
,
3210
0000
0000
0000
0020
0030
0000
0000
0310
0000
0000
0000
1000
0000
0100
0000
,
0010
0000
0000
0100
0000
0000
1000
0000
0001
0000
0000
0000
0100
0000
0000
0000
,
0001
0010
0001
0010
0100
0010
0010
0000
,
0001
1000
0100
0010
0100
0000
1000
0010
,
1000
0000
0000
1000
0000
0000
2000
0000
0000
0000
3001
0000
1000
0000
0001
0000
,
0010
0000
0000
0100
0000
0000
0010
0000
0001
0000
0100
0000
0100
0000
0000
0000
,
0001
1000
0010
1000
0000
0010
0010
1000
,
0001
0010
0100
0010
0000
0001
0001
0000
,
1000
0000
0000
0010
0000
0000
1000
0000
1010
0000
1000
0000
0010
0000
0100
0000
,
0001
0000
0100
0001
1000
0000
0010
0000
0100
0000
0010
0000
0001
0000
0010
0000
,
0100
0010
1000
0100
1100
1000
0001
0100
,
1000
0010
0001
0100
0001
0010
0100
1000
,
1100
0001
0010
0001
0011
0000
0001
1000
,
0010
0000
0010
0100
0010
0000
1000
0010
,
1000
0000
0010
0100
0001
0000
0001
0010
,
0001
0000
1000
0100
1000
0000
0010
0100
,
1000
0100
0010
0100
0001
0000
0010
0100
,
0010
0000
0001
1000
0010
0000
0100
0010
,
1000
0000
0100
0010
0100
0000
1000
0001
,
1000
0000
0001
0100
0101
0001
1000
0010
,
1010
0000
0000
0000
1000
0000
0100
0000
0010
0000
0000
0100
0000
0000
1000
0000
,
0001
0000
1000
0000
0001
0100
0001
0100
,
0010
0000
0000
0000
0010
0100
0010
0000
0100
0000
0010
0000
1000
0000
0001
0000
,
0010
0000
0000
0000
0100
0000
0010
0000
0001
0000
0000
1000
0000
0000
0002
0000
,
0000
0000
1003
0000
0001
0000
0010
0000
0100
0000
0000
0010
0000
0000
0001
0000
,
1000
0000
0000
0000
0100
1000
0100
0000
1000
0000
0001
0000
1000
0000
0010
0000
,
0000
0100
0100
0001
1000
0100
0010
0001
,
0021
0000
0100
0000
0000
0001
0000
0000
0200
0000
0300
0000
0200
0000
0330
0000
,
0210
0001
2300
0010
,
3200
1000
0320
0001
,
0032
0023
0230
0020
,
0330
0000
0000
0000
;

//---------------dance-single - ----------------
#NOTES:
     dance-single:
     :
     Beginner:
     1:
     0.140171,0.136130,0.000000,0.353585,0.000000,111.000000,111.000000,0.000000,40.000000,0.000000,0.000000,0.140171,0.136130,0.000000,0.353585,0.000000,111.000000,111.000000,0.000000,40.000000,0.000000,0.000000:
0000
0000
0000
0000
,
0000
0000
0000
0000
,
0020
0000
0230
0000
,
0302
0000
0023
0000
,
0230
0000
2300
0000
,
3002
0000
1003
2000
,
3002
0000
0003
0000
1000
0000
0000
0001
,
0200
0000
0300
0000
0001
0000
0000
1000
,
0200
0000
0300
0000
1000
0000
0000
0001
,
0200
0300
0010
0100
,
0002
0000
0003
0000
1000
0000
0000
0010
,
2000
0000
3000
0000
1000
0000
0000
0010
,
0200
0000
0300
0000
0100
0000
0000
0001
,
2000
0000
3100
0000
,
1000
0000
0010
0000
,
1000
0001
0100
0000
,
0001
0100
0001
0000
,
1000
0010
1000
0000
,
0010
0000
0100
0000
,
0001
1000
0010
0000
,
0100
0001
0020
0000
,
0100
0000
0032
0000
,
2003
0000
3200
0000
,
2300
0000
3200
0000
,
0320
0000
0230
0000
,
2300
0100
3020
0030
,
0100
0000
0000
0001
0020
0000
0030
0000
,
0001
0000
0000
1000
0200
0000
0300
0000
,
1000
0000
0000
0100
0020
0000
0030
0000
,
0100
1000
0002
0003
,
0010
0000
0000
0010
0200
0000
0300
0000
,
1000
0000
0000
1000
0002
0000
0003
0000
,
0001
0000
0000
0010
0200
0000
0000
0000
,
0310
0000
0100
0000
,
1000
0000
0001
0100
,
0010
0000
1000
0100
,
1000
0000
0001
0100
,
0001
0000
1000
0000
,
0010
0000
1000
0001
,
0010
0000
0100
0010
,
2000
0000
0010
0000
,
3020
0000
2030
0000
,
3002
0000
0203
0000
,
0320
1000
0200
0000
,
0330
0000
0000
0000
;

//---------------dance-single - ----------------
#NOTES:
     dance-single:
     :
     Easy:
     4:
     0.260137,0.350049,0.008840,0.229830,0.022099,206.000000,205.000000,1.000000,26.000000,0.000000,0.000000,0.260137,0.350049,0.008840,0.229830,0.022099,206.000000,205.000000,1.000000,26.000000,0.000000,0.000000:
0000
0000
0000
0000
,
0000
0000
0000
0000
,
0002
0000
2003
0010
,
3200
0000
1000
0000
0320
0000
0001
0100
,
0032
0000
1000
0000
0203
0000
0010
1000
,
0320
0100
0230
0020
,
0330
0000
0000
0000
0010
0000
0000
0000
1000
0000
0000
0010
0000
0000
1000
0000
,
0010
0000
0000
0000
1000
0000
0000
0000
0001
0000
0000
0001
0000
0000
0100
0000
,
0001
0000
1000
0000
1000
0000
1000
0001
,
0010
0000
0000
0000
0001
0000
0000
0000
1000
0000
0000
1000
0000
0000
0001
0000
,
0010
0000
0000
0000
0001
0000
0000
0000
1000
0000
0000
0100
0000
0000
0100
0000
,
1000
0000
0000
0000
0100
0000
0000
0000
1000
0000
0000
0010
0000
0000
1000
0000
,
0001
0000
0100
0000
0001
0000
0001
0100
,
0002
0000
0013
0001
,
1000
0001
0010
0100
,
0010
0000
0001
0000
1000
1000
1000
0000
,
0001
0000
0100
0000
0001
0001
0001
0000
,
1000
0000
0100
2000
0100
3000
1000
0001
,
0010
0000
0001
0000
0100
0100
0100
0000
,
0001
0000
1000
0000
0010
0010
0010
0000
,
1000
0100
2000
0001
,
0100
0000
0010
0000
3010
1000
0001
0010
,
0100
0010
0001
0010
1000
0010
0001
0100
,
0010
0001
0010
0100
0210
0000
0001
0000
,
0302
1000
2003
0010
,
3020
1000
0130
0010
,
1000
0000
0001
0100
0001
0000
1000
0000
,
0010
0000
0100
0010
0100
0000
0001
0000
,
1000
0000
0010
0100
0010
0000
1000
0001
,
1000
0100
0010
0100
1000
0000
0001
0000
,
0010
0000
0001
1000
0001
0000
1000
0000
,
0100
0000
1000
0010
1000
0000
0001
0000
,
0100
0000
0010
1000
0020
0000
0100
0000
,
1030
0010
1000
0010
,
0100
0100
0100
0000
0001
0000
1000
0000
,
0010
0010
0010
0000
1000
0000
0001
0000
,
0100
0100
0100
0000
0001
0000
1000
0002
,
0010
0003
1000
0000
0001
0000
0100
0000
,
0001
0001
0001
0000
1000
0010
1000
0010
,
0100
0100
0100
0000
0001
0100
0001
0100
,
0002
1000
0010
1000
,
0023
0001
0032
0100
,
0203
0010
0320
0000
,
2030
3002
2003
0000
,
3000
0000
0000
0000
;
