#TITLE:ね~え?;
#SUBTITLE:;
#ARTIST:松浦 亜弥;
#TITLETRANSLIT:Nee?;
#SUBTITLETRANSLIT:;
#ARTISTTRANSLIT:Aya Matsuura;
#CREDIT:;
#BANNER:Nee.png;
#BACKGROUND:Nee-bg.png;
#LYRICSPATH:;
#CDTITLE:;
#MUSIC:nee.ogg;
#OFFSET:-0.805;
#SAMPLESTART:36.111;
#SAMPLELENGTH:12.000;
#SELECTABLE:YES;
#DISPLAYBPM:169.940;
#BPMS:0.000=169.942,61.500=400.001,62.000=599.997,62.500=800.013,64.000=499.999,65.000=350.000,66.000=169.942,72.500=400.001,73.000=599.998,73.500=844.996,75.000=499.999,76.000=300.001,77.000=169.940,115.500=400.000,116.000=599.997,116.500=1099.995,118.000=499.997,119.000=300.000,120.000=169.941,249.500=400.000,250.000=599.997,250.500=1000.012,252.000=499.998,253.000=300.001,254.000=169.941,256.500=399.999,257.000=599.978,257.000=599.998;
#STOPS:4.000=0.340
,176.000=0.340
;
#BGCHANGES:;

//---------------dance-single - ----------------
#NOTES:
     dance-single:
     :
     Hard:
     7:
     0.641,0.592,0.337,0.033,0.038:
0000
0000
0000
0000
,
1001
0101
1001
0000
1100
0000
1010
0000
,
1000
0010
0000
0010
0100
0000
0100
0001
,
0000
1001
0000
1000
0100
0000
0110
0000
,
0100
1000
0010
1000
0100
0010
0000
0001
,
0100
1000
0100
0001
1000
0100
1100
0000
,
0100
0010
0000
0010
0001
0000
0001
0100
,
0000
0101
0000
0100
1000
0100
0110
0000
,
0010
1000
0100
0001
0100
1000
0000
1000
,
0001
0100
0001
1000
1000
0100
0010
0000
,
0010
0001
0100
1000
0100
0001
0000
0001
,
1000
0000
0000
1000
0100
1000
0010
0010
,
0100
0100
0001
0001
1000
1000
0010
0010
,
0100
0000
0000
0100
0001
0000
0000
0001
1000
0000
0000
1000
0100
0000
0010
0000
,
0001
1000
0001
0010
0100
1000
0001
1000
,
0100
0010
0001
0101
0000
0000
0000
0000
,
0000
0000
0000
0000
0001
0100
0010
1000
,
0001
1000
0010
0100
0001
1000
0100
0010
,
0001
1001
0000
0000
0000
0000
0000
0000
,
0000
0000
1001
0000
1000
0100
0000
0100
,
0001
0100
0010
0000
0010
0001
0000
0001
,
0100
0000
0101
0000
0001
0100
0000
0100
,
1000
0100
0010
0000
0010
1000
0000
1000
,
0100
0000
0110
0000
0010
0001
0000
0001
,
0010
0100
1000
0000
1000
0010
0000
0010
,
1000
0000
0001
1000
0100
0010
0001
0100
,
1000
0100
0010
1000
0100
0010
0002
0000
,
0000
0000
0103
0000
0010
1000
0000
1000
,
0100
1000
0010
0000
0010
0100
0000
1001
,
0000
0000
0000
0000
,
1001
0000
1000
0100
0000
0100
0001
0100
,
0010
0000
0010
0001
0000
0001
0100
0010
,
1000
0000
1000
0010
0000
0010
0100
0000
,
0110
0000
0100
0001
0000
0001
0010
0000
,
0100
1000
0001
0010
0001
1000
0010
0100
,
0001
0100
0010
1000
0001
1000
0100
0010
,
0001
0000
0001
1000
0000
1000
0100
0010
,
0001
0000
0001
0100
0000
0100
0010
0000
,
1001
0000
1000
0100
0001
0100
0010
0000
,
0001
0001
0100
0000
0010
1000
0001
1000
,
0010
0000
0010
0100
0000
0100
0001
1000
,
0001
0000
0001
0010
0000
0010
0100
0000
,
0100
1000
0010
1000
0100
0010
0001
0000
,
0100
0010
0100
0010
1000
0001
1000
0001
,
1001
1100
1001
0000
0101
0000
0110
0000
,
0010
1000
0000
1000
0100
0000
0100
0001
,
0000
0101
0000
0100
1000
0000
1100
0000
,
0100
1000
0010
1000
0001
1000
0000
1000
,
1000
0001
1000
0100
0010
0000
0011
0000
,
0010
0001
0000
0001
0100
0000
0100
1000
,
0000
1100
0000
1000
0100
0000
0010
0100
,
0010
1000
0100
0001
0100
1000
0000
1000
,
0001
0000
0001
0100
0100
0001
1000
0001
,
0010
0100
1000
0010
0100
0001
0000
0001
,
1000
0000
1000
0100
0100
0010
0001
0001
,
0100
0000
0100
0000
0010
0000
0010
0000
1000
0000
1000
0000
0001
0000
0000
0001
,
0010
0000
0000
0010
0100
0000
0000
0100
1000
0000
0000
1000
0002
0000
0000
0000
,
0010
0000
1000
1000
0013
0000
2001
0000
,
0010
0000
0001
0001
3010
0000
1000
0100
,
0010
0001
0010
0100
1000
0001
1000
0100
,
0010
0001
1000
0001
0010
0100
1000
0010
,
0100
0001
1000
0001
0100
0010
1000
0000
,
1000
1000
0001
1001
0000
0000
0000
0000
,
0000
0000
0000
0000
0001
1000
0100
0010
,
0001
1001
0000
0000
0000
0000
0000
0000
;

//---------------dance-single - ----------------
#NOTES:
     dance-single:
     :
     Challenge:
     9:
     0.734,0.732,0.348,0.022,0.054: // measure 1
0000
0000
0000
0000
,  // measure 2
0110
0101
1001
0000
1100
0000
0110
0000
,  // measure 3
0010
0001
0100
0001
0010
0000
0010
0100
,  // measure 4
1000
0001
1000
0100
0010
0000
0001
0100
,  // measure 5
1000
0001
1000
0100
0010
1000
0100
0010
,  // measure 6
0100
0001
0100
1000
0001
0000
0101
0000
,  // measure 7
0001
0100
0010
0100
0001
0000
0001
0010
,  // measure 8
0100
1000
0010
0100
0001
1000
1001
0000
,  // measure 9
0001
0010
1000
0010
0001
1000
0001
0100
,  // measure 10
0010
0000
0010
1000
1001
0000
1100
0000
,  // measure 11
1000
0100
0001
0100
0010
0001
0100
0010
,  // measure 12
1000
0000
0100
0010
0110
0000
0010
0010
,  // measure 13
0001
0001
0100
0100
0010
0010
1000
1000
,  // measure 14
0010
1000
0010
0000
0100
0010
0100
0000
0001
0100
0001
0000
1000
0000
0100
0000
,  // measure 15
0010
0001
1000
0001
0010
0100
1000
0100
,  // measure 16
0010
0001
0100
0101
0000
0000
0000
0000
,  // measure 17
0000
0000
0000
0000
0001
0100
0010
1000
,  // measure 18
0001
1000
0010
0100
0001
0100
0010
1000
,  // measure 19
0100
1100
0000
0000
0000
0000
0000
0000
,  // measure 20
0000
0000
1000
0100
0001
0001
0100
1000
,  // measure 21
0001
1000
0001
0100
1000
1000
0100
0001
,  // measure 22
1001
0000
0001
0100
0010
0010
0100
0001
,  // measure 23
1000
0001
1000
0100
0010
0010
0100
1000
,  // measure 24
1001
0000
0001
0100
0010
1000
0100
0010
,  // measure 25
0001
1000
0001
0100
1000
0001
0010
1000
,  // measure 26
0001
0000
1000
0100
0010
0001
1000
0001
,  // measure 27
0010
0000
0100
0000
1000
0000
0010
0000
0100
0000
0001
0000
0010
0000
0100
0010
,  // measure 28
0100
0010
0100
0010
0001
0000
0010
0000
1000
0000
1000
0000
0010
0000
0001
0000
,  // measure 29
1000
0001
1000
0010
0001
0001
0010
1010
,  // measure 30
0000
0000
0000
0000
,  // measure 31
1000
0010
0100
0100
0010
1000
0001
1000
,  // measure 32
0001
0010
0100
0100
0010
0001
1000
0100
,  // measure 33
1000
0010
0100
0001
0010
0100
1000
0001
,  // measure 34
1000
0010
0001
1000
0100
0001
1000
0000
,  // measure 35
1000
0100
0010
0001
1000
0001
0010
0100
,  // measure 36
1000
0001
0100
0010
1000
0001
0100
0001
,  // measure 37
0010
0100
1000
0010
0000
0010
1000
0100
,  // measure 38
0010
0001
0100
0010
0000
0010
0100
0000
,  // measure 39
0001
0010
1000
0001
1000
0010
0001
0000
,  // measure 40
0001
0100
0001
0100
1000
0100
1000
0100
,  // measure 41
0110
0010
1000
1001
0000
0001
1000
0001
,  // measure 42
0011
0000
0010
0000
0100
0000
1100
0000
0000
0000
0100
1000
0100
0000
0010
0000
,  // measure 43
0001
0100
1000
0100
0001
0010
0001
0000
,  // measure 44
1000
0100
0001
0100
1000
0100
0001
0100
,  // measure 45
0110
0011
1001
0000
1100
0000
1010
0000
,  // measure 46
0010
0100
0001
1000
0001
0000
0001
0010
,  // measure 47
1000
0001
1000
0010
0100
0000
0110
0000
,  // measure 48
0100
1000
0010
1000
0001
0010
0000
0010
,  // measure 49
0001
0100
1000
0100
0010
0000
1010
0000
,  // measure 50
0010
1000
0100
0010
0100
0000
1000
0010
,  // measure 51
0100
0001
0010
0001
0100
0000
0010
1000
,  // measure 52
0100
1000
0010
0001
0010
1000
0001
1000
,  // measure 53
0100
0000
0100
0001
0100
0010
0001
0100
,  // measure 54
1000
0100
0001
0010
0100
1000
0001
1000
,  // measure 55
0010
0000
0010
0010
0100
0100
0001
0001
,  // measure 56
0010
0010
0100
0100
1000
1000
0010
0010
,  // measure 57
0100
0001
0100
0000
0001
1000
0001
0000
1000
0100
1000
0000
2100
0000
0000
0000
,  // measure 58
3001
0000
0001
0100
0101
0000
0120
0000
,  // measure 59
1030
0000
1000
0100
1100
0000
1000
0100
,  // measure 60
0001
1000
0001
0100
1000
0001
1000
0010
,  // measure 61
0001
1000
0001
0010
1000
0001
1000
0100
,  // measure 62
0001
1000
0001
0100
1000
0001
1000
0000
,  // measure 63
0001
0001
0001
0101
0000
0000
0000
0000
,  // measure 64
0000
0000
0000
0000
0001
0100
0010
1000
,  // measure 65
0001
1001
0000
0000
0000
0000
0000
0000
;

//---------------dance-single - ----------------
#NOTES:
     dance-single:
     :
     Medium:
     6:
     0.416,0.453,0.109,0.120,0.000:
0000
0000
0000
0000
,
1001
1000
0001
0000
0100
0000
0010
0000
,
0000
1000
0000
0100
0010
0000
0001
0000
,
0000
0100
0000
0010
1000
0000
0001
0000
,
0010
0000
1000
0000
0010
0001
0000
0000
,
0000
0100
0010
1001
,
0000
0001
0000
0010
0100
0000
1000
0000
,
0000
0010
0000
0100
0001
0000
0010
0000
,
1000
0000
0010
0000
0001
0100
0000
0100
,
0010
0000
0000
1010
,
1000
0000
0100
0000
0001
0100
0000
0100
,
0010
0000
0000
0001
,
0001
0001
0001
0001
,
0010
0100
1000
0001
,
0100
0010
0100
0001
,
0010
0000
0100
1000
0000
0000
0000
0000
,
0000
0000
1000
0100
,
0010
0001
0001
0100
,
0010
1000
0000
0000
0000
0000
0000
0000
,
0000
0000
1001
0000
1000
0100
0000
0100
,
0010
0000
0002
0000
0000
0203
0000
0300
,
0000
0000
0001
0000
0100
0010
0000
0010
,
1000
0000
0002
0000
0003
0020
0000
0030
,
0000
0000
0100
0000
1000
0020
0030
0000
,
0010
1000
0001
0000
0010
0001
0000
0001
,
0010
1000
0010
0001
,
1000
0001
0100
1000
,
0000
0000
0100
0000
0010
1000
0000
1000
,
0001
0000
0020
0000
0000
0130
0000
1100
,
0000
0000
0000
0000
,
1000
0000
0010
0100
0000
0100
0001
0000
,
0020
0000
0000
0130
0000
0000
0000
1000
,
0100
0000
0010
0001
0000
0001
0010
0000
,
0100
0000
1000
0010
0000
0010
1000
0000
,
0001
0010
1000
0001
,
1000
0000
0010
0000
0001
0000
0100
0010
,
1000
0000
0000
1100
0000
0000
0100
0010
,
0001
0000
0001
0200
0000
0300
0000
0000
,
0010
0000
0010
0000
1000
0100
1000
0000
,
0020
0000
0000
0030
0000
0000
0100
0001
,
0010
0000
0000
0110
0000
0000
0100
1000
,
0010
0000
0000
0110
0000
0000
0000
0000
,
0100
0001
0100
0001
0010
0001
0100
0000
,
0010
1000
0100
0010
,
1001
0001
1000
0000
0100
0000
0010
0000
,
0000
0001
0000
0100
0010
0000
0010
1000
,
0000
1000
0000
1000
0001
0000
0100
0000
,
0010
0000
1000
0000
0001
1000
0000
0000
,
0000
0100
1000
0000
0001
0000
0011
0000
,
0000
0001
0000
0001
0100
0000
0100
0010
,
0000
0010
0000
0010
1000
0000
0100
0000
,
0010
0000
0001
0000
0010
0100
0000
0100
,
1000
0000
0001
0100
,
0010
0000
1000
0000
0010
0100
0000
0100
,
0001
0000
0000
0001
1000
0000
1000
0000
,
1000
1000
1000
1000
,
0010
0100
0001
2000
,
0100
0001
0100
3002
,
0100
1000
0103
0001
,
0010
1000
0010
0001
,
0100
1000
0100
0001
,
0010
1000
0010
0001
,
0100
0100
0100
0010
0000
0000
0000
0000
,
0000
0000
0100
0010
,
1000
0001
0000
0000
0000
0000
0000
0000
;

//---------------dance-single - ----------------
#NOTES:
     dance-single:
     :
     Easy:
     5:
     0.326,0.418,0.087,0.054,0.000:
0000
0000
0000
0000
,
1001
1000
0100
0010
,
0000
0001
0100
0001
,
0000
1000
0100
1000
,
1000
0100
0010
0001
,
0000
0001
0100
0010
,
0000
0010
0100
0001
,
0000
0001
0100
0001
,
0001
0010
0100
1000
,
0001
0000
0000
1000
,
0100
1000
1000
0010
,
0100
0000
0001
1000
,
1000
0001
0001
0010
,
0100
1000
0001
1000
,
0100
0010
0100
1000
,
0100
0010
0000
0000
,
0000
0000
0001
0100
,
0010
0100
0001
0100
,
0010
0000
0000
0000
,
0000
0000
1000
0000
0000
1000
0000
0000
,
0100
0000
0001
0000
0000
0100
0000
0000
,
0000
0000
0001
0000
0000
0001
0000
0000
,
0100
0000
1000
0000
0000
0100
0000
0000
,
0000
0000
0010
0000
0000
0001
0000
0000
,
0100
0000
0010
0000
0000
1000
0000
0000
,
0100
0010
0001
1000
,
0001
0010
0100
1000
,
0000
0000
1000
0000
0000
1000
0000
0000
,
0010
0000
0001
0000
0000
0010
0000
0000
,
0000
0000
0000
0000
,
0001
0000
0000
0001
0000
0000
0010
0000
,
1000
0000
0000
0010
0000
0000
0000
0000
,
0100
0000
0000
0100
0000
0000
0001
0000
,
1000
0000
0000
1000
0000
0000
0100
0000
,
0010
0001
1000
0001
,
0100
0010
1000
0100
,
0010
0000
0000
0001
0000
0000
0100
0000
,
0010
0000
0000
1000
0000
0000
0000
0000
,
0100
0010
0100
1000
,
0002
0000
0003
0100
,
0020
0000
0000
1030
0000
0000
0100
0000
,
0020
0000
0000
0031
0000
0000
0000
0000
,
0100
0010
1000
0100
,
0001
0001
0001
0100
,
0110
0010
0001
1001
,
0000
0001
0100
0001
,
0000
0001
0100
1000
,
0100
0001
0100
0010
,
0000
0010
1000
1001
,
0000
1000
0100
0001
,
0000
0001
0100
0010
,
0001
0100
0010
0100
,
0001
0000
0000
1000
,
0100
0010
0100
1000
,
0001
0000
0000
0100
,
0100
0100
0100
0100
,
0100
0010
1000
0001
,
2001
0100
0001
3100
,
1002
0100
1000
0103
,
0001
0100
0010
1000
,
0001
0100
0010
1000
,
1000
0100
0010
0001
,
1001
1001
0000
0000
,
0000
0000
1000
0010
,
0100
0001
0000
0000
0000
0000
0000
0000
;

//---------------dance-single - ----------------
#NOTES:
     dance-single:
     :
     Beginner:
     2:
     0.144,0.174,0.033,0.000,0.000:
0000
0000
0000
0000
,
0000
0000
0000
1000
,
0000
0000
0000
0100
,
0000
0000
0000
0001
,
0000
0000
0000
0100
,
0000
0000
0000
1000
,
0000
0000
0000
0010
,
0000
0000
0000
0001
,
0000
0000
0000
0010
,
0000
0000
0000
1000
,
0000
0000
0000
0001
,
0000
0000
0000
1000
,
0000
1000
0000
1000
,
0000
0000
0000
0001
,
0000
0001
0000
0001
,
0000
0001
0000
0000
,
0000
0000
0100
0000
,
0100
0000
0100
0000
,
0010
0000
0000
0000
,
0000
1000
0000
1000
,
0000
0100
0000
0100
,
0000
0010
0000
0010
,
0000
0001
0000
0001
,
0000
0100
0000
0100
,
0000
0010
0000
0010
,
0000
1000
0000
0000
,
0000
0000
0000
0000
,
0000
1000
0000
0001
,
0000
1000
0000
0001
,
0000
0000
0000
0000
,
0100
0000
0010
0000
,
0100
0000
0010
0000
,
1000
0000
0100
0000
,
0001
0000
0100
0000
,
0010
0000
0000
0000
,
0000
0000
0000
0000
,
0001
0000
0100
0000
,
0100
0000
0010
0000
,
1000
1000
1000
0000
,
0001
0000
0000
0000
,
0010
0000
0100
0000
,
0100
0000
1000
0000
,
1000
0000
0000
0000
,
0001
0000
0000
0000
,
1001
0000
0000
0001
,
0000
0000
0000
0100
,
0000
0000
0000
1000
,
0000
0000
0000
0100
,
0000
0000
0000
0001
,
0000
0000
0000
0010
,
0000
0000
0000
1000
,
0000
0000
0000
0010
,
0000
0000
0000
0001
,
0000
0000
0000
1000
,
0000
0000
0000
0001
,
0000
0001
0000
0001
,
0000
0001
0000
0100
,
0000
0100
0000
1000
,
0000
1000
0000
0100
,
0000
0010
0000
0100
,
0000
0010
0000
1000
,
0000
0001
0000
1000
,
0000
1001
0000
0000
,
0000
0000
0001
0000
,
1001
0000
0000
0000
;
