#VERSION:0.83;
#TITLE:ナチュラルに恋して;
#SUBTITLE:;
#ARTIST:Perfume;
#TITLETRANSLIT:Natural ni Koishite;
#SUBTITLETRANSLIT:;
#ARTISTTRANSLIT:;
#GENRE:Electropop;
#ORIGIN:;
#CREDIT:vincentw (song), CuzcoBlocko (steps);
#BANNER:[Round D] - Natural ni Koishite.png;
#BACKGROUND:[Round D] - Natural ni Koishite-bg.png;
#PREVIEWVID:;
#JACKET:[Round D] - Natural ni Koishite-jacket.png;
#CDIMAGE:;
#DISCIMAGE:;
#LYRICSPATH:;
#CDTITLE:cdtitle.png;
#MUSIC:[Round D] - Natural ni Koishite.ogg;
#OFFSET:0.000000;
#SAMPLESTART:82.559296;
#SAMPLELENGTH:10.105263;
#SELECTABLE:YES;
#DISPLAYBPM:95.000000;
#BPMS:0.000=95.000,
27.000=142.500,
27.375=95.000,
27.750=63.333,
28.000=95.000,
33.875=142.500,
34.250=95.000,
34.375=142.500,
34.750=95.000,
49.875=142.500,
50.250=95.000,
50.375=142.500,
50.750=95.000,
51.000=142.500,
51.188=95.000,
51.375=63.333,
51.500=95.000,
65.875=142.500,
66.250=95.000,
66.375=142.500,
67.438=95.000,
67.625=63.333,
67.750=95.000,
75.000=142.500,
75.188=95.000,
75.375=63.333,
75.500=95.000,
81.875=142.500,
82.250=95.000,
82.375=142.500,
82.750=126.667,
83.250=190.000,
83.375=47.500,
83.583=95.000,
83.750=190.000,
83.875=285.000,
84.000=95.000,
91.750=142.500,
92.500=95.000,
99.750=142.500,
100.500=95.000,
107.750=71.250,
108.125=142.500,
109.500=95.000,
111.750=71.250,
112.125=142.500,
112.500=95.000,
129.875=142.500,
130.250=95.000,
130.375=142.500,
130.750=95.000,
145.875=142.500,
146.250=95.000,
146.375=142.500,
146.750=95.000,
147.000=142.500,
147.188=95.000,
147.375=63.333,
147.500=95.000,
161.875=142.500,
162.250=95.000,
162.375=142.500,
163.438=95.000,
163.625=63.333,
163.750=95.000,
171.000=142.500,
171.375=95.000,
171.750=63.333,
172.000=95.000,
177.875=142.500,
178.250=95.000,
178.375=142.500,
179.000=190.000,
179.167=47.500,
179.250=142.500,
180.000=95.000,
187.000=142.500,
187.375=95.000,
187.750=63.333,
188.000=95.000,
193.875=142.500,
194.250=95.000,
194.375=47.500;
#STOPS:33.875=0.079,
34.375=0.079,
49.875=0.079,
50.375=0.079,
65.875=0.079,
66.375=0.079,
66.750=0.026,
66.875=0.027,
67.000=0.052,
81.875=0.079,
82.375=0.079,
82.750=0.079,
91.750=0.157,
100.125=0.158,
108.500=0.105,
109.000=0.106,
129.875=0.079,
130.375=0.079,
145.875=0.079,
146.375=0.079,
161.875=0.079,
162.375=0.079,
162.750=0.026,
162.875=0.027,
163.000=0.052,
177.875=0.079,
178.375=0.079,
178.750=0.026,
178.875=0.027,
179.250=0.158,
193.875=0.079,
194.375=0.079;
#DELAYS:;
#WARPS:;
#TIMESIGNATURES:0.000=4=4;
#TICKCOUNTS:0.000=4;
#COMBOS:0.000=1;
#SPEEDS:0.000=1.000=0.000=0;
#SCROLLS:0.000=1.000;
#FAKES:;
#LABELS:0.000=Song Start;
#BGCHANGES:;
#KEYSOUNDS:;
#ATTACKS:
;

//---------------dance-single - Cool beats.----------------
#NOTEDATA:;
#CHARTNAME:ITG 08 X 13;
#STEPSTYPE:dance-single;
#DESCRIPTION:Cool beats.;
#CHARTSTYLE:Pad;
#DIFFICULTY:Hard;
#METER:8;
#RADARVALUES:0.484737,0.479556,0.494836,0.518399,0.718690,432.000000,369.000000,63.000000,66.000000,130.000000,0.000000,0.000000,0.000000,0.000000,0.484737,0.479556,0.494836,0.518399,0.718690,432.000000,369.000000,63.000000,66.000000,130.000000,0.000000,0.000000,0.000000,0.000000;
#CREDIT:CuzcoBlocko;
#DISPLAYBPM:95.000000;
#NOTES:
0000
0000
0000
0000
,
0000
0000
0000
0000
,
0000
0000
0000
0000
,
0000
0000
0000
0000
,
0000
0000
0000
0000
,
2001
0000
0010
0000
3001
0100
0000
1000
0000
1000
0100
0000
0110
0000
MMMM
0000
,
2000
0000
0000
0000
0100
0000
0000
0000
3001
0000
0000
0000
0001
0000
0010
0000
0000
0000
0010
0000
0000
0000
0100
0000
1000
0000
0000
0000
0000
MMMM
0000
0000
,
1002
0000
0010
0000
1003
0000
1000
0100
0000
0001
0100
0000
0110
0000
MMMM
0000
,
0002
0000
0100
0000
1003
0010
0000
0110
0000
0110
0000
000M
M000
0M00
00M0
0M00
,
1002
0000
0010
0000
1003
0010
0000
0001
0000
0010
1000
0000
0001
0000
1000
0000
,
0200
0000
0010
0000
1300
0000
0001
0010
0000
0010
0000
0100
1000
0000
MMMM
0000
,
2000
0000
0010
0000
3001
0010
0000
0100
0000
1000
0100
0000
0010
0000
0001
0000
,
0200
0000
0000
0000
0000
0000
0000
0000
0001
0000
0000
0000
0000
0000
0000
0000
0310
0000
0000
0000
0000
0000
0000
0000
1000
0000
0000
0000
0100
0000
0000
0000
0000
0000
0000
0000
0110
0000
0000
0000
0000
0000
0000
0000
000M
0000
0000
0000
MMM0
0000
0000
0000
0000
0M00
0000
0000
00M0
0000
0000
0000
M0M0
0000
0000
0000
,
0102
0000
1000
0000
0103
0010
0000
1000
0000
1000
0100
0000
0001
0000
0100
0000
,
0020
0000
0001
0000
0130
0000
1000
0001
0000
0001
0000
1000
0010
0000
MMMM
0000
,
2100
0000
0001
0000
3100
0010
0000
0001
0000
0001
0100
0000
1000
0000
0100
0000
,
0002
0000
0010
0000
2003
0000
3010
0100
0000
0110
0000
0010
1000
0001
0000
2002
,
0000
0000
3003
0000
1000
0100
0000
0010
0000
0100
1000
0000
1002
0000
0000
0013
,
0200
0000
1000
0000
2300
0000
3001
1000
0000
0010
0100
0000
MMMM
0000
0001
1000
,
0100
0000
0010
0000
0001
0100
0000
0010
0000
0100
0001
0000
1000
0010
0000
0110
,
000M
0000
0000
0000
0000
0M00
0000
0000
200M
0000
0000
0000
0000
0000
0000
0000
3001
0000
0000
0000
0010
0000
0000
0000
0000
0000
0000
0000
0110
0000
0000
0000
0000
0000
0000
0000
0110
0000
0000
0000
0000
0000
0000
0000
MMMM
0000
0000
0000
0000
0000
0000
0000
2002
0000
0000
0000
0000
0000
0000
0000
3003
0000
0000
0000
,
MMMM
0000
0001
0000
0001
0000
0100
0000
0110
0000
0010
1000
0000
1001
0000
2000
,
0100
0000
3001
0000
0001
0000
0100
0010
1000
0000
1000
0001
0000
0101
0000
1100
,
0000
0000
1002
0000
1000
0000
0013
0100
0000
1000
0000
0021
0000
0M0M
0000
0000
,
0130
0000
1000
0001
1000
0000
0001
1000
0020
0100
0000
0100
0000
1030
0000
MMMM
,
0000
0000
0001
1000
0002
0003
1000
0100
0020
0100
0000
0031
0000
0011
0000
1020
,
0000
0000
1030
0000
1000
0000
0001
0100
0010
0000
0010
1000
0000
2002
3003
2100
,
0000
0000
3001
0000
0001
0000
0001
0010
0100
1000
0000
0020
0000
MM00
0030
0210
,
0000
0000
0000
0300
0000
0000
1001
0000
0000
0000
0000
0000
1001
0000
0000
0000
0000
0000
0001
0000
1000
0000
0001
0000
1000
0000
0000
0100
0000
0000
0000
0000
0000
0110
0000
0000
0000
0000
0000
0010
0000
0000
0001
0000
0000
0000
0000
0000
,
MMMM
0000
0001
1000
0001
1000
0100
0020
0000
0031
1000
0002
2000
0000
0000
3003
,
MMMM
0000
0001
1000
0100
0020
0031
0020
0000
1030
0010
0100
1000
0000
1001
0000
,
0101
0000
MMMM
0000
1000
0001
1000
0100
0000
0001
0100
0000
1000
0001
0100
0010
,
0100
0000
0000
0000
MMMM
0000
0000
0000
1001
0000
0000
MMMM
0000
0000
0210
0000
0000
0000
0310
0000
0000
0000
000M
0000
M000
0000
0M00
0000
00M0
0000
0M00
0000
,
1002
0000
0010
0000
2003
0010
0000
3001
0000
0001
0010
0000
0120
0000
0001
0000
,
0230
0000
0001
0000
0310
0000
0001
1000
0000
1001
0000
0001
0100
0000
MMMM
0000
,
2000
0000
0010
0000
3002
0010
0000
1003
0000
1000
0010
0000
0120
0000
1000
0000
,
0230
0000
0000
0000
0000
0000
0000
0000
1000
0000
0000
0000
0000
0000
0000
0000
0310
0000
0000
0000
0000
0000
0000
0000
1000
0000
0000
0000
0001
0000
0000
0000
0000
0000
0000
0000
0011
0000
0000
0000
0000
0000
0000
0000
M000
0000
0000
0000
0MMM
0000
0000
0000
0000
0M00
0000
0000
00M0
0000
0000
0000
M0M0
0000
0000
0000
,
0102
0000
1000
0000
0103
0010
0000
1010
0000
1000
0001
0000
2001
0000
0100
0000
,
3002
0000
0010
0000
1003
0000
0100
0001
0000
0001
0000
0100
1000
0000
MMMM
0000
,
2100
0000
0001
0000
3100
0010
0000
0011
0000
0001
0100
0000
1002
0000
0100
0000
,
2003
0000
0010
0000
3001
0000
0100
1000
0000
1100
0000
0100
0001
1000
0000
1002
,
0000
0000
0010
0000
1003
0100
0000
0001
0000
0100
0010
0000
0011
0000
MMMM
0000
,
2000
0000
0000
0000
0010
0000
0000
0000
3001
0000
0000
0000
0100
0000
0010
0000
0000
0000
0110
0000
0000
0000
0001
0000
1MM0
0000
0000
000M
0000
M000
0000
0000
,
0201
0000
0010
0000
0301
0000
0001
1000
0000
0100
1000
0000
1001
0000
0001
1000
,
0200
0010
0000
0000
1300
0001
0010
0100
0000
0110
0000
1001
0MM0
M00M
0000
0000
,
1002
0000
0010
0000
1003
0100
0000
0001
0000
0100
0010
0000
1001
0000
MMMM
0000
,
1200
0000
0000
0000
0310
0000
0000
0000
0002
0000
0000
0000
0103
0000
0010
0000
0000
0000
0110
0000
0000
0000
0100
0000
M0M1
0000
0000
0000
0000
0M0M
0000
0000
,
2001
0000
0010
0000
3001
1000
0010
0100
0000
0100
0001
0000
1001
0000
MMMM
0000
,
0012
0000
0000
0000
0000
0000
0000
0000
0000
0000
0000
0000
0000
0000
0000
0000
0000
0000
0000
0000
0000
0000
0000
0000
1003
0000
0000
0000
0000
0000
0000
0000
0000
0000
0000
0000
0000
0000
0000
0000
0000
0000
0000
0000
0000
0000
0000
0000
0100
0000
0000
0000
0000
0000
0000
0000
0000
0000
0000
0000
0010
0000
0000
0000
0000
0000
0000
0000
0000
0000
0000
0000
0000
0000
0000
0000
0000
0000
0000
0000
0000
0000
0000
0000
0220
0000
0000
0000
0000
0000
0000
0000
0000
0000
0000
0000
0330
0000
0000
0000
0000
0000
0000
0000
0000
0000
0000
0000
0220
0000
0000
0000
0000
0000
0330
000M
0000
0000
0000
0000
M000
0000
0000
0000
0000
0000
0M00
0000
0000
0000
0000
0000
00M0
0000
0000
0000
0000
0000
0M00
0000
0000
0000
0000
0000
M000
0000
0000
0000
0000
0000
0000
0000
0000
0000
0000
0000
000M
0000
0000
0000
0000
0000
0MM0
0000
0000
0000
0000
0000
0000
0000
0000
0000
0000
0000
0000
0000
0000
0000
0000
0000
0000
0000
0000
0000
0000
0000
0000
0000
0000
0000
0000
0000
;

//---------------dance-single - And you'd think stepping easy charts for this would be easy...----------------
#NOTEDATA:;
#CHARTNAME:ITG 05 X 08;
#STEPSTYPE:dance-single;
#DESCRIPTION:And you'd think stepping easy charts for this would be easy...;
#CHARTSTYLE:Pad;
#DIFFICULTY:Easy;
#METER:5;
#RADARVALUES:0.348966,0.400508,0.479127,0.274909,0.310254,311.000000,250.000000,61.000000,35.000000,0.000000,0.000000,0.000000,0.000000,0.000000,0.348966,0.400508,0.479127,0.274909,0.310254,311.000000,250.000000,61.000000,35.000000,0.000000,0.000000,0.000000,0.000000,0.000000;
#CREDIT:CuzcoBlocko;
#DISPLAYBPM:95.000000;
#NOTES:
// measure 0
0000
0000
0000
0000
,  // measure 1
0000
0000
0000
0000
,  // measure 2
0000
0000
0000
0000
,  // measure 3
0000
0000
0000
0000
,  // measure 4
0000
0000
0000
0000
,  // measure 5
0101
0000
0000
0000
0100
0000
0000
0010
0000
0000
1000
0000
0001
0000
0000
0000
,  // measure 6
1100
0000
0000
0000
0001
0000
0000
0010
0000
0010
0000
0000
0110
0000
0000
0000
,  // measure 7
1100
0000
0000
0000
0100
0000
0000
0010
0000
0000
0001
0000
1000
0000
0000
0000
,  // measure 8
0101
0000
0000
0000
0001
0000
0000
1001
0000
1001
0000
0000
0000
0000
0000
0000
,  // measure 9
0001
0000
0000
0000
0100
0000
0000
0120
0000
0000
0000
0000
1030
0000
0000
0000
,  // measure 10
0001
0000
0000
0000
0010
0000
0000
0210
0000
0010
0000
0000
1300
0000
0001
0000
,  // measure 11
1000
0000
0000
0000
0010
0000
0000
0210
0000
0000
0000
0000
0301
0000
1000
0000
,  // measure 12
0001
0000
0000
0100
0000
0000
0000
0110
0000
0110
0000
0000
0000
0000
0000
0000
,  // measure 13
1000
0000
0000
0000
0100
0000
0000
0120
0000
0000
0000
0000
0031
0000
0000
0000
,  // measure 14
1000
0000
0000
0000
0010
0000
0000
0210
0000
0010
0000
0000
0301
0000
1000
0000
,  // measure 15
0001
0000
0000
0000
0010
0000
0000
0210
0000
0000
0000
0000
1300
0000
0001
0000
,  // measure 16
1000
0000
0010
0000
0100
0000
0000
0101
0000
1001
0000
0000
1100
0000
0000
0022
,  // measure 17
0000
0000
0033
0000
0001
0000
0000
1001
0000
0000
0000
0000
0201
0000
0000
0000
,  // measure 18
1000
0000
0000
0000
0001
0000
0000
0310
0000
0000
0000
0000
1020
0000
0000
0000
,  // measure 19
1030
0000
0000
0000
1000
0000
0000
1001
0000
0000
0000
0000
1000
0000
0200
0000
,  // measure 20
0001
0000
0000
0000
1300
0000
0000
1001
0000
1001
0000
0000
0000
0000
0000
0000
,  // measure 21
1002
0000
0000
0000
0103
0000
0000
0000
0120
0000
0000
1030
0000
0001
0000
0002
,  // measure 22
1000
0000
0000
0000
0013
0000
0000
0000
0100
0000
0000
0020
0000
0031
0000
1001
,  // measure 23
0000
0000
0001
0000
0002
0000
0000
0103
0000
0200
0000
0020
0000
0000
0330
0000
,  // measure 24
1001
0000
0000
0000
0001
0000
0000
0000
0201
0000
0000
0310
0000
1000
0000
1001
,  // measure 25
0000
0000
0000
0000
0011
0000
0000
0000
1200
0000
0000
1300
0000
0001
0000
0102
,  // measure 26
0000
0000
0103
0000
0001
0000
0000
0000
1000
0000
0000
0001
0000
0010
0000
0210
,  // measure 27
0000
0000
0310
0000
1001
0000
0000
0000
0001
0000
0100
0000
0100
0010
0000
2002
,  // measure 28
0000
3003
0100
0000
1001
0000
0000
1000
0100
1000
0000
0012
0000
2000
3003
0000
,  // measure 29
0001
0000
1000
0000
0001
0000
0001
0010
0000
0000
0100
0000
1000
0000
0000
0000
,  // measure 30
1000
0000
0001
0000
1000
0000
1000
0010
0000
0000
0100
0000
0001
0000
0000
0000
,  // measure 31
0011
0000
0001
0010
0100
1100
0000
2000
,  // measure 32
0001
0000
0000
0000
3001
0000
0000
1001
0000
1000
0000
0000
0000
0000
0000
0000
,  // measure 33
1001
0000
0001
0000
0010
0000
0000
0210
0000
0000
1000
0000
1300
0000
0100
0000
,  // measure 34
0001
0000
0100
0000
1000
0000
0000
2001
0000
0001
0000
0000
3100
0000
0010
0000
,  // measure 35
0001
0000
1000
0000
0010
0000
0000
0210
0000
0000
0001
0000
0301
0000
1000
0000
,  // measure 36
0100
0000
0010
0000
0001
0000
0001
1000
0000
1001
0000
0000
0000
0000
0000
0000
,  // measure 37
0001
0000
0100
0000
0010
0000
0000
2010
0000
0000
3100
0000
1000
0000
0100
0000
,  // measure 38
0001
0000
0100
0000
1000
0000
0000
1020
0000
1000
0000
0000
0130
0000
0001
0000
,  // measure 39
1000
0000
0100
0000
0010
0000
0000
0012
0000
0000
0103
0000
0001
0000
0100
0000
,  // measure 40
1000
0000
0100
0000
0010
0000
0010
0100
0000
0110
0000
0000
1001
0000
0000
1100
,  // measure 41
0000
0000
1000
0000
0100
0000
0000
0001
0000
0000
0010
0000
1000
0000
0000
0000
,  // measure 42
0001
0000
0100
0000
1000
0000
0000
0010
0000
0001
0000
0000
1001
0000
0000
0000
,  // measure 43
1000
0000
0001
0000
0010
0000
0000
1000
0000
0000
0100
0000
0001
0000
0000
0000
,  // measure 44
1000
0000
0010
0000
0001
0000
0000
0100
0000
1000
0000
0000
1001
0000
0000
0000
,  // measure 45
0101
0000
0000
0000
0001
1000
0000
1000
0000
0000
0100
0000
0010
0000
0000
0000
,  // measure 46
1100
0000
2000
0000
0001
0000
0000
3010
0000
0010
0000
0000
1001
0000
0000
0000
,  // measure 47
0011
0000
0000
0000
0010
0000
0010
0100
0000
0000
1000
0000
0001
0000
0000
0000
,  // measure 48
1010
0000
2000
0000
0001
0000
0000
3010
0000
0110
0000
0000
0000
0000
0000
0000
;

//---------------dance-single - Expect some weirdness.----------------
#NOTEDATA:;
#CHARTNAME:ITG 07 X 11;
#STEPSTYPE:dance-single;
#DESCRIPTION:Expect some weirdness.;
#CHARTSTYLE:Pad;
#DIFFICULTY:Medium;
#METER:7;
#RADARVALUES:0.434244,0.438651,0.353454,0.377018,0.447708,387.000000,342.000000,45.000000,48.000000,0.000000,0.000000,0.000000,0.000000,0.000000,0.434244,0.438651,0.353454,0.377018,0.447708,387.000000,342.000000,45.000000,48.000000,0.000000,0.000000,0.000000,0.000000,0.000000;
#CREDIT:CuzcoBlocko;
#DISPLAYBPM:95.000000;
#NOTES:
0000
0000
0000
0000
,
0000
0000
0000
0000
,
0000
0000
0000
0000
,
0000
0000
0000
0000
,
0000
0000
0000
0000
,
0001
0000
0010
0000
0100
0010
0000
0002
0000
0000
1000
0000
1003
0000
0000
0000
,
1000
0000
0100
0000
0001
0000
0100
0010
0000
0010
0000
0000
2001
0000
0000
0000
,
3001
0000
0100
0000
1000
0000
0100
0020
0000
0000
0100
0000
1030
0000
0000
0000
,
1000
0000
0010
0000
0100
0010
0000
1001
0000
1001
0000
0000
0000
0000
0000
0000
,
1000
0000
0100
0000
0010
0001
0000
2000
0000
0000
0001
0000
3001
0000
0100
0000
,
1000
0000
0010
0000
0001
0000
0200
0010
0000
0001
0000
0000
0301
0000
1000
0000
,
0001
0000
0010
0000
0100
1000
0000
0002
0000
0000
1000
0000
1003
0000
0001
0000
,
0100
0000
1000
0000
0010
0000
0001
1000
0000
1001
0000
0000
0020
0000
0030
0000
,
1001
0000
1000
0000
0010
1000
0000
0002
0000
0000
1000
0000
1003
0000
0100
0000
,
0001
0000
0010
0000
1000
0000
0200
0010
0000
1000
0000
0000
1300
0000
0001
0000
,
1000
0000
0010
0000
0100
0001
0000
2000
0000
0000
0001
0000
3001
0000
1000
0000
,
0100
0000
0001
0000
0010
0000
1000
0001
0000
0101
0000
1001
0000
1100
0000
0220
,
0000
0000
0330
0000
0100
1000
0000
1001
0000
0000
0001
0000
0200
0000
0000
0310
,
1000
0000
0001
0000
0010
0000
0001
1000
0000
1001
0000
0000
0020
0000
0030
0000
,
1001
0000
0001
0000
0100
0001
0000
1001
0000
0000
1000
0000
0100
0010
0000
0010
,
0002
0000
1000
0000
1003
0010
0000
1001
0000
1001
0000
0010
0000
0200
0000
0300
,
1001
0000
1000
0000
1000
0000
1000
0000
0100
0000
0100
0010
0000
0001
0000
2001
,
0000
0000
0000
0000
0000
0000
0000
0000
3001
0000
0000
0000
0000
0000
0000
0000
0001
0000
0000
0000
0000
0000
0000
0000
0001
0000
0000
0000
0000
0000
0000
0000
0100
0000
0000
0000
0000
0000
0000
0000
0100
0000
0000
0000
0010
0000
0000
0000
0000
0000
0000
0000
1000
0000
0000
0000
0000
0000
0000
0000
2001
3000
0000
0000
,
0000
0000
0010
0000
0010
0000
1000
0001
0000
0100
0000
0220
0000
0000
0330
0000
,
1002
0003
0000
0000
0000
0000
0000
0000
0010
0000
0000
0000
0000
0000
0000
0000
0010
0000
0000
0000
0000
0000
0000
0000
0100
0000
0000
0000
0000
0000
0000
0000
1000
0000
0000
0000
0000
0000
0000
0000
1000
0000
0000
0000
0010
0000
0000
0000
0000
0000
0000
0000
0100
0000
0000
0000
0000
0000
0000
0000
1001
0000
0000
0000
,
0000
0000
2000
0000
0010
0000
3002
0000
0100
0000
1003
0010
0000
0100
0000
0110
,
0000
0000
0000
0000
0000
0000
0000
0000
0002
0000
0000
0000
0000
0000
0000
0000
0010
0000
0000
0000
0000
0000
0000
0000
2003
0000
0000
0000
0000
0000
0000
0000
0100
0000
0000
0000
0000
0000
0000
0000
3001
0000
0000
0000
0010
0000
0000
0000
0000
0000
0000
0000
0100
0000
0000
0000
0000
0000
0000
0000
2001
3000
0000
0000
,
0000
0000
0010
0000
0010
0000
0100
0000
0101
0000
0002
1000
0000
1003
0000
1100
,
0000
0000
0110
0000
1001
0000
0001
0000
0200
0010
0000
0310
0000
1000
0001
0000
,
1001
0000
1000
0000
0100
0000
0010
0001
0000
0001
1000
0000
0020
0000
0000
0000
,
0130
0000
0001
0000
1000
0000
0100
0010
0000
0010
0001
0000
1000
0000
0010
0000
,
0200
0000
0000
0000
0301
0000
0010
0001
0000
0010
0100
0000
1000
0000
0001
0000
,
0101
0000
0100
0000
0010
0000
0200
0001
0000
0301
0000
0000
0000
0000
0000
0000
,
0101
0000
0100
0000
0010
1000
0000
0002
0000
0000
0013
0000
1000
0000
0100
0000
,
0001
0000
0010
0000
0100
0000
1000
0010
0000
0110
0000
0000
1001
0000
0001
0000
,
1000
0000
0010
0000
0100
0001
0000
2000
0000
0000
3100
0000
0001
0000
0010
0000
,
1000
0000
0100
0000
0010
0000
0001
1000
0000
1001
0000
0000
0020
0000
0130
0000
,
1001
0000
0001
0000
0010
0100
0000
2000
0000
0000
3010
0000
0001
0000
0100
0000
,
1000
0000
0010
0000
0100
0000
0001
0010
0000
0110
0000
0000
1001
0000
1000
0000
,
0001
0000
0010
0000
0100
1000
0000
0002
0000
0000
0103
0000
1000
0000
0010
0000
,
0001
0000
0100
0000
1000
0000
0100
0010
0000
1001
0000
0001
1000
0001
0000
2001
,
0000
0000
3010
0000
0100
0010
0000
2000
0000
0000
3100
0000
0110
0000
0000
0000
,
0001
0000
0100
0000
1000
0000
0200
0010
0000
0310
0000
0000
1001
0000
0000
0000
,
1000
0000
0010
0000
0001
0000
0010
0200
0000
0001
0000
0000
1000
0000
0010
0000
,
0302
0023
0000
0000
0130
0020
0000
0130
0000
1001
0000
0100
0020
0130
0000
0000
,
1001
0000
0001
0000
0100
0001
0000
0020
0000
0000
0130
0000
1001
0000
0001
0000
,
1000
0000
0100
0000
0001
0000
0200
0010
0000
0010
0000
1300
0002
0000
0003
0000
,
0001
0000
0010
0000
1000
0000
0010
0200
0000
1000
0000
0000
0001
0000
0310
0000
,
0001
0000
0100
0000
0010
1000
0000
1001
0000
1001
0000
0000
0000
0000
0000
0000
;

//---------------dance-single - Uhhh...----------------
#NOTEDATA:;
#CHARTNAME:ITG 02 X 04;
#STEPSTYPE:dance-single;
#DESCRIPTION:Uhhh...;
#CHARTSTYLE:Pad;
#DIFFICULTY:Beginner;
#METER:2;
#RADARVALUES:0.169434,0.190227,0.361309,0.000000,0.164945,151.000000,105.000000,46.000000,0.000000,0.000000,0.000000,0.000000,0.000000,0.000000,0.169434,0.190227,0.361309,0.000000,0.164945,151.000000,105.000000,46.000000,0.000000,0.000000,0.000000,0.000000,0.000000,0.000000;
#CREDIT:CuzcoBlocko;
#DISPLAYBPM:95.000000;
#NOTES:
0000
0000
0000
0000
,
0000
0000
0000
0000
,
0000
0000
0000
0000
,
0000
0000
0000
0000
,
0000
0000
0000
0000
,
0100
0000
0000
0000
0000
0000
0000
1001
0000
0000
0000
0000
0000
0000
0000
0000
,
0010
0000
0000
0000
0000
0000
0000
1001
0000
0000
0000
0000
0000
0000
0000
0000
,
0010
0000
0000
0000
0000
0000
0000
1001
0000
0000
0000
0000
0000
0000
0000
0000
,
0100
0000
0000
0000
0000
0000
0000
1001
0000
0000
0000
0000
0000
0000
0000
0000
,
0010
0000
0000
0000
0000
0000
0000
1001
0000
0000
0000
0000
0000
0000
0000
0000
,
0010
0000
0000
0000
0000
0000
0000
1001
0000
0000
0000
0000
0000
0000
0000
0000
,
0100
0000
0000
0000
0000
0000
0000
1001
0000
0000
0000
0000
0000
0000
0000
0000
,
0100
0000
0000
0000
0000
0000
0000
1001
0000
0000
0000
0000
0000
0000
0000
0000
,
0010
0000
0000
0000
0000
0000
0000
1001
0000
0000
0000
0000
0000
0000
0000
0000
,
0100
0000
0000
0000
0000
0000
0000
1001
0000
0000
0000
0000
0000
0000
0000
0000
,
0100
0000
0000
0000
0000
0000
0000
1001
0000
0000
0000
0000
0000
0000
0000
0000
,
0010
0000
0000
0000
0000
0000
0000
1001
0000
0000
0000
0000
0000
0000
0000
1001
,
0000
0000
0000
0000
0000
0000
0000
0110
0000
0000
0000
0000
0000
0000
0000
0000
,
1000
1000
1000
0000
,
1001
0000
0000
0000
0000
0000
0000
0110
0000
0000
0000
0000
0000
0000
0000
0000
,
0001
0000
0000
0000
0000
0000
0000
1001
0000
0000
0000
0000
0000
0000
0000
0000
,
1001
0000
0000
0000
0000
0000
0000
0000
0001
0000
0000
0000
0000
0000
0000
0001
,
0000
0000
0000
0000
0000
0000
0000
0000
1000
0000
0000
0000
0000
0000
0000
1001
,
0000
0000
0000
0000
0010
0000
0000
0000
0000
0000
0000
0110
0000
0000
0000
0000
,
0000
0000
0000
0000
0010
0000
0000
0000
0010
0000
0000
0000
0000
0000
0000
1001
,
0000
0000
0000
0000
1000
0000
0000
0000
1000
0000
0000
0000
0000
0000
0000
1000
,
0000
0000
0000
0000
0001
0000
0000
0000
0001
0000
0000
0000
0000
0000
0000
1001
,
0000
0000
0000
0000
0010
0000
0000
0000
0010
0000
0000
0000
0000
0000
0000
1001
,
0000
0100
0100
0000
,
1001
0001
0001
0000
,
1000
1000
1000
0000
,
1001
0000
0010
0000
,
0100
0000
0000
0000
0000
0000
0000
0110
0000
0000
0000
0000
0000
0000
0000
0000
,
1001
0000
0000
0000
0001
0000
0000
0001
0000
0000
0000
0000
0000
0000
0000
0000
,
0110
0000
0000
0000
0010
0000
0000
0010
0000
0000
0000
0000
0000
0000
0000
0000
,
1001
0000
0000
0000
1000
0000
0000
1000
0000
0000
0000
0000
0000
0000
0000
0000
,
0110
0000
0000
0000
0000
0000
0000
1001
0000
0000
0000
0000
0000
0000
0000
0000
,
1001
0000
0000
0000
1000
0000
0000
1000
0000
0000
0000
0000
0000
0000
0000
0000
,
0110
0000
0000
0000
0010
0000
0000
0010
0000
0000
0000
0000
0000
0000
0000
0000
,
1001
0000
0000
0000
0001
0000
0000
0001
0000
0000
0000
0000
0000
0000
0000
0000
,
0110
0000
0000
0000
0000
0000
0000
1001
0000
0000
0000
0000
0000
0000
0000
0110
,
0000
0000
0000
0000
0000
0000
0000
1001
0000
0000
0000
0000
0000
0000
0000
0000
,
0100
0000
0000
0000
0000
0000
0000
1001
0000
0000
0000
0000
0010
0000
0000
0000
,
0010
0000
0000
0000
0000
0000
0000
1001
0000
0000
0000
0000
0000
0000
0000
0000
,
0010
0000
0000
0000
0000
0000
0000
1001
0000
0000
0000
1001
0000
0000
0000
0000
,
0100
0000
0000
0000
0000
0000
0000
1001
0000
0000
0000
0000
0000
0000
0000
0000
,
0010
0000
0000
0000
0000
0000
0000
1001
0000
0000
0000
0000
0010
0000
0000
0000
,
0010
0000
0000
0000
0000
0000
0000
1001
0000
0000
0000
0000
0000
0000
0000
0000
,
0100
0000
0000
0000
0000
0000
0000
1001
0000
0000
0000
0000
0000
0000
0000
0000
;
