#TITLE:Last Rebirth;
#ARTIST:SHK;
#MUSIC:Last Rebirth.ogg;
#OFFSET:-0.57;
#SAMPLESTART:66.07;
#SAMPLELENGTH:15;
#BPMS:0=120;
#STOPS:196=3;

//---------------dance-single - ----------------
#NOTES:
     dance-single:
     :
     Easy:
     4:
     :
0000
0000
0000
0000
,
0000
0000
0000
0000
,
0000
0000
0000
0000
,
0000
0000
0000
0000
,
0002
0000
0000
0003
,
0020
0000
0000
0030
,
0200
0000
0000
0000
,
2300
0000
0000
0000
,
3020
0000
0000
0130
,
0001
0100
0010
1000
,
0100
1000
0001
0000
,
0001
0100
0001
1000
,
0001
0010
0100
0000
,
1000
0010
1000
0100
,
0010
0001
1000
0001
,
0100
0100
0010
0010
,
1000
0001
2000
3000
,
0001
0010
0010
0001
,
0100
0010
1000
0001
,
0000
1000
1000
0001
,
1000
0100
0010
0010
,
0001
0001
1000
0000
,
0010
0010
0100
0100
,
0001
1000
0001
0010
,
0200
0000
0000
0300
,
2000
0010
0000
3010
,
0200
0001
0000
0301
,
0002
0010
0000
0013
,
0200
1000
0000
1300
,
0002
0100
0100
0103
,
0010
1000
0001
0000
,
2000
0100
0100
3100
,
0010
0001
1000
0010
,
1000
0010
0100
0001
,
0010
0001
1000
0100
,
1000
0010
1000
0001
,
1000
0100
0010
0000
,
0001
0100
0001
0010
,
0100
1000
0001
1000
,
0010
0010
0100
0100
,
0001
1000
0002
0003
,
1000
1000
0010
0010
,
2000
3020
0230
0300
,
0002
0023
0230
2300
,
3020
0230
0002
0303
,
2000
3020
0130
0001
,
2000
3200
0320
0030
,
0002
0203
0320
2030
,
3200
0320
0032
1003
,
0002
0003
0000
0000
2000
0000
0000
0000
,
0000
0000
0000
0000
,
0000
0000
3000
0000
;

//---------------dance-single - ----------------
#NOTES:
     dance-single:
     :
     Medium:
     6:
     :
0000
0000
0000
0000
,
0000
0000
0000
0000
,
0000
0000
0000
0000
,
0000
0000
0000
0000
,
2000
0100
3001
0000
,
0002
0100
1003
0000
,
0020
0000
0000
0000
0000
0130
0000
0100
,
0200
0000
0000
0000
0000
0000
0000
0310
0000
0000
0000
0000
0000
0000
0000
0000
,
2002
0000
0000
3003
,
1000
0000
0000
0000
0001
0000
0000
0100
0000
0000
0001
0000
0100
0000
0001
0000
,
1000
0000
0000
0000
1000
0000
0000
0100
0000
0000
1000
0000
0100
0000
1000
0000
,
0001
0000
0000
0000
0010
0000
0000
0001
0000
0000
0010
0000
0001
0000
0010
0000
,
0100
1000
0100
0010
0001
1000
0001
0000
,
1000
0000
0000
0000
0001
0000
0000
1000
0000
0000
0001
0000
1000
0000
0001
0000
,
0010
0000
0000
0000
0100
0000
0000
0010
0000
0000
0100
0000
0010
0000
0100
0000
,
1000
0000
0001
0000
1000
0000
0000
0001
0000
0000
0100
0000
0001
0000
0100
0000
,
0010
0000
1000
0000
0001
0000
0000
1000
0000
0000
0010
0000
0100
0000
0001
0000
,
1000
0000
0001
0100
0000
0100
0001
0000
,
1000
0000
0001
0010
0001
0000
0010
0000
,
0100
0000
1000
0100
0000
0100
1000
0000
,
0010
1000
0100
0010
0001
0100
0010
0000
,
0100
0000
0001
1000
0000
1000
0100
0000
,
1000
0100
1000
0000
0100
0010
0100
0000
,
0010
0001
0010
0000
0001
0100
0001
0000
,
0100
0010
1000
0100
0010
0000
0001
0000
,
2000
0010
0100
0100
,
3002
0010
1000
1000
,
0203
0010
0001
0001
,
0302
1000
0010
0010
,
2003
0000
3010
1000
0100
0010
0001
0100
,
0010
0000
0000
0100
0000
0000
0001
0000
0000
1000
0000
0001
0000
0000
1000
0000
,
0020
0000
0130
0001
0010
0100
1000
0010
,
0100
0000
0001
0000
0000
0001
0000
0000
0001
0000
0000
0000
0001
0000
1000
0000
,
0001
0000
0000
0000
1000
0000
0000
0010
0000
0000
1000
0000
0010
0000
1000
0000
,
0001
0000
0000
0000
0001
0000
0000
0010
0000
0000
0001
0000
0010
0000
0001
0000
,
1000
0000
0000
0000
0100
0000
0000
1000
0000
0000
0100
0000
1000
0000
0100
0000
,
0010
0001
0010
0100
1000
0001
1000
0000
,
0001
0000
0000
0000
1000
0000
0000
0001
0000
0000
1000
0000
0001
0000
1000
0000
,
0100
0000
0000
0000
0010
0000
0000
0100
0000
0000
0010
0000
0100
0000
0010
0000
,
0001
0000
1000
0000
0001
0000
0000
1000
0000
0000
0010
0000
1000
0000
0010
0000
,
0100
0000
0001
0000
1000
0000
0000
0001
0000
0000
1000
0000
0100
0000
0000
0000
,
0010
0000
0001
0000
0100
0001
1000
0000
,
0001
0010
0100
1000
0001
0010
0100
0000
,
2000
0000
3020
0000
0130
0001
2000
0000
,
3001
0010
0100
1000
0010
0100
0010
0000
,
1000
0010
0100
0010
0100
0000
0001
0000
,
1000
0100
0010
0001
1000
0100
0010
0000
,
0002
0203
0320
2030
,
3001
0010
0100
1000
0010
0100
0001
0000
,
2002
3003
0000
0000
0000
0000
0000
0000
0000
0000
0000
0000
0000
0000
0000
0000
0000
0000
0000
0000
0000
0000
0000
0000
0000
0000
0000
0000
0000
0000
0000
0000
0000
0000
0000
0000
0000
0000
0000
0000
0000
0000
0000
0000
0000
0000
0000
0000
0000
0000
0000
0000
0000
0000
0000
0000
0000
0000
0000
0000
0000
0000
0000
0000
0000
0000
0000
0000
0000
0000
0000
0000
0000
0000
0000
0000
0000
0000
0000
0000
0000
0000
0000
0000
0000
0000
0000
0000
0000
0000
0000
0000
0000
0000
0000
0000
0220
0000
0000
0000
0000
0000
0000
0000
0000
0000
0000
0000
0000
0000
0000
0000
0000
0000
0000
0000
0000
0000
0000
0000
0000
0000
0000
0000
0000
0000
0000
0000
0000
0000
0000
0000
0000
0000
0000
0000
0000
0000
0000
0000
0000
0000
0000
0000
0000
0000
0000
0000
0000
0000
0000
0000
0000
0000
0000
0000
0000
0000
0000
0000
0000
0000
0000
0000
0000
0000
0000
0000
0000
0000
0000
0000
0000
0000
0000
0000
0000
0000
0000
0000
0000
0000
0000
0000
0000
0000
0000
0000
0000
0000
0000
0000
,
0000
0000
0000
0000
,
0000
0000
0330
0000
;

//---------------dance-single - ----------------
#NOTES:
     dance-single:
     :
     Hard:
     8:
     :
0000
0000
0000
0000
,
0000
0000
0000
0000
,
0000
0000
0000
0000
,
0000
0000
0000
0000
,
2000
0000
0000
0000
0000
0000
0000
0001
0000
0000
0000
0000
0000
0000
0000
0000
,
3002
0000
0000
0000
0000
0000
0000
0010
0000
0000
0020
0000
0003
0000
0000
0000
,
0230
0000
0000
0000
0000
1300
0000
0001
,
0020
0000
0000
0000
0000
0000
0000
0200
0000
0000
0000
0000
0330
0000
0000
0000
,
2000
0000
0000
0000
0000
0000
0000
0000
0000
0000
0000
0000
3001
0100
0000
0100
,
0001
0000
1000
0000
0001
0000
0010
0001
0000
0000
0010
0000
0100
0000
1000
0000
,
0001
0000
1000
0000
0010
0000
1000
0100
0000
0000
1000
0000
0001
0000
0010
0000
,
0100
0000
0010
0000
0001
0000
0010
0100
0000
0000
0100
0000
0010
0000
0001
0000
,
0100
0000
0010
0000
1000
0000
0001
0100
0000
0000
0010
0000
0100
0000
0001
0000
,
1000
0000
0000
0000
0100
0000
0010
0100
0000
0000
0100
0000
0010
0000
0001
0000
,
0001
0000
1000
0000
0001
0000
0010
0100
0000
0000
0010
0000
0100
0000
1000
0000
,
0001
0000
0100
0000
0010
0000
0100
1000
0000
0000
0100
0000
0010
0000
0100
0000
,
0001
0000
0010
0000
0100
0000
1000
0001
0000
0000
0010
0000
0100
0000
0010
0000
,
0001
0000
0000
0000
0010
0000
0000
0001
0000
0000
0001
0000
1000
0000
0001
0000
,
0100
0000
0010
0000
0010
0000
0000
1000
0000
0000
1000
0000
0100
0000
0010
0000
,
0001
0000
0000
0000
1000
0000
0000
0010
0000
0000
0010
0000
0100
0000
0001
0000
,
1000
0000
0001
0000
0001
0000
0000
0010
0000
0000
0010
0000
0100
0000
1000
0000
,
0001
0000
0000
0000
0100
0000
0000
0100
0000
0000
0010
0000
1000
0000
0001
0000
,
2000
0100
3100
1000
0002
0010
0013
0001
,
0200
1000
1300
0100
0020
0001
0031
0010
,
0100
0001
0010
0100
1000
0010
0001
0010
,
0200
0000
0000
0000
0301
0000
1000
0000
0001
0000
0000
0010
0000
0000
0100
0000
,
2000
0000
0010
0000
3010
0000
0100
0000
0010
0000
0000
1000
0000
0000
0100
0010
,
0200
0000
0010
0000
0300
0010
0000
0000
0001
0000
0000
0100
0000
0000
0010
0000
,
2000
0000
0001
0000
3000
0000
1000
0000
0001
0000
0000
0010
0000
0000
0001
0100
,
0020
0000
1030
0001
0010
0100
1000
0010
,
1010
0000
0000
0110
0000
0000
0101
0000
0000
0001
0000
1000
0000
0000
0001
0000
,
0020
0000
0130
0010
0001
0100
0010
1000
,
0002
0000
0010
0003
0000
0011
0000
0000
1001
0000
0000
0000
0001
0100
0001
0100
,
0001
0000
1000
0000
0001
0000
0010
0001
0000
0000
0010
0000
0100
0000
1000
0000
,
0001
0000
1000
0000
0010
0000
1000
0100
0000
0000
1000
0000
0001
0000
0010
0000
,
0100
0000
0010
0000
0001
0000
0010
0100
0000
0000
0100
0000
0010
0000
0001
0000
,
0100
0000
0010
0000
1000
0000
0001
0100
0000
0000
0010
0000
0100
0001
0000
0000
,
1000
0000
0000
0000
0100
0000
0010
0100
0000
0000
0100
0000
0010
0000
0001
0000
,
0001
0000
1000
0000
0001
0000
0010
0100
0000
0000
0010
0000
0100
0000
1000
0000
,
0001
0000
0100
0000
0010
0000
0100
1000
0000
0000
0100
0000
0010
0000
0100
0000
,
0001
0000
0010
0000
0100
0000
1000
0001
0000
0000
0010
0000
0100
0000
0010
0000
,
0001
0100
0001
1000
0001
0010
0100
1000
,
0010
0000
0010
0000
0100
0000
0100
0000
0001
1000
0001
2000
0000
0000
0000
0000
,
3001
0001
0010
0010
0100
0100
1000
1000
,
0010
0000
0001
0000
0010
0000
1000
0000
0100
0010
0001
2000
0000
0000
0000
0000
,
3001
0100
1000
0100
0001
0000
1000
0001
,
0010
0000
0010
0000
0100
0000
0100
0000
1000
0100
0010
0002
0000
0000
0000
0000
,
1003
1000
0010
0010
0100
0100
0001
0001
,
0010
0000
1000
0000
0001
0000
0100
0000
1000
0100
1000
0020
0000
0000
0030
0000
,
2002
3003
0000
0000
0000
0000
0000
0000
0000
0000
0000
0000
0000
0000
0000
0000
0000
0000
0000
0000
0000
0000
0000
0000
0000
0000
0000
0000
0000
0000
0000
0000
0000
0000
0000
0000
0000
0000
0000
0000
0000
0000
0000
0000
0000
0000
0000
0000
0000
0000
0000
0000
0000
0000
0000
0000
0000
0000
0000
0000
0000
0000
0000
0000
0000
0000
0000
0000
0000
0000
0000
0000
0000
0000
0000
0000
0000
0000
0000
0000
0000
0000
0000
0000
0000
0000
0000
0000
0000
0000
0000
0000
0000
0000
0000
0000
0220
0000
0000
0000
0000
0000
0000
0000
0000
0000
0000
0000
0000
0000
0000
0000
0000
0000
0000
0000
0000
0000
0000
0000
0000
0000
0000
0000
0000
0000
0000
0000
0000
0000
0000
0000
0000
0000
0000
0000
0000
0000
0000
0000
0000
0000
0000
0000
0000
0000
0000
0000
0000
0000
0000
0000
0000
0000
0000
0000
0000
0000
0000
0000
0000
0000
0000
0000
0000
0000
0000
0000
0000
0000
0000
0000
0000
0000
0000
0000
0000
0000
0000
0000
0000
0000
0000
0000
0000
0000
0000
0000
0000
0000
0000
0000
,
0000
0000
0000
0000
,
0000
0000
0330
0000
;

//---------------dance-single - ----------------
#NOTES:
     dance-single:
     :
     Challenge:
     10:
     :
0000
0000
0000
0000
,
0000
0000
0000
0000
,
0000
0000
0000
0000
,
0000
0000
0000
0000
,
2001
0000
0000
0000
3010
0000
0100
0001
0000
0000
0001
0000
1000
0000
0001
0000
,
0011
0000
0010
0000
0100
0000
1000
0002
0000
0000
0103
0000
0010
0000
1000
0000
,
1100
0100
0001
0100
1000
1100
0100
0110
,
0001
1000
0001
0100
0010
0100
0001
2000
0000
0000
0000
0000
0000
0000
0000
0000
,
3020
0000
0000
0000
0000
0000
0000
0000
0000
0000
0000
0000
1030
0100
0010
0001
,
1000
0000
0010
0000
0100
0000
0001
1000
0000
0001
0010
0000
0001
0010
0100
0010
,
0001
0000
1000
0000
0001
0000
0100
0010
0000
0010
1000
0000
0001
0010
0100
1000
,
0100
0000
0010
0000
0100
0000
1000
0010
0000
0100
0010
0000
1000
0000
0001
0000
,
1000
0100
1000
0001
0010
0100
1000
0001
0000
0000
1000
0000
0010
0000
0100
0000
,
0001
0000
1000
0000
0001
0000
0010
0100
0000
0100
0010
0000
0001
0000
1000
0000
,
0001
0000
0100
0000
0010
0000
1000
0001
0000
0000
0010
0000
0100
0000
1000
0000
,
0010
0100
0010
1000
0001
0100
0001
2000
0000
0000
3100
0000
0010
0000
0100
0000
,
1000
0100
0010
0100
1000
0001
0010
0200
0000
0000
1300
0000
0010
0000
0100
0000
,
0101
0000
0100
0010
0020
0000
1030
0001
,
1000
0000
0100
0000
0010
0000
0010
0001
0010
0000
0100
0000
0200
0000
0000
0000
,
1300
0000
0001
0100
0200
0000
0310
0100
,
0001
0010
0100
0010
0001
0100
0010
1000
0002
0000
1000
0000
1003
0000
1000
0100
,
0010
0000
0001
0000
0001
0000
1000
0010
0200
0000
0002
0000
0300
0000
1003
0100
,
0020
0000
0100
0000
0130
0000
0100
0010
0002
0000
1000
0000
1003
0000
0001
0000
,
0200
0000
0010
0000
0310
0000
1000
0001
1000
0000
0100
0000
0001
0000
0100
0000
,
0010
0100
1000
0010
0100
0001
1000
0001
0010
0100
0010
0100
1000
0001
1000
0001
,
0200
0000
0000
0000
0010
0000
0010
0000
0301
0000
0000
1000
0000
0000
0001
0000
,
0012
0000
0010
0000
1000
0000
1000
0000
0103
0000
0000
0010
0000
0000
0100
0001
,
2000
0000
0010
0000
0000
0100
0000
0000
3001
0000
0000
0010
0000
0000
0100
0000
,
0020
0000
0001
0000
0000
0000
0130
0000
0010
0000
0000
0001
0000
0000
1000
0001
,
0200
0000
1000
1000
0010
0010
0301
0010
,
0101
0000
0000
1001
0000
0000
1100
0000
0000
0110
0000
0010
0000
0000
0001
0000
,
0102
0000
0010
0010
1000
1000
0100
0103
,
0010
0000
1010
0000
0000
0110
0000
0000
0101
0000
0000
0001
1000
0100
0010
0001
,
1000
0000
0010
0000
0100
0000
0001
1000
0000
0001
0010
0000
0001
0010
0100
0010
,
0001
0000
1000
0000
0001
0000
0100
0010
0000
0010
1000
0000
0001
0010
0100
1000
,
0100
0000
0010
0000
0100
0000
1000
0010
0000
0100
0010
0000
1000
0000
0001
0000
,
1000
0100
1000
0001
0010
0100
1000
0001
0000
0000
1000
0000
0010
0100
0000
0100
,
0001
0000
1000
0000
0001
0000
0010
0100
0000
0100
0010
0000
0001
0000
1000
0000
,
0001
0000
0100
0000
0010
0000
1000
0001
0000
0000
0010
0000
0100
0000
1000
0000
,
0010
0100
0010
1000
0001
0100
0001
2000
0000
0000
3100
0000
0010
0000
0001
0000
,
1000
0100
0010
0100
1000
0001
0010
0200
0000
0000
1300
0000
0010
0000
0010
0000
,
2000
3002
0023
0230
0302
0203
0320
0032
,
1003
0100
0010
0001
0100
0010
1000
0001
0100
0010
0100
0002
0000
0000
1003
0000
,
0001
0010
0100
1000
0001
0100
0010
1000
0100
0010
0100
1000
0001
0100
0010
1000
,
0100
0010
0001
0010
0100
1000
0001
1000
0010
0100
0001
2000
0000
0000
3001
0000
,
1000
0100
0100
1000
0001
0000
0100
0010
,
1000
0100
1000
0100
0010
0100
1000
0100
0010
0001
0100
0020
0000
0000
0030
0000
,
1000
0010
0100
0001
1000
0100
0010
0001
0100
0010
1000
0001
0010
0100
1000
0001
,
0010
0100
0010
0001
1000
0010
0100
0010
0001
0010
1000
0002
0000
0000
0000
0000
,
2000
3003
0000
0000
0000
0000
0000
0000
0000
0000
0000
0000
0000
0000
0000
0000
0000
0000
0000
0000
0000
0000
0000
0000
0000
0000
0000
0000
0000
0000
0000
0000
0000
0000
0000
0000
0000
0000
0000
0000
0000
0000
0000
0000
0000
0000
0000
0000
0000
0000
0000
0000
0000
0000
0000
0000
0000
0000
0000
0000
0000
0000
0000
0000
0000
0000
0000
0000
0000
0000
0000
0000
0000
0000
0000
0000
0000
0000
0000
0000
0000
0000
0000
0000
0000
0000
0000
0000
0000
0000
0000
0000
0000
0000
0000
0000
0220
0000
0000
0000
0000
0000
0000
0000
0000
0000
0000
0000
0000
0000
0000
0000
0000
0000
0000
0000
0000
0000
0000
0000
0000
0000
0000
0000
0000
0000
0000
0000
0000
0000
0000
0000
0000
0000
0000
0000
0000
0000
0000
0000
0000
0000
0000
0000
0000
0000
0000
0000
0000
0000
0000
0000
0000
0000
0000
0000
0000
0000
0000
0000
0000
0000
0000
0000
0000
0000
0000
0000
0000
0000
0000
0000
0000
0000
0000
0000
0000
0000
0000
0000
0000
0000
0000
0000
0000
0000
0000
0000
0000
0000
0000
0000
,
0000
0000
0000
0000
,
0000
0000
0330
0000
;
