#TITLE:Grow Up;
#SUBTITLE:;
#ARTIST:Cher Lloyd feat. Busta Rhymes;
#TITLETRANSLIT:;
#SUBTITLETRANSLIT:;
#ARTISTTRANSLIT:;
#GENRE:;
#CREDIT:chewi × vincentw;
#BANNER:[Round D] - Grow Up.png;
#BACKGROUND:[Round D] - Grow Up-bg.png;
#LYRICSPATH:;
#CDTITLE:cdtitle.png;
#MUSIC:[Round D] - Grow Up.ogg;
#OFFSET:-0.876000;
#SAMPLESTART:44.112606;
#SAMPLELENGTH:11.034481;
#SELECTABLE:YES;
#DISPLAYBPM:174.000000;
#BPMS:0.000000=87.000000
,12.000000=7656.000000
,12.020833=88.000000
,12.041667=174.000000
,104.000000=7656.000000
,104.020836=88.000000
,104.041664=174.000000
,164.000000=7656.000000
,164.020828=88.000000
,164.041672=174.000000
,224.000000=7656.000000
,224.020828=88.000000
,224.041672=174.000000
,316.000000=7656.000000
,316.020844=88.000000
,316.041656=174.000000
;
#STOPS:12.000000=1.379000,
104.000000=1.380000,
164.000000=1.379000,
224.000000=1.379000,
316.000000=1.380000
;
#BGCHANGES:;
#KEYSOUNDS:;
#ATTACKS:;

//---------------dance-single - ----------------
#NOTES:
     dance-single:
     C 02 X 02:
     Beginner:
     2:
     0.095268,0.162525,0.016265,0.048796,0.000000,82.000000,80.000000,2.000000,6.000000,0.000000,0.000000,0.095268,0.162525,0.016265,0.048796,0.000000,82.000000,80.000000,2.000000,6.000000,0.000000,0.000000:
// measure 0
0000
0000
0000
0000
,  // measure 1
0000
0000
0000
0000
,  // measure 2
0000
0000
0000
0000
,  // measure 3
0000
0000
0000
0000
,  // measure 4
1000
0000
0000
0000
,  // measure 5
1000
0000
0000
0000
,  // measure 6
1000
0000
0000
0000
,  // measure 7
0000
0000
0000
0000
,  // measure 8
0001
0000
0000
0000
,  // measure 9
0001
0000
0000
0000
,  // measure 10
0001
0000
0000
0000
,  // measure 11
0000
0000
0000
0000
,  // measure 12
0200
0000
0000
0000
,  // measure 13
0300
0000
0000
0000
,  // measure 14
0020
0000
0000
0000
,  // measure 15
0030
0000
0000
0000
,  // measure 16
2000
0000
0000
0000
,  // measure 17
3000
0000
0000
0000
,  // measure 18
0002
0000
0000
0000
,  // measure 19
0003
0000
0000
0000
,  // measure 20
1000
0000
0000
0000
,  // measure 21
1000
0000
0000
0000
,  // measure 22
0100
0000
0000
0000
,  // measure 23
0100
0000
0000
0000
,  // measure 24
0010
0000
0000
0000
,  // measure 25
0010
0000
0000
0000
,  // measure 26
0110
0000
0000
0000
,  // measure 27
1000
0000
0000
0000
,  // measure 28
1000
0000
0000
0000
,  // measure 29
0001
0000
0001
0000
,  // measure 30
0001
0000
0000
0000
,  // measure 31
0100
0000
0000
0000
,  // measure 32
0100
0000
0000
0000
,  // measure 33
0010
0000
0010
0000
,  // measure 34
0010
0000
0000
0000
,  // measure 35
1000
0000
0000
0000
,  // measure 36
1000
0000
0000
0000
,  // measure 37
0001
0000
0001
0000
,  // measure 38
0001
0000
0000
0000
,  // measure 39
0010
0000
0000
0000
,  // measure 40
0010
0000
0000
0000
,  // measure 41
0100
0000
0000
0000
,  // measure 42
0010
0000
0000
0000
,  // measure 43
0000
0000
0000
0000
,  // measure 44
0100
0000
0000
0000
,  // measure 45
0100
0000
0000
0000
,  // measure 46
1000
0000
0000
0000
,  // measure 47
0001
0000
0000
0000
,  // measure 48
1000
0000
0000
0000
,  // measure 49
0000
0000
0000
0000
,  // measure 50
0001
0000
0000
0000
,  // measure 51
1000
0000
0000
0000
,  // measure 52
0001
0000
0000
0000
,  // measure 53
1000
0000
0000
0000
,  // measure 54
0010
0000
0000
0000
,  // measure 55
0100
0000
0000
0000
,  // measure 56
0010
0000
0000
0000
,  // measure 57
0100
0000
0000
0000
,  // measure 58
0001
0000
0001
0000
,  // measure 59
1000
0000
0000
0000
,  // measure 60
0001
0000
0001
0000
,  // measure 61
0010
0000
0000
0000
,  // measure 62
0001
0000
0000
0000
,  // measure 63
1000
0000
1000
0000
,  // measure 64
1000
0000
0000
0000
,  // measure 65
0010
0000
0000
0000
,  // measure 66
1000
0000
1000
0000
,  // measure 67
0001
0000
0000
0000
,  // measure 68
1000
0000
1000
0000
,  // measure 69
0100
0000
0000
0000
,  // measure 70
1000
0000
0000
0000
,  // measure 71
0001
0000
0001
0000
,  // measure 72
0001
0000
0000
0000
,  // measure 73
1000
0000
0010
0000
,  // measure 74
1000
0000
0000
0000
,  // measure 75
0001
0000
0100
0000
,  // measure 76
0001
0000
0000
0000
,  // measure 77
1000
0000
0100
0000
,  // measure 78
1000
0000
0000
0000
,  // measure 79
2002
0000
0000
0000
0000
0000
0000
0000
0000
0000
0000
0000
0000
0000
0000
3003
;

//---------------dance-single - ----------------
#NOTES:
     dance-single:
     C 03 X 05:
     Easy:
     3:
     0.178917,0.260040,0.032530,0.162652,0.000000,154.000000,150.000000,4.000000,20.000000,0.000000,0.000000,0.178917,0.260040,0.032530,0.162652,0.000000,154.000000,150.000000,4.000000,20.000000,0.000000,0.000000:
// measure 0
0000
0000
0000
0000
,  // measure 1
0000
0000
0000
0000
,  // measure 2
0000
0000
0000
0000
,  // measure 3
2001
0000
0000
0000
,  // measure 4
3020
0000
0000
0030
0000
0000
0000
0000
,  // measure 5
2000
0000
0000
3000
0000
0000
0000
0000
,  // measure 6
0002
0000
0000
0003
0000
0000
0000
0000
,  // measure 7
0200
0000
0000
0300
0000
0000
0000
0000
,  // measure 8
0002
0000
0000
0003
0000
0000
0000
0000
,  // measure 9
0020
0000
0000
0030
0000
0000
0000
0000
,  // measure 10
0200
0000
0000
0300
0000
0000
0000
0000
,  // measure 11
2000
0000
0000
0000
,  // measure 12
3100
0000
0000
0100
0000
0000
0000
0000
,  // measure 13
0100
0000
0000
0100
0000
0000
0000
0000
,  // measure 14
1000
0000
0000
1000
0000
0000
0000
0000
,  // measure 15
1000
0000
0000
1000
0000
0000
0000
0000
,  // measure 16
0010
0000
0000
0010
0000
0000
0000
0000
,  // measure 17
0010
0000
0000
0010
0000
0000
0000
0000
,  // measure 18
1000
0000
0001
1000
,  // measure 19
0001
0000
0000
0000
,  // measure 20
1000
0000
0000
0010
0000
0000
0000
0000
,  // measure 21
0010
0000
0000
1000
0000
0000
0000
0000
,  // measure 22
0001
0000
0000
0100
0000
0000
0000
0000
,  // measure 23
0100
0000
0000
0001
0000
0000
0000
0000
,  // measure 24
0010
0000
0000
0100
0000
0000
0000
0000
,  // measure 25
0100
0000
0000
0010
0000
0000
0000
0000
,  // measure 26
0120
0000
0000
0000
,  // measure 27
0130
0000
0000
0100
0000
0000
0000
0000
,  // measure 28
0100
0000
0000
0100
0000
0000
1000
0000
,  // measure 29
0001
0000
0000
0001
0000
0000
0000
0000
,  // measure 30
0001
0000
0000
0001
0000
0000
1000
0000
,  // measure 31
0010
0000
0000
0010
0000
0000
0000
0000
,  // measure 32
0010
0000
0000
0010
0000
0000
0000
0000
,  // measure 33
1000
0000
0001
0010
,  // measure 34
0001
0000
0001
0000
,  // measure 35
0100
0000
0000
0100
0000
0000
0000
0000
,  // measure 36
0100
0000
0000
0100
0000
0000
0001
0000
,  // measure 37
1000
0000
0000
1000
0000
0000
0000
0000
,  // measure 38
1000
0000
0000
1000
0000
0000
0001
0000
,  // measure 39
0010
0000
0000
0010
0000
0000
0000
0000
,  // measure 40
0010
0000
0000
0010
0000
0000
0000
0000
,  // measure 41
0002
0000
0000
0000
,  // measure 42
0003
0000
0000
1000
,  // measure 43
0000
0000
0000
0000
,  // measure 44
0010
0000
0000
0000
,  // measure 45
0010
0000
0000
0000
,  // measure 46
1000
0000
0000
1000
0000
0000
0000
0000
,  // measure 47
0001
0000
0000
0001
0000
0000
0000
0000
,  // measure 48
1001
0000
0000
0000
,  // measure 49
1000
0000
0000
0001
0000
0000
0000
0000
,  // measure 50
2000
0000
0000
3000
0000
0000
0100
0000
,  // measure 51
2000
0000
0000
3000
0000
0000
0001
0000
,  // measure 52
2000
0000
0000
3000
0000
0000
0010
0000
,  // measure 53
2000
0000
0000
3000
0000
0000
1000
0000
,  // measure 54
0002
0000
0000
0003
0000
0000
0010
0000
,  // measure 55
0002
0000
0000
0003
0000
0000
1000
0000
,  // measure 56
0002
0000
0100
0000
,  // measure 57
0103
0000
0000
0010
0000
0000
0000
0000
,  // measure 58
0010
0000
0000
0100
0000
0000
0000
0000
,  // measure 59
0001
0000
0000
1000
0000
0000
0000
0000
,  // measure 60
1000
0000
0000
0001
0000
0000
0000
0000
,  // measure 61
0010
0000
0000
0100
0000
0000
0000
0000
,  // measure 62
0100
0000
0000
0010
0000
0000
0000
0000
,  // measure 63
0001
0000
1000
0001
,  // measure 64
1000
0000
0001
0100
,  // measure 65
0001
0000
0000
0100
0000
0000
0000
0000
,  // measure 66
0100
0000
0000
0001
0000
0000
0001
0000
,  // measure 67
1000
0000
0000
0010
0000
0000
0000
0000
,  // measure 68
0010
0000
0000
1000
0000
0000
1000
0000
,  // measure 69
0001
0000
0000
1000
0000
0000
0000
0000
,  // measure 70
1000
0000
0000
0001
0000
0000
0000
0000
,  // measure 71
1000
0001
1000
0001
,  // measure 72
1000
0000
0001
0010
,  // measure 73
0001
0000
0000
0010
0000
0000
0000
0000
,  // measure 74
0010
0000
0000
0001
0000
0000
0001
0000
,  // measure 75
1000
0000
0000
0100
0000
0000
0000
0000
,  // measure 76
0100
0000
0000
1000
0000
0000
1000
0000
,  // measure 77
0010
0000
0000
0100
0000
0000
0000
0000
,  // measure 78
0100
0000
0000
0010
0000
0000
0000
0000
,  // measure 79
0220
0000
0000
0000
0000
0000
0000
0000
0000
0000
0000
0000
0000
0000
0000
0330
;

//---------------dance-single - ----------------
#NOTES:
     dance-single:
     C 06 X 08:
     Medium:
     6:
     0.342731,0.422565,0.162652,0.284641,0.008133,295.000000,275.000000,20.000000,35.000000,0.000000,0.000000,0.342731,0.422565,0.162652,0.284641,0.008133,295.000000,275.000000,20.000000,35.000000,0.000000,0.000000:
// measure 0
0000
0000
0000
0000
,  // measure 1
0000
0000
0000
0000
,  // measure 2
0000
0000
0000
0000
,  // measure 3
2001
0000
0000
0000
,  // measure 4
3010
0000
0000
0020
0000
0000
0030
0000
,  // measure 5
1000
0000
0000
2000
0000
0000
3000
0000
,  // measure 6
0001
0000
0000
0002
0000
0000
0003
0000
,  // measure 7
0100
0000
0000
0200
0000
0000
0300
0000
,  // measure 8
0001
0000
0000
0002
0000
0000
0003
0000
,  // measure 9
0010
0000
0000
0020
0000
0000
0030
0000
,  // measure 10
0100
0000
0000
0200
0000
0000
0300
0000
,  // measure 11
1000
0001
1000
0001
,  // measure 12
0100
0000
0000
0100
0000
0000
0001
0000
,  // measure 13
0100
0000
0000
0100
0000
0000
0001
0000
,  // measure 14
1000
0000
0000
1000
0000
0000
0001
0000
,  // measure 15
1000
0000
0000
1000
0000
1000
0001
0000
,  // measure 16
0010
0000
0000
0010
0000
0000
0001
0000
,  // measure 17
0010
0000
0000
0010
0000
0000
0001
0000
,  // measure 18
0100
0000
0000
0100
0001
0000
1000
0000
,  // measure 19
0100
0000
0100
0100
,  // measure 20
0010
0000
0000
0220
0000
0000
0330
0000
,  // measure 21
1000
0000
0000
2002
0000
0000
3003
0000
,  // measure 22
0001
0100
0020
1030
,  // measure 23
0100
0000
0000
2200
0000
0000
3300
0000
,  // measure 24
1000
0100
0020
0031
,  // measure 25
0100
0000
0000
0202
0000
0000
0303
0000
,  // measure 26
1010
0000
0000
0000
,  // measure 27
0010
0000
0010
1000
0000
0000
0010
0000
,  // measure 28
0100
0000
0100
0001
0000
0000
0100
0000
,  // measure 29
0001
0000
0001
0010
0000
0000
0001
0000
,  // measure 30
1000
0000
1000
0100
0000
0000
1000
0000
,  // measure 31
0010
0000
0010
0100
0000
0000
0010
0000
,  // measure 32
1000
0000
1000
0001
0000
0000
1000
0000
,  // measure 33
0002
0023
2030
3020
,  // measure 34
0031
0000
0000
0100
0000
0100
0001
0000
,  // measure 35
0010
0000
0010
0001
0000
0000
0010
0000
,  // measure 36
0100
0000
0100
1000
0000
0000
0100
0000
,  // measure 37
1000
0000
1000
0010
0000
0000
1000
0000
,  // measure 38
0001
0000
0001
0100
0000
0000
0001
0000
,  // measure 39
0010
0000
0010
0100
0000
0000
0010
0000
,  // measure 40
0001
0000
0001
1000
0000
0000
0001
0000
,  // measure 41
0002
1000
0000
0000
0000
0000
0000
0000
0000
0000
0000
0000
0000
0000
0000
0000
0000
0000
0000
0000
0000
0000
0000
0000
0000
0000
0000
0000
0000
0000
0000
0000
0000
0000
0000
0000
0000
0000
0000
0000
0000
0000
0000
0000
0000
0000
0000
0000
1000
0000
0000
0000
0000
0000
0000
0000
0000
0000
0000
0000
0000
0000
0000
0000
0000
0000
0000
0000
0000
0000
0000
0000
0000
0000
0000
0000
0000
0000
0000
0000
0000
0000
0000
0000
0000
0000
0000
0000
0000
0000
0000
0000
0000
0000
0000
0000
1000
0000
0000
0000
0000
0000
0000
0000
0000
0000
0000
0000
0000
0000
0000
0000
0000
0000
0000
0000
0000
0000
0000
0000
0000
0000
0000
0000
0000
0000
0000
0000
0000
0000
0000
0000
0000
0000
0000
0000
0000
0000
0000
0000
0000
0000
0000
0000
1000
0000
0000
0000
0000
0000
0000
0000
0000
0000
0000
0000
0000
0000
0000
0000
0000
0000
0000
0000
0000
0000
0000
0000
0000
0000
0000
0000
0000
0000
0000
0000
0000
0000
0000
0000
0000
0000
0000
0000
0000
0000
0000
0000
0000
0000
0000
0000
,  // measure 42
0103
0000
0000
0010
,  // measure 43
0200
0000
0000
0300
0000
0000
0000
0000
,  // measure 44
0020
0030
0000
0020
0030
0000
1000
0000
,  // measure 45
0200
0300
0000
0200
0300
0000
1000
0000
,  // measure 46
0001
0010
0100
1000
,  // measure 47
0001
0100
0010
1000
,  // measure 48
1001
0000
0000
0001
,  // measure 49
0010
1000
0010
0110
,  // measure 50
0000
1001
0000
0011
,  // measure 51
1000
0000
0000
0010
0000
0000
1010
0000
,  // measure 52
0100
0000
0000
0001
0000
0000
0101
0000
,  // measure 53
1000
0000
0000
0100
0000
0000
1100
0000
,  // measure 54
0100
0000
0000
0010
0000
0000
0110
0000
,  // measure 55
0001
0000
0000
1000
0000
0000
1001
0000
,  // measure 56
0120
0000
0100
0130
,  // measure 57
1001
0000
0001
1000
0000
0000
1000
0001
,  // measure 58
0100
0000
0100
0001
0000
0000
0010
0000
,  // measure 59
0001
0000
1000
0001
0000
0000
0001
0010
,  // measure 60
0100
0000
0100
1000
0000
0000
1000
0000
,  // measure 61
0100
0000
0100
0010
0000
0000
0010
0000
,  // measure 62
0001
0000
0001
0100
0000
0000
0010
0000
,  // measure 63
1000
0010
0001
0020
,  // measure 64
1000
0100
0001
0100
,  // measure 65
1030
0000
0010
1000
0000
0001
0000
0001
,  // measure 66
1000
0000
0100
1000
0000
0000
0011
0000
,  // measure 67
0001
0000
0100
0001
0000
0000
1000
0001
,  // measure 68
0010
0000
0100
1000
0000
0000
1100
0000
,  // measure 69
0001
0000
0100
0010
0000
0000
0100
0001
,  // measure 70
1000
0000
0100
0010
0000
0000
1001
0000
,  // measure 71
0001
0010
0100
0000
0100
0010
0001
0000
,  // measure 72
0020
0000
2000
0030
0200
3000
0002
0300
,  // measure 73
1003
0100
0010
0001
0000
0010
0000
0100
,  // measure 74
0010
0001
0100
0000
0010
0000
1000
0000
,  // measure 75
0001
0000
0100
0010
0100
0010
1000
0010
,  // measure 76
0000
0100
0000
0001
0000
0000
1000
0000
,  // measure 77
0001
0010
0100
1000
0000
0010
0100
0010
,  // measure 78
1000
0001
0000
0010
0000
0000
0001
0000
,  // measure 79
0002
1000
0000
0000
0000
0000
0000
0000
0000
0000
0000
0000
0000
0000
0000
0000
0000
0000
0000
0000
0000
0000
0000
0000
0000
0000
0000
0000
0000
0000
0000
0000
0000
0000
0000
0000
0000
0000
0000
0000
0000
0000
0000
0000
0000
0000
0000
0000
1000
0000
0000
0000
0000
0000
0000
0000
0000
0000
0000
0000
0000
0000
0000
0000
0000
0000
0000
0000
0000
0000
0000
0000
0000
0000
0000
0000
0000
0000
0000
0000
0000
0000
0000
0000
0000
0000
0000
0000
0000
0000
0000
0000
0000
0000
0000
0000
1000
0000
0000
0000
0000
0000
0000
0000
0000
0000
0000
0000
0000
0000
0000
0000
0000
0000
0000
0000
0000
0000
0000
0000
0000
0000
0000
0000
0000
0000
0000
0000
0000
0000
0000
0000
0000
0000
0000
0000
0000
0000
0000
0000
0000
0000
0000
0000
1000
0000
0000
0000
0000
0000
0000
0000
0000
0000
0000
0000
0000
0000
0000
0000
0000
0000
0000
0000
0000
0000
0000
0000
1000
0000
0000
0000
0000
0000
0000
0000
0000
0000
0000
0000
0003
0000
0000
0000
0000
0000
0000
0000
0000
0000
0000
0000
;

//---------------dance-single - ----------------
#NOTES:
     dance-single:
     C 09 X 13:
     Hard:
     9:
     0.585547,0.617111,0.195182,0.260243,0.126055,504.000000,480.000000,24.000000,32.000000,23.000000,0.000000,0.585547,0.617111,0.195182,0.260243,0.126055,504.000000,480.000000,24.000000,32.000000,23.000000,0.000000:
// measure 0
0000
0000
0000
0000
,  // measure 1
0000
0000
0000
0000
,  // measure 2
0000
0000
0000
0000
,  // measure 3
2000
0002
0000
0000
0000
0000
0000
0000
0000
0000
0000
0000
0000
0000
0000
0000
0000
0000
0000
0000
0000
0000
0000
0000
0000
0000
0000
0000
0000
0000
0000
0000
0000
0000
0000
0000
0000
0000
0000
0000
0000
0000
0000
0000
0000
0000
0000
0000
0000
0000
0000
0000
0000
0000
0000
0000
0000
0000
0000
0000
0000
0000
0000
0000
0000
0000
0000
0000
0000
0000
0000
0000
0000
0000
0000
0000
0000
0000
0000
0000
0000
0000
0000
0000
0000
0000
0000
0000
0000
0000
0000
0000
0000
0000
0000
0000
0000
0000
0000
0000
0000
0000
0000
0000
0000
0000
0000
0000
0000
0000
0000
0000
0000
0000
0000
0000
0000
0000
0000
0000
0000
0000
0000
0000
0000
0000
0000
0000
0000
0000
0000
0000
0000
0000
0000
0000
0000
0000
0000
0000
0000
0000
0000
0000
3000
0000
0000
0000
0000
0000
0000
0000
0000
0000
0000
0000
0000
0000
0000
0000
0000
0000
0000
0000
0000
0000
0000
0000
0000
0000
0000
0000
0000
0000
0000
0000
0000
0000
0000
0000
0000
0000
0000
0000
0000
0000
0000
0000
0000
0000
0000
0000
,  // measure 4
1003
0000
0010
0001
0010
0000
1010
0000
,  // measure 5
0001
0000
0010
1000
0010
0000
0011
0000
,  // measure 6
1000
0000
0100
0001
0100
0000
0100
0010
,  // measure 7
0100
0000
0100
1000
0100
0000
1100
0000
,  // measure 8
0001
0000
0100
1000
0100
0000
0101
0000
,  // measure 9
1000
0000
0100
0001
0100
0000
1100
0000
,  // measure 10
0001
0000
0010
1000
0010
0000
0010
0100
,  // measure 11
0010
0000
0010
0001
0010
0001
1000
0001
,  // measure 12
1000
0010
0000
0010
1000
0001
0100
0000
,  // measure 13
0001
0010
0000
0010
0001
1000
0100
0000
,  // measure 14
1000
0001
0000
0001
1000
0010
0100
0000
,  // measure 15
0001
0010
0100
0001
0100
0010
0001
0000
,  // measure 16
1000
0000
0100
00M0
0100
0000
0001
0000
0010
0000
0100
0000
1000
0000
0000
0000
,  // measure 17
0001
0000
0100
00M0
0100
0000
1000
0000
0010
0000
0100
0000
0001
0000
0000
0000
,  // measure 18
1000
0000
0010
0M00
0010
0000
0001
0000
0100
00M0
0100
0000
1000
0000
0000
0000
,  // measure 19
1001
0000
0000
0000
0000
0000
0000
0000
0001
0010
0001
0000
1000
0000
1000
0000
,  // measure 20
0002
0000
0010
0023
0000
0100
0030
0100
,  // measure 21
2000
0000
0010
3020
0000
0100
0030
0100
,  // measure 22
0002
0000
2003
0010
3020
0000
0230
0000
,  // measure 23
0302
0000
1000
2003
0000
0100
3000
0100
,  // measure 24
1000
0010
0000
0010
0001
0010
0000
0010
,  // measure 25
1000
0100
0000
0100
0000
0010
0001
0100
,  // measure 26
0010
1000
0000
0000
0000
0000
0000
0000
0000
0000
0000
0000
0000
0000
0000
0000
0000
0000
0000
0000
0000
0000
0000
0000
1000
0000
0000
0000
0000
0000
0000
0000
0000
0000
0000
0000
0000
0000
0000
0000
0000
0000
0000
0000
0000
0000
0000
0000
0001
0000
0000
0000
0000
0000
0000
0000
0000
0000
0000
0000
0000
0000
0000
0000
0000
0000
0000
0000
0000
0000
0000
0000
0001
0000
0000
0000
0000
0000
0000
0000
0000
0000
0000
0000
0000
0000
0000
0000
0000
0000
0000
0000
0000
0000
0000
0000
1000
0000
0000
0000
0000
0000
0000
0000
0000
0000
0000
0000
0000
0000
0000
0000
0000
0000
0000
0000
0000
0000
0000
0000
1000
0000
0000
0000
0000
0000
0000
0000
0000
0000
0000
0000
0000
0000
0000
0000
0000
0000
0000
0000
0000
0000
0000
0000
0001
0000
0000
0000
0000
0000
0000
0000
0000
0000
0000
0000
0000
0000
0000
0000
0000
0000
0000
0000
0000
0000
0000
0000
0001
0000
0000
0000
0000
0000
0000
0000
0000
0000
0000
0000
0000
0000
0000
0000
0000
0000
0000
0000
0000
0000
0000
0000
,  // measure 27
1000
0010
0100
0001
0000
1000
0000
1000
,  // measure 28
0001
0010
0100
0000
0110
0000
0010
0000
,  // measure 29
0001
0200
1000
0000
0301
0000
1000
0010
,  // measure 30
0100
0010
1000
0001
0000
0010
0000
0010
,  // measure 31
0100
1000
0001
0100
0000
0001
0010
0100
,  // measure 32
1000
0100
0000
0001
0000
0100
1000
0000
,  // measure 33
0001
0010
1000
0010
0001
1000
0010
0000
,  // measure 34
0100
0100
0010
0010
0100
0100
0010
0010
,  // measure 35
1000
0100
0010
0001
0000
0100
0000
0100
,  // measure 36
0001
0020
1000
0000
0130
000M
M110
0000
,  // measure 37
0001
0000
1000
1000
0001
0001
1000
0010
,  // measure 38
0000
0000
1010
0000
0000
0000
0101
0000
0000
0000
0000
1000
0000
0000
1000
0000
,  // measure 39
0001
0010
0100
1000
0000
0100
1000
0001
,  // measure 40
1000
0100
0000
0001
0000
0100
1000
0000
,  // measure 41
1100
0001
0000
0000
0000
0000
0000
0000
0000
0000
0000
0000
0000
0000
0000
0000
0000
0000
0000
0000
0000
0000
0000
0000
0001
0000
0000
0000
0000
0000
0000
0000
0000
0000
0000
0000
0000
0000
0000
0000
0000
0000
0000
0000
0000
0000
0000
0000
0100
0000
0000
0000
0000
0000
0000
0000
0000
0000
0000
0000
0000
0000
0000
0000
0000
0000
0000
0000
0000
0000
0000
0000
0100
0000
0000
0000
0000
0000
0000
0000
0000
0000
0000
0000
0000
0000
0000
0000
0000
0000
0000
0000
0000
0000
0000
0000
0010
0000
0000
0000
0000
0000
0000
0000
0000
0000
0000
0000
0000
0000
0000
0000
0000
0000
0000
0000
0000
0000
0000
0000
0010
0000
0000
0000
0000
0000
0000
0000
0000
0000
0000
0000
0000
0000
0000
0000
0000
0000
0000
0000
0000
0000
0000
0000
1000
0000
0000
0000
0000
0000
0000
0000
0000
0000
0000
0000
0000
0000
0000
0000
0000
0000
0000
0000
0000
0000
0000
0000
1000
0000
0000
0000
0000
0000
0000
0000
0000
0000
0000
0000
0000
0000
0000
0000
0000
0000
0000
0000
0000
0000
0000
0000
,  // measure 42
0001
0000
M000
0000
0M00
00M0
100M
0000
,  // measure 43
0010
1000
0100
0000
0010
0001
0100
0000
,  // measure 44
1000
0100
0001
0000
0010
0001
0100
1000
,  // measure 45
0001
1000
0100
0001
0010
0100
1000
0000
,  // measure 46
0001
0000
0010
M010
0010
0000
0001
0000
0100
000M
0100
0000
1000
0000
0000
0000
,  // measure 47
1000
0000
0100
010M
0100
0000
1000
0000
0010
M000
0010
0000
0001
0000
0000
0000
,  // measure 48
0101
0000
0000
0100
,  // measure 49
0001
0000
0010
M010
0010
0000
0100
0000
1000
0000
0001
0000
0200
0000
0001
0000
,  // measure 50
0300
0000
0000
0000
0000
0000
0000
0000
0000
0000
0000
0000
0000
0000
0000
0000
0000
0000
0000
0000
0000
0000
0000
0000
0100
0000
0000
0000
0000
0000
0000
0000
0000
0000
0000
0000
0100
0000
0000
0000
0000
0000
0000
0000
0000
0000
0000
0000
0100
0000
0000
0000
0000
0000
0000
0000
0000
0000
0000
0000
0000
0000
0000
0000
0000
0000
0000
0000
0000
0000
0000
0000
0001
0000
0000
0000
0000
0000
0000
0000
0000
0000
0000
0000
0000
0000
0000
0000
0000
0000
0000
0000
0000
0000
0000
0000
1000
0000
0000
0000
0000
0000
0000
0000
0000
0000
0000
0000
0000
0000
0000
0000
0000
0000
0000
0000
0000
0000
0000
0000
0020
0000
0000
0000
0000
0000
0000
0000
0000
0000
0000
0000
0000
0000
0000
0000
0000
0000
0000
0000
0000
0000
0000
0000
2030
3000
0000
0000
0000
0000
0000
0000
0000
0000
0000
0000
0000
0000
0000
0000
0000
0000
0000
0000
0000
0000
0000
0000
0000
0000
0000
0000
0000
0000
0000
0000
0000
0000
0000
0000
0000
0000
0000
0000
0000
0000
0000
0000
0000
0000
0000
0000
,  // measure 51
0001
0000
0000
0000
0000
0000
0000
0000
0000
0000
0000
0000
0000
0000
0000
0000
0000
0000
0000
0000
0000
0000
0000
0000
0010
0000
0000
0000
0000
0000
0000
0000
0000
0000
0000
0000
0010
0000
0000
0000
0000
0000
0000
0000
0000
0000
0000
0000
0010
0000
0000
0000
0000
0000
0000
0000
0000
0000
0000
0000
0000
0000
0000
0000
0000
0000
0000
0000
0000
0000
0000
0000
0001
0000
0000
0000
0000
0000
0000
0000
0000
0000
0000
0000
0000
0000
0000
0000
0000
0000
0000
0000
0000
0000
0000
0000
0100
0000
0000
0000
0000
0000
0000
0000
0000
0000
0000
0000
0000
0000
0000
0000
0000
0000
0000
0000
0000
0000
0000
0000
0020
0000
0000
0000
0000
0000
0000
0000
0000
0000
0000
0000
0000
0000
0000
0000
0000
0000
0000
0000
0000
0000
0000
0000
0230
0300
0000
0000
0000
0000
0000
0000
0000
0000
0000
0000
0000
0000
0000
0000
0000
0000
0000
0000
0000
0000
0000
0000
0000
0000
0000
0000
0000
0000
0000
0000
0000
0000
0000
0000
0000
0000
0000
0000
0000
0000
0000
0000
0000
0000
0000
0000
,  // measure 52
0001
0000
0000
0000
0000
0000
0000
0000
0000
0000
0000
0000
0000
0000
0000
0000
0000
0000
0000
0000
0000
0000
0000
0000
1000
0000
0000
0000
0000
0000
0000
0000
0000
0000
0000
0000
0010
0000
0000
0000
0000
0000
0000
0000
0000
0000
0000
0000
1000
0000
0000
0000
0000
0000
0000
0000
0000
0000
0000
0000
0000
0000
0000
0000
0000
0000
0000
0000
0000
0000
0000
0000
0010
0000
0000
0000
0000
0000
0000
0000
0000
0000
0000
0000
0000
0000
0000
0000
0000
0000
0000
0000
0000
0000
0000
0000
0100
0000
0000
0000
0000
0000
0000
0000
0000
0000
0000
0000
0000
0000
0000
0000
0000
0000
0000
0000
0000
0000
0000
0000
0002
0000
0000
0000
0000
0000
0000
0000
0000
0000
0000
0000
0000
0000
0000
0000
0000
0000
0000
0000
0000
0000
0000
0000
0203
0300
0000
0000
0000
0000
0000
0000
0000
0000
0000
0000
0000
0000
0000
0000
0000
0000
0000
0000
0000
0000
0000
0000
0000
0000
0000
0000
0000
0000
0000
0000
0000
0000
0000
0000
0000
0000
0000
0000
0000
0000
0000
0000
0000
0000
0000
0000
,  // measure 53
0001
0000
0000
0000
0000
0000
0000
0000
0000
0000
0000
0000
0000
0000
0000
0000
0000
0000
0000
0000
0000
0000
0000
0000
1000
0000
0000
0000
0000
0000
0000
0000
0000
0000
0000
0000
0100
0000
0000
0000
0000
0000
0000
0000
0000
0000
0000
0000
1000
0000
0000
0000
0000
0000
0000
0000
0000
0000
0000
0000
0000
0000
0000
0000
0000
0000
0000
0000
0000
0000
0000
0000
0100
0000
0000
0000
0000
0000
0000
0000
0000
0000
0000
0000
0000
0000
0000
0000
0000
0000
0000
0000
0000
0000
0000
0000
0010
0000
0000
0000
0000
0000
0000
0000
0000
0000
0000
0000
0000
0000
0000
0000
0000
0000
0000
0000
0000
0000
0000
0000
0002
0000
0000
0000
0000
0000
0000
0000
0000
0000
0000
0000
0000
0000
0000
0000
0000
0000
0000
0000
0000
0000
0000
0000
0023
0030
0000
0000
0000
0000
0000
0000
0000
0000
0000
0000
0000
0000
0000
0000
0000
0000
0000
0000
0000
0000
0000
0000
0000
0000
0000
0000
0000
0000
0000
0000
0000
0000
0000
0000
0000
0000
0000
0000
0000
0000
0000
0000
0000
0000
0000
0000
,  // measure 54
0001
0000
0000
0000
0000
0000
0000
0000
0000
0000
0000
0000
0000
0000
0000
0000
0000
0000
0000
0000
0000
0000
0000
0000
0010
0000
0000
0000
0000
0000
0000
0000
0000
0000
0000
0000
0010
0000
0000
0000
0000
0000
0000
0000
0000
0000
0000
0000
0010
0000
0000
0000
0000
0000
0000
0000
0000
0000
0000
0000
0000
0000
0000
0000
0000
0000
0000
0000
0000
0000
0000
0000
0100
0000
0000
0000
0000
0000
0000
0000
0000
0000
0000
0000
0000
0000
0000
0000
0000
0000
0000
0000
0000
0000
0000
0000
1000
0000
0000
0000
0000
0000
0000
0000
0000
0000
0000
0000
0000
0000
0000
0000
0000
0000
0000
0000
0000
0000
0000
0000
0002
0000
0000
0000
0000
0000
0000
0000
0000
0000
0000
0000
0000
0000
0000
0000
0000
0000
0000
0000
0000
0000
0000
0000
2003
3000
0000
0000
0000
0000
0000
0000
0000
0000
0000
0000
0000
0000
0000
0000
0000
0000
0000
0000
0000
0000
0000
0000
0000
0000
0000
0000
0000
0000
0000
0000
0000
0000
0000
0000
0000
0000
0000
0000
0000
0000
0000
0000
0000
0000
0000
0000
,  // measure 55
0001
0000
0000
0000
0000
0000
0000
0000
0000
0000
0000
0000
0000
0000
0000
0000
0000
0000
0000
0000
0000
0000
0000
0000
0100
0000
0000
0000
0000
0000
0000
0000
0000
0000
0000
0000
0100
0000
0000
0000
0000
0000
0000
0000
0000
0000
0000
0000
0100
0000
0000
0000
0000
0000
0000
0000
0000
0000
0000
0000
0000
0000
0000
0000
0000
0000
0000
0000
0000
0000
0000
0000
0010
0000
0000
0000
0000
0000
0000
0000
0000
0000
0000
0000
0000
0000
0000
0000
0000
0000
0000
0000
0000
0000
0000
0000
0100
0000
0000
0000
0000
0000
0000
0000
0000
0000
0000
0000
0000
0000
0000
0000
0000
0000
0000
0000
0000
0000
0000
0000
0200
0000
0000
0000
0000
0000
0000
0000
0000
0000
0000
0000
0000
0000
0000
0000
0000
0000
0000
0000
0000
0000
0000
0000
2300
3000
0000
0000
0000
0000
0000
0000
0000
0000
0000
0000
0000
0000
0000
0000
0000
0000
0000
0000
0000
0000
0000
0000
0000
0000
0000
0000
0000
0000
0000
0000
0000
0000
0000
0000
0000
0000
0000
0000
0000
0000
0000
0000
0000
0000
0000
0000
,  // measure 56
0110
2002
0000
0000
0000
0000
0000
0000
0000
0000
0000
0000
0000
0000
0000
0000
0000
0000
0000
0000
0000
0000
0000
0000
0000
0000
0000
0000
0000
0000
0000
0000
0000
0000
0000
0000
0000
0000
0000
0000
0000
0000
0000
0000
0000
0000
0000
0000
0003
0000
0000
0000
0000
0000
0000
0000
0000
0000
0000
0000
0000
0000
0000
0000
0000
0000
0000
0000
0000
0000
0000
0000
0010
0000
0000
0000
0000
0000
0000
0000
0000
0000
0000
0000
0000
0000
0000
0000
0000
0000
0000
0000
0000
0000
0000
0000
0000
0000
0000
0000
0000
0000
0000
0000
0000
0000
0000
0000
0000
0000
0000
0000
0000
0000
0000
0000
0000
0000
0000
0000
0010
0000
0000
0000
0000
0000
0000
0000
0000
0000
0000
0000
0000
0000
0000
0000
0000
0000
0000
0000
0000
0000
0000
0000
0000
0000
0000
0000
0000
0000
0000
0000
0000
0000
0000
0000
0000
0000
0000
0000
0000
0000
0000
0000
0000
0000
0000
0000
0010
0000
0000
0000
0000
0000
0000
0000
0000
0000
0000
0000
0000
0000
0000
0000
0000
0000
0000
0000
0000
0000
0000
0000
,  // measure 57
3001
0100
0010
0010
0000
1000
0010
0001
,  // measure 58
0010
1000
0100
0000
1100
0000
0100
0000
,  // measure 59
0011
0000
1000
1000
0010
0010
0100
0001
,  // measure 60
0000
0101
0000
1020
0000
0100
0000
0130
,  // measure 61
0001
1000
0010
0010
0000
1000
0100
0010
,  // measure 62
0100
1000
0000
0001
0000
0100
0001
0000
,  // measure 63
1000
0100
0001
0100
0010
0100
1000
0000
,  // measure 64
0001
0000
0001
0000
0010
0M00
0010
0000
1000
0000
1000
0000
0010
0M00
0010
0000
,  // measure 65
0001
1000
0010
0010
0000
1001
0000
0100
,  // measure 66
0010
0100
0010
0000
0110
0000
1001
0000
,  // measure 67
0001
0010
1000
0010
0001
0000
1000
0010
,  // measure 68
0100
0001
0010
0100
0000
1000
0000
0001
,  // measure 69
0100
0001
0010
0010
0000
0001
1000
0010
,  // measure 70
0100
0001
0010
0001
0000
1000
0100
0000
,  // measure 71
1000
0010
0001
0010
0100
0010
1000
0000
,  // measure 72
0001
0000
0001
0000
0100
00M0
0100
0000
1000
0000
1000
0000
0100
00M0
0100
0000
,  // measure 73
0001
0010
0100
1000
0000
0100
0010
0001
,  // measure 74
1000
0010
0100
0000
0110
0000
1001
0000
,  // measure 75
1000
0000
0001
0010
1000
0010
0200
1000
,  // measure 76
0000
0000
0001
0000
0000
0000
2000
0000
0300
0000
0000
0010
3000
0000
0010
0000
,  // measure 77
1000
0001
0010
0010
0000
0001
0100
1000
,  // measure 78
0100
0010
0100
0001
0000
1000
0010
0000
,  // measure 79
1010
0001
0000
0000
0000
0000
0000
0000
0000
0000
0000
0000
0M00
0000
0000
0000
0000
0000
0000
0000
0000
0000
0000
0000
0001
0000
0000
0000
0000
0000
0000
0000
0000
0000
0000
0000
0000
0000
0000
0000
0000
0000
0000
0000
0000
0000
0000
0000
0100
0000
0000
0000
0000
0000
0000
0000
0000
0000
0000
0000
M000
0000
0000
0000
0000
0000
0000
0000
0000
0000
0000
0000
0100
0000
0000
0000
0000
0000
0000
0000
0000
0000
0000
0000
0000
0000
0000
0000
0000
0000
0000
0000
0000
0000
0000
0000
1000
0000
0000
0000
0000
0000
0000
0000
0000
0000
0000
0000
00M0
0000
0000
0000
0000
0000
0000
0000
0000
0000
0000
0000
1000
0000
0000
0000
0000
0000
0000
0000
0000
0000
0000
0000
0000
0000
0000
0000
0000
0000
0000
0000
0000
0000
0000
0000
0010
0000
0000
0000
0000
0000
0000
0000
0000
0000
0000
0000
000M
0000
0000
0000
0000
0000
0000
0000
0000
0000
0000
0000
0010
0000
0000
0000
0000
0000
0000
0000
0000
0000
0000
0000
0000
0000
0000
0000
0000
0000
0000
0000
0000
0000
0000
0000
;
