#TITLE:EVERYTHING COUNTS;
#SUBTITLE:;
#ARTIST:SUBSONIC FORCE;
#TITLETRANSLIT:;
#SUBTITLETRANSLIT:;
#ARTISTTRANSLIT:;
#GENRE:;
#CREDIT:;
#BANNER:[Round D] - EVERYTHING COUNTS.png;
#BACKGROUND:[Round D] - EVERYTHING COUNTS-bg.png;
#LYRICSPATH:;
#CDTITLE:cdtitle.png;
#MUSIC:[Round D] - EVERYTHING COUNTS.ogg;
#OFFSET:-0.002000;
#SAMPLESTART:28.670000;
#SAMPLELENGTH:12.000000;
#SELECTABLE:YES;
#BPMS:0.000000=166.389999
;
#STOPS:
;
#BGCHANGES:;
#KEYSOUNDS:;
#ATTACKS:;

//---------------dance-single - ----------------
#NOTES:
     dance-single:
     :
     Beginner:
     1:
     0.085284,0.195992,0.045056,0.000000,0.000000,53.000000,49.000000,4.000000,0.000000,0.000000,0.000000,0.085284,0.195992,0.045056,0.000000,0.000000,53.000000,49.000000,4.000000,0.000000,0.000000,0.000000:
// measure 0
0000
0000
0000
0000
,  // measure 1
0000
0000
0000
0000
,  // measure 2
0000
0000
0000
0000
,  // measure 3
0000
0000
0000
0000
,  // measure 4
0001
0000
0000
0000
,  // measure 5
0000
0000
0000
0000
,  // measure 6
1000
0000
0000
0000
,  // measure 7
0000
0000
0000
0000
,  // measure 8
0010
0000
0000
0000
,  // measure 9
0000
0000
0000
0000
,  // measure 10
0100
0000
0000
0000
,  // measure 11
0000
0000
0000
0000
,  // measure 12
1001
0000
0000
0000
,  // measure 13
0000
0000
0000
0000
,  // measure 14
0000
0000
0000
0000
,  // measure 15
0000
0000
0000
0000
,  // measure 16
1001
0000
0000
0000
,  // measure 17
0000
0000
0000
1001
,  // measure 18
1001
0000
0000
0000
,  // measure 19
0010
0000
0000
0000
,  // measure 20
0100
0000
0000
0000
,  // measure 21
0010
0000
0000
0000
,  // measure 22
0100
0000
0000
0000
,  // measure 23
0010
0000
0000
0000
,  // measure 24
1000
0000
0000
0000
,  // measure 25
0001
0000
0000
0000
,  // measure 26
1000
0000
0000
0000
,  // measure 27
0001
0000
0000
0000
,  // measure 28
1000
0000
0000
0000
,  // measure 29
0000
0000
0000
0000
,  // measure 30
0001
0000
0000
0000
,  // measure 31
0000
0000
0000
0000
,  // measure 32
0010
0000
0000
0000
,  // measure 33
0000
0000
0000
0000
,  // measure 34
0100
0000
0000
0000
,  // measure 35
0000
0000
0000
0000
,  // measure 36
1000
0000
1000
0000
,  // measure 37
1000
0000
0000
0000
,  // measure 38
0001
0000
0001
0000
,  // measure 39
0001
0000
0000
0000
,  // measure 40
1000
0000
1000
0000
,  // measure 41
1000
0000
0000
0000
,  // measure 42
0001
0000
0001
0000
,  // measure 43
0001
0000
0000
0000
,  // measure 44
1000
0000
0001
0000
,  // measure 45
1000
0000
0000
0000
,  // measure 46
0010
0000
0100
0000
,  // measure 47
0010
0000
0000
0000
,  // measure 48
1000
0000
0100
0000
,  // measure 49
1000
0000
0000
0000
,  // measure 50
0001
0000
0010
0000
,  // measure 51
0001
0000
0000
0000
,  // measure 52
1000
0000
0000
0000
,  // measure 53
0000
0000
0000
0000
,  // measure 54
0100
0000
0000
0000
,  // measure 55
0000
0000
0000
0000
,  // measure 56
0010
0000
0000
0000
,  // measure 57
0000
0000
0000
0000
,  // measure 58
0001
0000
0000
0000
;

//---------------dance-single - ----------------
#NOTES:
     dance-single:
     :
     Easy:
     4:
     0.321826,0.301592,0.033792,0.000000,0.000000,200.000000,197.000000,3.000000,0.000000,0.000000,0.000000,0.321826,0.301592,0.033792,0.000000,0.000000,200.000000,197.000000,3.000000,0.000000,0.000000,0.000000:
0000
0000
0000
0000
,
0000
0000
0000
0000
,
0000
0000
0000
0000
,
0000
0000
0000
0000
,
0010
0010
0100
0100
,
1000
1000
0001
0001
,
0100
0100
0010
0010
,
1000
1000
0001
0001
,
0010
0010
0100
0100
,
1000
1000
0001
0001
,
0100
0100
0010
0010
,
1000
1000
0001
0001
,
0010
0000
0000
0000
,
0100
0000
0000
0000
,
1000
0010
0100
0000
,
0001
0010
0100
0000
,
1001
0000
0000
0000
,
0000
0000
0000
0110
,
1001
0000
0000
0000
,
1000
0010
0100
0001
,
0010
0001
1000
0100
,
1000
0010
0100
0001
,
0010
0100
1000
0001
,
0100
1000
0100
0001
,
0010
0100
1000
0010
,
1000
0100
0010
0001
,
1000
0010
0001
0010
,
1000
0100
0010
0000
,
0001
0000
0000
0001
0000
0000
0000
0000
,
1000
0100
0010
0001
,
1000
0000
0000
1000
0000
0000
0000
0000
,
0001
0100
0010
1000
,
0001
0000
0000
0001
0000
0000
0000
0000
,
1000
0010
0100
0001
,
1000
0000
0000
1000
0000
0000
0000
0000
,
0001
0010
0100
1000
,
0001
0001
0100
0100
,
1000
1000
0100
0100
,
0001
0001
0010
0010
,
0100
0100
1000
1000
,
1000
1000
0010
0010
,
0001
0001
0010
0010
,
1000
1000
0100
0100
,
0010
0010
0001
0001
,
0000
1000
0000
1000
0000
1000
0000
1000
,
0000
0001
0000
0001
0000
0001
0000
0001
,
0000
0100
0000
0100
0000
0100
0000
0100
,
0000
0010
0000
0010
0000
0010
0000
0010
,
0000
1000
0000
1000
0000
0001
0000
0001
,
0000
0010
0000
0010
0000
0100
0000
0100
,
0000
1000
0000
1000
0000
0001
0000
0001
,
0100
0010
1000
0001
,
0010
0010
0100
0100
,
1000
1000
0001
0001
,
0100
0100
0010
0010
,
1000
1000
0100
0100
,
0010
0010
0001
0001
,
0100
0100
0010
0010
,
1000
1000
0100
0100
,
0001
0100
1000
0000
;

//---------------dance-single - ----------------
#NOTES:
     dance-single:
     :
     Medium:
     6:
     0.426420,0.501597,0.180223,0.000000,0.000000,265.000000,249.000000,16.000000,0.000000,0.000000,0.000000,0.426420,0.501597,0.180223,0.000000,0.000000,265.000000,249.000000,16.000000,0.000000,0.000000,0.000000:
0000
0000
0000
0000
,
0000
0000
0000
0000
,
0000
0000
0000
0000
,
0000
0000
0000
0000
,
0001
0001
0010
0010
,
0100
0100
1000
1000
,
0001
0001
1000
1000
,
0010
0010
0100
0100
,
0001
0001
0010
0010
,
0100
0100
1000
1000
,
0001
0001
1000
1000
,
0010
0010
0100
0100
,
0001
0010
0100
1000
0000
0000
0000
0000
,
0001
0000
0000
1000
0000
0000
0000
0000
,
1000
0010
0100
0000
0001
0000
1000
0001
,
0000
0000
0010
0100
0000
0000
0000
0000
,
1000
0010
0100
0001
0000
0000
0000
0000
,
1000
0000
0000
0001
0000
0000
0000
0000
,
0001
0010
0100
0000
1000
0000
0001
1000
,
0000
0000
0010
0100
0000
0000
0000
0000
,
1001
1001
0110
0110
,
0001
1000
0001
1000
0000
0000
0001
0000
,
0101
0101
1010
1010
,
0001
0010
0100
1000
,
1100
1100
0011
0011
,
1000
0010
1000
0010
0000
0000
0001
0000
,
0011
0011
1100
1100
,
1000
0010
0100
0001
,
1000
0001
1000
0010
0100
0010
0000
0000
,
0000
0100
0000
0100
0000
0100
0000
0100
,
0010
0100
0010
1000
0001
1000
0000
0000
,
0000
0001
0000
0001
0000
0001
0001
0001
,
1000
0100
1000
0100
0010
0100
0000
0000
,
0000
0010
0000
0010
0000
0010
0000
0010
,
0001
0100
0001
1000
0010
1000
0000
0000
,
0000
0001
0000
0001
0000
0001
0001
0001
,
1000
0100
1000
0000
0100
0010
0100
0000
,
0001
0100
0001
0000
0100
1000
0100
0000
,
1000
0010
1000
0000
0010
0100
0010
0000
,
0001
0010
0001
0000
0010
1000
0010
0000
,
1000
0001
0100
0000
0001
1000
0100
0000
,
1000
0001
0010
0000
0001
1000
0010
0000
,
1000
0010
0001
0000
0001
0010
1000
0000
,
0100
1000
0100
1000
0001
0100
0010
1000
,
0000
1000
0000
1000
0000
0100
0000
0100
,
0000
0001
0000
0001
0000
0100
0000
0100
,
0000
1000
0000
1000
0000
0010
0000
0010
,
0000
0001
0000
0001
0000
0010
0000
0010
,
0000
1000
0000
0100
0000
0001
0000
0100
,
0000
1000
0000
0010
0000
0001
0000
0010
,
0000
1000
0000
0001
0000
0100
0000
1000
,
0100
0001
0010
0100
,
1000
0010
0100
0001
,
0010
0100
1000
0001
,
1000
0010
0100
0001
,
0010
0001
0100
0010
,
1000
0100
0001
0010
,
1000
0010
0001
0100
,
1000
0000
0010
0000
0100
0000
0001
0010
,
0000
0000
0100
1000
0000
0000
0000
0000
;

//---------------dance-single - ----------------
#NOTES:
     dance-single:
     :
     Hard:
     8:
     0.522968,0.601916,0.315390,0.000000,0.028160,325.000000,297.000000,28.000000,0.000000,0.000000,0.000000,0.522968,0.601916,0.315390,0.000000,0.028160,325.000000,297.000000,28.000000,0.000000,0.000000,0.000000:
0000
0000
0000
0000
,
0000
0000
0000
0000
,
0000
0000
0000
0000
,
0000
0000
0000
0000
,
1000
1000
0010
0010
,
0001
0000
0000
0000
0001
0000
0000
0000
0010
0000
0000
0000
0010
0000
0000
0010
,
0100
0100
0001
0001
,
0010
0000
0010
0000
0100
0000
0100
0100
,
1000
1000
0001
0001
,
0100
0000
0000
0000
0100
0000
0000
0000
1000
0000
0000
0000
1000
0000
0000
1000
,
0100
0100
0001
0001
,
0010
0000
0010
0000
0100
0000
0100
0100
,
1000
0000
0001
0100
0000
0000
0000
0000
,
0010
0000
1000
0001
0000
0000
0000
0000
,
0010
0000
0010
0000
0100
0000
0100
1000
,
0000
0000
0001
0100
0000
0000
0000
0000
,
1010
0000
0100
0000
,
0010
0000
0001
0011
,
1010
0000
0000
0000
,
0001
0000
0000
0100
0001
0000
0100
0000
0010
0000
1000
0000
0010
0000
1000
0000
,
0001
0010
0100
1000
0001
0000
0100
0000
,
0010
1000
0100
1000
0010
0000
0100
0000
,
0001
0010
0100
1000
0001
0000
0100
0000
,
0010
1000
0100
1000
0010
0000
0100
0001
,
0010
0000
0100
1000
0001
0000
1000
0000
,
0010
0100
0001
0100
0010
0000
1000
0000
,
0001
0000
0010
0100
1000
0000
0100
0000
,
0010
0001
0100
0000
0010
0000
0000
0000
,
0001
0010
1000
0001
0010
1000
0001
0000
,
1000
0010
0100
0010
0001
0010
0100
0010
,
1000
0100
0001
1000
0100
0001
0000
0000
,
0100
1000
0010
1000
0001
1000
1000
1000
,
0001
0010
1000
0001
0010
1000
0000
0000
,
0010
0100
0001
0100
0010
0100
1000
0100
,
0001
0010
0100
0001
0010
0100
0000
0000
,
1000
0000
0000
0001
1000
0000
0010
0000
0100
0000
0001
0000
0010
0000
0100
0000
,
1000
1000
0001
0001
0100
0100
0010
0010
,
1000
1000
0100
0100
0001
0001
0100
0100
,
1000
1000
0010
0010
0100
0100
1000
1000
,
0100
0100
0001
0001
0010
0010
0100
0100
,
1000
1000
0100
0100
0001
0001
0100
0100
,
0010
0010
0001
0001
0010
0010
1000
1000
,
0100
0100
0001
0001
0100
0100
1000
1000
,
0100
0100
1000
1000
0010
0010
0001
0001
,
0000
0110
0000
0110
0000
1001
0000
1001
,
0000
0101
0000
0101
0000
0011
0000
1100
,
0000
0101
0000
0101
0000
1010
0000
1010
,
0000
0011
0000
0011
0000
0100
1000
0100
,
0000
0011
0000
1010
0000
1001
0000
0110
,
0000
0011
0000
1100
0000
1010
0000
0101
,
0000
0011
0000
0110
0000
1100
0000
0001
,
1000
0000
0000
0100
1000
0000
0100
0000
0010
0000
0100
0000
0001
0000
0100
0000
,
1000
1000
0100
0100
,
0001
0001
0010
0010
,
1000
1000
0100
0100
,
0001
0001
0100
0100
,
1000
1000
0010
0010
,
0001
0001
0100
0100
,
1000
1000
0001
0001
,
1000
0000
0010
0100
0000
0000
0000
0000
;
