#VERSION:0.82;
#TITLE:CERBERUS;
#SUBTITLE:;
#ARTIST:Gowrock;
#TITLETRANSLIT:;
#SUBTITLETRANSLIT:;
#ARTISTTRANSLIT:;
#GENRE:;
#ORIGIN:;
#CREDIT:;
#BANNER:Cerberus.png;
#BACKGROUND:Cerberus-bg.png;
#PREVIEWVID:;
#JACKET:Cerberus-jacket.png;
#CDIMAGE:;
#DISCIMAGE:;
#LYRICSPATH:;
#CDTITLE:;
#MUSIC:Cerberus.ogg;
#OFFSET:-0.242114;
#SAMPLESTART:24.794001;
#SAMPLELENGTH:15.000000;
#SELECTABLE:YES;
#BPMS:0.000=176.000;
#STOPS:;
#DELAYS:;
#WARPS:;
#TIMESIGNATURES:0.000=4=4;
#TICKCOUNTS:0.000=4;
#COMBOS:0.000=1;
#SPEEDS:0.000=1.000=0.000=0;
#SCROLLS:0.000=1.000;
#FAKES:;
#LABELS:0.000=Song Start;
#BGCHANGES:;
#KEYSOUNDS:;
#ATTACKS:
;

//---------------dance-single - ----------------
#NOTEDATA:;
#CHARTNAME:;
#STEPSTYPE:dance-single;
#DESCRIPTION:;
#CHARTSTYLE:;
#DIFFICULTY:Beginner;
#METER:2;
#RADARVALUES:0.181971,0.207520,0.050615,0.101229,0.000000,133.000000,6.000000,12.000000,0.000000,0.000000,0.000000,0.000000,0.000000,0.181971,0.207520,0.050615,0.101229,0.000000,133.000000,6.000000,12.000000,0.000000,0.000000,0.000000,0.000000,0.000000;
#CREDIT:;
#NOTES:
0000
0000
0000
0000
,
0000
0000
0000
0000
,
0000
0000
0000
0000
,
0000
0000
0000
0000
,
0000
0000
0000
0000
,
0000
0000
0000
0000
,
0000
0000
0000
0000
,
0000
0000
0000
0000
,
0000
0000
0000
0000
,
1000
0000
1000
0000
,
0100
0000
0100
0000
,
0001
0000
0001
0000
,
0010
0000
0010
0000
,
1000
0000
1000
0000
,
0010
0000
0010
0000
,
0001
0000
0001
0000
,
0100
0000
0100
0000
,
2000
0000
0000
3000
,
1000
1000
0100
0000
,
1000
1000
0001
0000
,
1000
1000
0010
0000
,
0100
0100
0010
0000
,
0001
0001
0100
0000
,
0001
0001
1000
0000
,
0001
0001
0010
0000
,
0010
0010
0100
0000
,
1000
0001
0000
0001
,
0000
0010
0000
0010
,
0000
0001
0000
0001
,
0000
0100
0000
0100
,
0001
1000
0000
1000
,
0000
0100
0000
0100
,
0000
1000
0000
1000
,
0020
0000
0000
0030
,
0000
1000
1000
1000
,
1000
0000
0000
1000
0000
0000
1000
0000
,
0002
0000
0000
0000
,
0000
0000
0000
0003
,
0000
0001
0001
0001
,
0001
0000
0000
0001
0000
0000
0001
0000
,
2000
0000
0000
0000
,
0000
0000
0000
3000
,
0000
1000
0001
1000
,
0001
0000
0000
0001
0000
0000
0001
0000
,
0200
0000
0000
0000
,
0000
0000
0000
0300
,
0000
0001
1000
0001
,
1000
0000
0000
1000
0000
0000
1000
0000
,
0020
0000
0000
0030
,
0200
0000
0000
0000
,
0300
0000
0000
0000
,
0000
0000
0000
0000
,
0000
0000
0000
0000
,
0000
0000
0000
0000
,
0002
0000
0000
0000
,
0000
0000
0000
0000
,
2003
0000
0000
0000
,
0000
0000
0000
0000
,
3000
0100
0000
0100
,
0000
0010
0000
0010
,
0000
0100
0000
0100
,
0000
0010
0000
0010
,
0000
0100
0000
1000
,
0000
0001
0000
0100
,
0020
0000
0000
0000
,
0000
0000
0000
0030
,
0000
0001
0000
1000
,
0000
0010
0000
0100
,
0000
0001
0000
1000
,
0000
0010
0000
0100
,
0000
0001
0000
0100
,
0000
0010
0000
1000
,
1000
0000
0000
0000
0000
0000
0000
0001
,
0000
0001
0000
0001
0000
0001
0000
0000
,
0000
0001
0000
1001
,
0000
0010
0000
1001
,
0000
1000
0000
1001
,
0000
0100
0000
1001
,
2002
0000
0000
0000
,
0000
0000
0000
3003
,
0001
0000
1000
0000
,
0010
0000
0100
0000
,
1001
0000
0000
0000
;

//---------------dance-single - ----------------
#NOTEDATA:;
#CHARTNAME:;
#STEPSTYPE:dance-single;
#DESCRIPTION:;
#CHARTSTYLE:;
#DIFFICULTY:Easy;
#METER:4;
#RADARVALUES:0.260303,0.449626,0.025307,0.278380,0.000000,180.000000,3.000000,33.000000,0.000000,0.000000,0.000000,0.000000,0.000000,0.260303,0.449626,0.025307,0.278380,0.000000,180.000000,3.000000,33.000000,0.000000,0.000000,0.000000,0.000000,0.000000;
#CREDIT:;
#NOTES:
0000
0000
0000
0000
,
0000
0000
0000
0000
,
0000
0000
0000
0000
,
0000
0000
0000
0000
,
0000
0000
0000
0000
,
0000
0000
0000
0000
,
0000
0000
0000
0000
,
0000
0000
0000
0000
,
0000
0000
0000
0000
,
2000
0001
0000
0001
,
0000
0100
0000
3100
,
0002
1000
0000
1000
,
0000
0010
0000
0013
,
2000
0010
0000
3001
,
0002
0100
0000
1003
,
2000
3100
0002
0013
,
1000
1000
1000
2000
,
0000
0000
0000
3000
,
0001
0001
0100
0002
,
0000
0010
0000
0013
,
1000
1000
0001
2000
,
0000
0100
0000
3100
,
0001
0100
0001
0020
,
0000
0001
0000
0031
,
0001
1000
0010
0100
,
0200
0000
0000
0300
,
0001
0200
0000
0010
,
0000
1000
0000
0310
,
0001
0020
0000
0100
,
0000
1000
0000
0130
,
0001
0010
0001
0000
,
1000
0010
1000
0000
,
0001
0010
0100
1000
,
0020
0000
0000
0000
,
0030
1000
0001
1000
,
0100
0000
0000
1000
0000
0000
0100
0000
,
0200
0010
0000
0010
,
0000
0010
0000
0310
,
1000
0001
1000
0001
,
0100
0000
0000
0001
0000
0000
0100
0000
,
0200
0320
2030
0000
,
3002
0023
0230
1300
,
0000
0001
0100
0001
,
1000
0000
0000
0010
0000
0000
1000
0000
,
0200
0000
0000
0000
,
0010
0010
0020
0000
,
0330
1001
0001
0100
,
0001
0000
0000
1000
0000
0000
0001
0000
,
0020
0000
0000
0000
,
0200
0000
0000
0330
,
0110
0000
0000
0000
,
0000
0000
0000
0000
,
0000
0000
0000
0000
,
0000
0000
0000
0000
,
1000
0000
0000
1000
0000
0000
0100
0000
,
0000
0100
0000
0000
1000
0000
1000
0000
,
0001
0000
0000
0001
0000
0000
0100
0000
,
0000
0100
0000
0000
0001
0000
0010
0000
,
0001
1000
0000
1000
,
0000
0100
0000
0100
,
0000
0001
0000
0001
,
0000
0010
0000
0010
,
0000
1000
0000
0100
,
0000
0001
0000
0010
,
1000
0100
0001
0010
,
0020
0000
0000
0030
,
1000
0000
0100
0000
,
1000
1000
0100
0010
,
0001
0000
0010
0000
,
0001
0001
0100
0010
,
0100
0000
0001
0000
,
1000
0000
0100
0000
,
0020
0000
0000
0000
0000
0000
0030
0001
,
0000
0001
0000
1000
0000
2000
0000
0000
,
3001
0000
0100
0000
,
0010
0000
1000
0000
,
0001
0000
0010
0000
,
0100
0000
1000
0000
,
0200
0010
0000
0320
,
0000
0100
0000
0130
,
0002
0000
2003
0000
,
3020
0000
0000
0030
,
1001
0000
0000
0000
;

//---------------dance-single - ----------------
#NOTEDATA:;
#CHARTNAME:;
#STEPSTYPE:dance-single;
#DESCRIPTION:;
#CHARTSTYLE:;
#DIFFICULTY:Medium;
#METER:6;
#RADARVALUES:0.420583,0.449626,0.050615,0.455531,0.126536,289.000000,6.000000,54.000000,0.000000,0.000000,0.000000,0.000000,0.000000,0.420583,0.449626,0.050615,0.455531,0.126536,289.000000,6.000000,54.000000,0.000000,0.000000,0.000000,0.000000,0.000000;
#CREDIT:;
#NOTES:
0000
0000
0000
0000
,
0000
0000
0000
0000
,
0000
0000
0000
0000
,
0000
0000
0000
0000
,
0000
0000
0000
0000
,
0000
0000
0000
0000
0000
0000
0000
0000
1000
0000
0000
1000
0000
0000
1000
0000
,
0000
0000
0000
0000
0000
0000
0000
0000
0100
0000
0000
0100
0000
0000
0100
0000
,
0000
0000
0000
0000
0000
0000
0000
0000
0001
0000
0000
0001
0000
0000
0001
0000
,
0000
0000
0000
0000
0000
0000
0000
0000
0010
0000
0000
0010
0000
0000
0000
0000
,
2002
0000
0000
0000
,
0000
0000
0000
3003
,
0000
0000
0000
0000
0100
0000
0000
0000
0010
0000
0000
0010
0000
0000
0010
0000
,
0000
0000
0000
0000
0001
0000
0000
0000
0100
0000
0000
0100
0000
0000
0100
0000
,
0010
0000
0000
0000
1000
0000
0000
0000
0001
0000
0000
0100
0000
0000
0001
0000
,
1000
0000
0000
0000
0100
0000
0000
0000
0010
0000
0000
0001
0000
0000
0010
0000
,
0001
0000
0000
0000
0100
0000
0000
0000
0010
0000
0000
1000
0000
0000
0010
0000
,
0100
0000
0100
0000
0100
0010
0100
0020
,
0000
0000
0000
1030
,
0001
0000
0000
0000
0100
0000
0000
0000
0001
0000
0000
1000
0000
0000
0001
0000
,
1000
0000
0000
0000
0100
0000
0000
0000
1000
0000
0000
0001
0000
0000
1000
0000
,
0001
0000
0000
0000
0010
0000
0000
0000
0001
0000
0000
0100
0000
0000
0001
0000
,
1000
0000
0000
0000
0100
0000
0000
0000
1000
0000
0000
0001
0000
0000
0010
0000
,
0001
0000
0000
0000
0100
0000
0000
0000
0010
0000
0000
0010
0000
0000
1000
0000
,
0001
0000
0000
0000
1000
0000
0000
0000
0010
0000
0000
0100
0000
0000
0010
0000
,
1000
0000
0000
0000
0100
0000
0000
0000
0010
0000
0000
0010
0000
0000
0001
0000
,
0000
1000
0000
0000
0100
0000
0000
1000
0000
0000
0001
0000
0100
0000
0100
0000
,
0020
1030
0200
1300
,
0020
0000
1030
0000
0100
1000
0100
0000
,
0020
0031
0200
0301
,
0020
0000
0130
0000
1000
0010
1000
0000
,
0002
0000
0103
0000
0001
0010
0001
0000
,
2000
0000
3010
0000
0100
0001
0100
0000
,
1000
0100
1000
0000
0001
0010
0001
0000
,
1000
0000
0001
0000
0100
0010
0100
0010
,
0000
0001
0100
0101
,
2000
0000
0000
3000
0000
0000
2000
0000
0000
3000
0000
0000
1000
0000
0000
0000
,
0020
0100
0000
1000
,
0000
0100
1000
0130
,
1000
0001
1000
1100
,
0002
0000
0000
0003
0000
0000
0002
0000
0000
0003
0000
0000
0001
0000
0000
0000
,
2000
3002
0023
0000
,
0230
0000
1300
0100
1000
0001
0100
0000
,
0100
0001
0010
0011
,
0200
0000
0000
0300
0000
0000
0200
0000
0000
0300
0000
0000
0100
0000
0000
0000
,
1000
0100
0010
0001
,
0100
0000
0010
0000
1000
0001
1000
0001
,
0000
1000
0010
0110
,
0002
0000
0000
2003
0000
0000
3001
0000
,
2000
0000
0000
0000
0000
0000
3000
0100
,
0020
0000
0000
0030
,
0002
0000
0000
0203
,
0000
0000
0320
0000
,
2030
0000
0000
3002
,
0000
0000
0023
0000
,
0032
0000
0000
0203
0000
0000
2300
0000
,
0000
3200
0000
0000
0302
0000
0000
0000
,
0023
0000
0000
2030
0000
0000
3020
0000
,
0000
0032
0000
0000
0103
0000
0001
0000
,
2000
0100
0000
0001
,
0000
0010
0000
3002
,
0000
0100
0000
1000
,
0000
0100
0000
0013
,
0200
0000
0000
2300
0000
0000
3010
0000
,
0200
0000
0000
0302
0000
0000
0013
0000
,
0001
1000
0000
0010
0100
0000
0001
1000
,
0200
0000
0000
0300
,
1000
0000
0001
0000
0010
0100
1000
0000
,
0001
0000
0000
0000
1000
0000
0000
0000
0001
0000
0000
0100
0000
0000
0020
0000
,
0000
0130
0001
1000
,
0100
0000
0000
0010
0000
0000
0001
0000
1000
0000
0000
0010
0000
0000
0100
0000
,
0001
0000
0100
0000
0010
1000
0001
0000
,
1000
0000
0000
0000
0100
0000
0000
0000
0010
0000
0000
0001
0000
0000
0020
0000
,
0000
0000
0130
1000
0000
0010
0000
0200
,
0000
0001
0000
1000
0000
0302
0000
0000
,
1003
0100
1000
1000
,
0001
0000
0100
0000
0001
0010
0100
0000
,
0001
0000
1000
0000
0010
0000
0010
0100
,
0001
0000
0000
1000
0000
0000
0010
0000
1000
0000
0000
0001
0000
0000
0010
0000
,
0100
0000
0000
0100
0000
0000
0100
0000
0000
1000
0000
0000
0001
0000
0100
0000
,
0010
0000
0000
0010
0000
0000
0010
0000
0100
0000
0000
0001
0000
0000
0020
0000
,
0000
0000
0000
0031
0000
0000
0010
0000
0000
0000
0000
1000
0000
0000
0020
0000
,
0000
0000
0000
0030
,
1001
0000
0000
0000
;

//---------------dance-single - ----------------
#NOTEDATA:;
#CHARTNAME:;
#STEPSTYPE:dance-single;
#DESCRIPTION:;
#CHARTSTYLE:;
#DIFFICULTY:Hard;
#METER:8;
#RADARVALUES:0.554350,0.587972,0.236201,0.438659,0.261508,380.000000,28.000000,52.000000,0.000000,0.000000,5.000000,0.000000,0.000000,0.554350,0.587972,0.236201,0.438659,0.261508,380.000000,28.000000,52.000000,0.000000,0.000000,5.000000,0.000000,0.000000;
#CREDIT:;
#NOTES:
// measure 0
0000
0000
0000
0000
,  // measure 1
0000
0000
0000
0000
,  // measure 2
0000
0000
0000
0000
,  // measure 3
0000
0000
0000
0000
,  // measure 4
0000
0000
0000
0000
,  // measure 5
1000
0000
0000
0000
1000
0000
0000
0000
0001
0000
0000
0100
0000
0000
0001
0000
,  // measure 6
0010
0000
0000
0000
0010
0000
0000
0000
0001
0000
0000
1000
0000
0000
0001
0000
,  // measure 7
0100
0000
0000
0000
0100
0000
0000
0000
0001
0000
0000
0010
0000
0000
0001
0000
,  // measure 8
1000
0000
0000
0000
0100
0000
0000
0000
0010
0000
0000
0010
0000
0000
0000
0000
,  // measure 9
2002
0000
0000
3003
,  // measure 10
1000
0000
0000
0000
0100
0000
0000
0000
0010
0000
0000
0100
0000
0000
1000
0000
,  // measure 11
0001
0000
0000
0000
0100
0000
0000
0000
0010
0000
0000
0100
0000
0000
0001
0000
,  // measure 12
1000
0000
0000
0000
0001
0000
0000
0000
0010
0000
0000
0001
0000
0000
0100
0000
,  // measure 13
0001
0000
0000
0000
0001
0000
0000
0000
0100
0000
0000
0100
0000
0000
0010
0000
,  // measure 14
1000
0000
0000
0000
1000
0000
0000
0000
0100
0000
0000
0100
0000
0000
0010
0000
,  // measure 15
0001
0000
0000
0000
1000
0000
0000
0000
0001
0000
0000
0010
0000
0000
0100
0000
,  // measure 16
1000
0001
1000
0010
0000
0001
0010
0001
,  // measure 17
0400
0000
0000
0310
,  // measure 18
1001
0000
0001
0000
0100
0000
0000
0000
0001
0000
0000
1000
0000
0000
0001
0000
,  // measure 19
1000
0000
0010
0000
1000
0000
0001
0000
0010
0000
0000
0100
0000
0000
1000
0000
,  // measure 20
0010
0000
0100
0000
0001
0000
0100
0000
0010
0000
0000
1000
0000
0000
0001
0000
,  // measure 21
0100
0000
0001
0000
0010
0000
0100
0000
1000
0000
0000
1000
0000
0000
1000
0000
,  // measure 22
0001
0000
0100
0000
0001
0000
1000
0000
0100
0000
0000
1000
0000
0000
0010
0000
,  // measure 23
0001
0000
0001
0000
0010
0000
1000
0000
0001
0000
0000
0100
0000
0000
0010
0000
,  // measure 24
0100
0000
0001
0000
0010
0000
0100
0000
1000
0000
0000
0001
0000
0000
1000
0000
,  // measure 25
0000
0010
0000
0000
0100
0000
0000
0001
0000
0000
0010
0000
1000
0000
0010
0000
,  // measure 26
0200
0000
1000
0000
0310
0000
0010
0001
,  // measure 27
0200
0000
0010
0000
1300
0000
0010
0100
,  // measure 28
0002
0000
1000
0000
0013
0000
0010
0100
,  // measure 29
2000
0000
0100
0000
3001
0000
0100
0010
,  // measure 30
0001
0000
0001
0000
1000
0000
0010
0000
0100
0000
0000
0100
0000
0000
0010
0000
,  // measure 31
1000
0000
1000
0000
0001
0000
0100
0000
0010
0000
0000
0010
0000
0000
1000
0000
,  // measure 32
0001
0000
1000
0000
0100
0000
0010
0000
0001
0000
0000
1000
0000
0000
0001
0000
,  // measure 33
1000
0010
1000
0001
0010
0100
0010
0001
,  // measure 34
1000
1100
1001
0101
,  // measure 35
0001
0000
0000
1000
0000
0000
0010
0000
0000
1000
0000
0000
0200
0000
0000
0000
,  // measure 36
0310
0000
0001
0000
1000
0000
0000
1000
0000
0000
0010
0000
1000
0000
0000
1000
,  // measure 37
0000
0001
0010
0001
1000
0010
0100
0000
,  // measure 38
0100
0110
1010
0011
,  // measure 39
1000
0000
0000
0001
0000
0000
0100
0000
0000
1000
0000
0000
0100
0000
0000
0000
,  // measure 40
0004
0000
0000
0000
0043
0000
0000
0000
0130
0000
0000
0100
0000
0000
0100
0000
,  // measure 41
4000
0000
3040
0000
1030
0001
0010
0010
,  // measure 42
0001
0101
0110
1010
,  // measure 43
0100
0000
0000
0001
0000
0000
0010
0000
0000
1000
0000
0000
0010
0000
0000
0000
,  // measure 44
0001
0100
0001
0010
0000
0000
1000
0100
1000
0010
0000
0000
,  // measure 45
0100
0100
0001
0001
0010
0100
1000
0001
,  // measure 46
1000
1001
0110
1001
,  // measure 47
0001
0000
0000
0100
0000
0000
1000
0000
0000
0010
0000
0000
0100
0000
0000
0000
,  // measure 48
0200
0000
0000
0000
0000
0000
0000
0000
0000
0000
0000
0000
0300
0000
0001
1000
,  // measure 49
0020
0000
0000
0030
,  // measure 50
0002
0000
0000
0203
0000
0000
0320
0000
,  // measure 51
0000
2030
0000
0000
3002
0000
2003
0000
,  // measure 52
3200
0000
0000
0320
0000
0000
0032
0000
,  // measure 53
0000
2003
0000
0000
3020
0000
0230
0000
,  // measure 54
0302
0000
0000
0023
0000
0000
0032
0000
,  // measure 55
0000
0203
0000
0000
0320
0000
2030
0000
,  // measure 56
3200
0000
0000
2300
0000
0000
3020
0000
,  // measure 57
0000
0230
0000
0000
0302
0000
1003
0000
,  // measure 58
2001
0000
0000
3100
0000
0000
0102
0000
,  // measure 59
0000
1003
0000
0000
0001
0000
0001
0000
,  // measure 60
0021
0000
0000
0130
0000
0000
2100
0000
,  // measure 61
0000
3010
0000
0000
1000
0000
0010
0000
,  // measure 62
0120
0000
0000
1000
0000
0000
0031
0000
,  // measure 63
0210
0000
0000
0001
0000
0000
1300
0000
,  // measure 64
0001
0100
0000
1000
0010
0000
1000
0001
,  // measure 65
0010
0001
1000
0100
1000
0010
0100
0001
,  // measure 66
1000
0000
0000
0001
0000
0000
0100
0000
0000
0010
0000
0000
0100
0000
0001
0000
,  // measure 67
0010
0000
0000
0100
0000
0000
1000
0000
0001
0000
0000
1000
0000
0000
0020
0000
,  // measure 68
0000
0000
0000
0130
0000
0000
0002
0000
0000
0000
0103
0000
0010
0000
1000
0000
,  // measure 69
0100
0000
0000
1000
0000
0000
0010
0000
0100
0000
0000
0001
0000
0000
0010
0000
,  // measure 70
0001
0000
0000
1000
0000
0000
0100
0000
0000
0010
0000
0000
0100
0000
1000
0000
,  // measure 71
0001
0000
0000
1000
0000
0000
0010
0000
0100
0000
0000
0010
0000
0000
0020
0000
,  // measure 72
0000
0000
1030
0100
0000
0010
0000
0011
,  // measure 73
0000
1001
0000
1010
0000
0210
0000
0000
,  // measure 74
0301
0000
0000
1000
0000
0000
0010
0000
0000
0100
0000
0000
0001
0000
0010
0000
,  // measure 75
0100
0000
0000
0010
0000
0000
0100
0000
1000
0000
0000
0010
0000
0000
0200
0000
,  // measure 76
0000
0000
0000
0301
0000
0000
0020
0000
0000
0000
0031
0000
0100
0000
0010
0000
,  // measure 77
0100
0000
0000
0010
0000
0000
1000
0000
0001
0000
0000
0010
0000
0000
0100
0000
,  // measure 78
2000
0000
0000
0100
0000
0000
0001
0000
0000
3010
0000
0000
0001
0000
0100
0000
,  // measure 79
0002
0000
0000
1000
0000
0000
0013
0000
1000
0000
0000
0100
0000
0000
0220
0000
,  // measure 80
0000
0330
0000
0001
0000
0000
0220
0000
0000
0330
0000
1000
0000
0000
0220
0000
,  // measure 81
0000
0000
0000
0330
,  // measure 82
1001
0000
0000
0000
;
