#VERSION:0.83;
#TITLE:선인장;
#SUBTITLE:;
#ARTIST:A.C.E;
#TITLETRANSLIT:CACTUS;
#SUBTITLETRANSLIT:;
#ARTISTTRANSLIT:;
#GENRE:K-Electropop;
#ORIGIN:;
#CREDIT:;
#BANNER:[Round D] - CACTUS.png;
#BACKGROUND:[Round D] - CACTUS-bg.png;
#PREVIEWVID:;
#JACKET:[Round D] - CACTUS-jacket.png;
#CDIMAGE:;
#DISCIMAGE:;
#LYRICSPATH:;
#CDTITLE:;
#MUSIC:[Round D] - CACTUS.ogg;
#OFFSET:-3.290000;
#SAMPLESTART:66.084000;
#SAMPLELENGTH:15.000000;
#SELECTABLE:YES;
#BPMS:0.000=150.000;
#STOPS:;
#DELAYS:;
#WARPS:;
#TIMESIGNATURES:0.000=4=4;
#TICKCOUNTS:0.000=4;
#COMBOS:0.000=1;
#SPEEDS:0.000=1.000=0.000=0;
#SCROLLS:0.000=1.000;
#FAKES:;
#LABELS:0.000=Song Start;
#BGCHANGES:;
#KEYSOUNDS:;
#ATTACKS:
;

//---------------dance-single - ----------------
#NOTEDATA:;
#CHARTNAME:;
#STEPSTYPE:dance-single;
#DESCRIPTION:;
#CHARTSTYLE:;
#DIFFICULTY:Beginner;
#METER:1;
#RADARVALUES:0.130252,0.206155,0.008069,0.080687,0.000000,113.000000,112.000000,1.000000,10.000000,0.000000,0.000000,0.000000,0.000000,0.000000,0.130252,0.206155,0.008069,0.080687,0.000000,113.000000,112.000000,1.000000,10.000000,0.000000,0.000000,0.000000,0.000000,0.000000;
#CREDIT:;
#NOTES:
0000
0000
0000
0000
,
0000
0000
0000
0000
,
0000
0000
0000
0000
,
0000
0000
0000
0000
,
0000
0000
0000
0000
,
0000
0000
0000
0000
,
0000
0000
0000
0000
,
0000
0000
0000
0000
,
1000
0000
1000
0000
,
0100
0000
0100
0000
,
0020
0000
0000
0000
,
0030
0000
0000
0000
,
0001
0000
0001
0000
,
0100
0000
0100
0000
,
0020
0000
0000
0000
,
0030
0000
0000
0000
,
1000
0000
0000
0000
,
1000
0000
0000
0000
,
0001
0000
0000
0000
,
0001
0000
0001
0000
,
0010
0000
0000
0000
,
0010
0000
0000
0000
,
0100
0000
0000
0000
,
0100
0000
0000
0000
,
1000
1000
1000
0000
,
1000
0000
0000
0000
,
0001
0001
0001
0000
,
0001
0000
0000
0000
,
0100
0100
0100
0000
,
0100
0000
0000
0000
,
0010
0010
0010
0000
,
0010
0000
0000
0000
,
2000
0000
0000
0000
,
3000
0000
0000
0000
,
0200
0000
0000
0000
,
0300
0000
0000
0000
,
0010
0000
0010
0000
,
0010
0000
0000
0000
,
0001
0000
0001
0000
,
0001
0000
0000
0000
,
2000
0000
0000
0000
,
3000
0000
0010
0000
,
0020
0000
0000
0000
,
0000
0030
0000
0000
0000
0000
0000
0000
0000
0000
0000
0000
0000
0000
0000
0000
0000
0000
0000
0000
0000
0000
0000
0000
0000
0000
0000
0000
0000
0000
0000
0000
0000
0000
0000
0000
0000
0000
0000
0000
0000
0000
0000
0000
0000
0000
0000
0000
0000
0000
0000
0000
0000
0000
0000
0000
0000
0000
0000
0000
0000
0000
0000
0000
0000
0000
0000
0000
0000
0000
0000
0000
0000
0000
0000
0000
0000
0000
0000
0000
0000
0000
0000
0000
0000
0000
0000
0000
0000
0000
0000
0000
0000
0000
0000
0000
0000
0000
0000
0000
0000
0000
0000
0000
0000
0000
0000
0000
0000
0000
0000
0000
0000
0000
0000
0000
0000
0000
0000
0000
0000
0000
0000
0000
0000
0000
0000
0000
0000
0000
0000
0000
0000
0000
0000
0000
0000
0000
0000
0000
0000
0000
0000
0000
0000
0000
0000
0000
0000
0000
0000
0000
0000
0000
0000
0000
0000
0000
0000
0000
0000
0000
0000
0000
0000
0000
0000
0000
0000
0000
0000
0000
0000
0000
0000
0000
0000
0000
0000
0000
0000
0000
0000
0000
0000
0000
0000
0000
0000
0000
0000
0000
,
0100
0100
0100
0000
,
0100
0100
0100
0000
,
0001
0000
0001
0000
,
1000
0000
1000
0000
,
0002
0000
0000
0000
,
0003
0000
0010
0000
,
0020
0000
0000
0000
,
0000
0030
0000
0000
0000
0000
0000
0000
0000
0000
0000
0000
0000
0000
0000
0000
0000
0000
0000
0000
0000
0000
0000
0000
0000
0000
0000
0000
0000
0000
0000
0000
0000
0000
0000
0000
0000
0000
0000
0000
0000
0000
0000
0000
0000
0000
0000
0000
0000
0000
0000
0000
0000
0000
0000
0000
0000
0000
0000
0000
0000
0000
0000
0000
0000
0000
0000
0000
0000
0000
0000
0000
0000
0000
0000
0000
0000
0000
0000
0000
0000
0000
0000
0000
0000
0000
0000
0000
0000
0000
0000
0000
0000
0000
0000
0000
0000
0000
0000
0000
0000
0000
0000
0000
0000
0000
0000
0000
0000
0000
0000
0000
0000
0000
0000
0000
0000
0000
0000
0000
0000
0000
0000
0000
0000
0000
0000
0000
0000
0000
0000
0000
0000
0000
0000
0000
0000
0000
0000
0000
0000
0000
0000
0000
0000
0000
0000
0000
0000
0000
0000
0000
0000
0000
0000
0000
0000
0000
0000
0000
0000
0000
0000
0000
0000
0000
0000
0000
0000
0000
0000
0000
0000
0000
0000
0000
0000
0000
0000
0000
0000
0000
0000
0000
0000
0000
0000
0000
0000
0000
0000
0000
,
0100
0100
0100
0000
,
0100
0100
0100
0000
,
1000
0000
1000
0000
,
0001
0000
0001
0000
,
1000
1000
1000
0000
,
0010
0010
0010
0000
,
0100
0100
0100
0000
,
0001
0000
0000
0000
,
0001
0001
0001
0000
,
0010
0010
0010
0000
,
0100
0100
0100
0000
,
1000
0000
0000
0000
,
0001
0001
0001
0000
,
1000
1000
1000
0000
,
0100
0100
0100
0000
,
0010
0000
0001
0000
,
1000
1000
1000
0000
,
0001
0001
0001
0000
,
0100
0100
0100
0000
,
0010
0000
1000
0000
,
2002
0000
0000
0000
,
3003
0000
0000
0000
;

//---------------dance-single - ----------------
#NOTEDATA:;
#CHARTNAME:;
#STEPSTYPE:dance-single;
#DESCRIPTION:;
#CHARTSTYLE:;
#DIFFICULTY:Easy;
#METER:4;
#RADARVALUES:0.252434,0.323958,0.040343,0.242060,0.000000,219.000000,214.000000,5.000000,30.000000,0.000000,0.000000,0.000000,0.000000,0.000000,0.252434,0.323958,0.040343,0.242060,0.000000,219.000000,214.000000,5.000000,30.000000,0.000000,0.000000,0.000000,0.000000,0.000000;
#CREDIT:;
#NOTES:
0000
0000
0000
0000
,
0000
0000
0000
0000
,
0000
0000
0000
0000
,
0000
0000
0000
0000
,
0000
0000
0000
0000
,
0000
0000
0000
0000
,
0000
0000
0000
0000
,
0000
0000
0000
0000
,
1000
1000
0100
0100
,
0010
0010
0001
0001
,
1000
0000
0010
0000
,
0100
0000
0001
1000
,
0001
0001
0010
0000
,
0010
0010
0100
0000
,
0100
0000
1000
0000
,
0010
0000
0100
0000
,
0001
0100
0001
0000
,
1000
0100
1000
0000
,
0001
0010
0100
0000
,
0010
0010
0001
0001
,
1000
0100
1000
0000
,
0001
0100
0001
0000
,
1000
0010
0100
0000
,
0010
0010
0100
0100
,
0001
2000
3010
2000
,
3010
1000
0100
0010
,
0000
0002
0013
0002
,
0013
0001
0100
0010
,
2000
3100
0200
0310
,
0020
0031
0002
1003
,
1000
1000
0001
0001
,
1000
0010
0100
0001
,
2000
0000
0000
0000
,
3200
0000
0000
0000
,
0320
0000
0000
0000
,
0032
0000
0000
0000
,
1003
1000
0100
0000
,
0001
0001
0100
0000
,
1000
0100
0010
0001
,
0100
0010
1000
0001
,
2000
0100
0000
3100
,
1000
0000
0010
0100
,
0002
0010
0000
0013
,
0001
0100
0010
0000
,
1000
0100
0001
0000
,
0001
0100
1000
0000
,
1000
0010
0100
0000
,
0001
0010
0100
1000
,
0002
0100
0000
0103
,
0001
0000
0010
0100
,
2000
0010
0000
3010
,
1000
0100
0010
0000
,
0001
0100
1000
0000
,
1000
0100
0001
0000
,
0001
0010
0100
1000
,
1000
0010
0100
0001
,
1000
1000
0010
0010
,
0100
0100
0001
0001
,
1000
0100
0010
0001
,
0100
0010
1000
1001
,
0001
0001
0010
0010
,
0100
0100
1000
1000
,
0001
0100
0010
1000
,
0100
0010
0001
1001
,
2000
3010
0020
0130
,
0200
0301
0002
0013
,
0020
0130
0200
1300
,
1000
0001
0100
1001
,
0002
0013
0020
0130
,
0200
1300
2000
3010
,
0020
0130
0200
0301
,
0001
1000
0100
1001
,
2002
0000
0000
0000
,
3003
0000
0000
0000
;

//---------------dance-single - ----------------
#NOTEDATA:;
#CHARTNAME:;
#STEPSTYPE:dance-single;
#DESCRIPTION:;
#CHARTSTYLE:;
#DIFFICULTY:Medium;
#METER:6;
#RADARVALUES:0.374617,0.471211,0.387297,0.516396,0.112962,325.000000,277.000000,48.000000,64.000000,0.000000,0.000000,0.000000,0.000000,0.000000,0.374617,0.471211,0.387297,0.516396,0.112962,325.000000,277.000000,48.000000,64.000000,0.000000,0.000000,0.000000,0.000000,0.000000;
#CREDIT:;
#NOTES:
0000
0000
0000
0000
,
0000
0000
0000
0000
,
0000
0000
0000
0000
,
0000
0000
0000
0000
,
0000
0000
0000
0000
,
0000
0000
0000
0000
,
0000
0000
0000
0000
,
0000
0000
0000
0000
,
2000
3200
0320
0032
,
2003
3020
0230
0302
,
2003
0100
0010
3001
,
1000
0100
0001
0100
,
2000
3020
0032
0023
,
2030
3200
0320
0032
,
0203
0010
1000
0301
,
0100
0010
0110
1001
,
1000
0000
0100
1000
0000
0000
0001
0000
0000
1001
0000
0000
,
1000
0000
0010
1000
0000
0000
0100
0000
0000
0110
0000
0000
,
0010
0000
0001
0010
0000
0000
0100
0000
0000
1100
0000
0000
,
1002
0203
0320
1030
,
1000
0000
0001
1000
0000
0000
0010
0000
0000
0100
0000
0000
,
0101
2001
3100
0010
,
0001
0000
1000
0001
0000
0000
0010
0000
0000
0100
0000
0000
,
2000
3002
0203
0310
,
1001
0000
0000
1000
0000
0010
1000
0000
0000
0001
0000
0010
,
0001
1000
0100
0010
,
0001
0000
0000
1000
0000
0100
1000
0000
0000
0001
0000
0100
,
0001
0010
0100
1000
,
0002
0103
2000
3100
,
0002
0023
0230
1300
,
0001
0100
0010
1000
,
0001
0000
0001
0100
0000
0000
0010
0000
0000
1000
0000
0000
,
1002
0000
0100
0000
,
0203
0000
0010
0000
,
0320
0000
1000
0000
,
2030
0000
0001
0000
,
0001
3000
0000
0000
0000
0000
0000
0000
0000
0000
0000
0000
0000
0000
0000
0000
0000
0000
0000
0000
0000
0000
0000
0000
0000
0000
0000
0000
0000
0000
0000
0000
0000
0000
0000
0000
0000
0000
0000
0000
0000
0000
0000
0000
0000
0000
0000
0000
0101
0000
0000
0000
0000
0000
0000
0000
0000
0000
0000
0000
0000
0000
0000
0000
0000
0000
0000
0000
0000
0000
0000
0000
0000
0000
0000
0000
0000
0000
0000
0000
0000
0000
0000
0000
0000
0000
0000
0000
0000
0000
0000
0000
0000
0000
0000
0000
0110
0000
0000
0000
0000
0000
0000
0000
0000
0000
0000
0000
0000
0000
0000
0000
0000
0000
0000
0000
0000
0000
0000
0000
0000
0000
0000
0000
0000
0000
0000
0000
0000
0000
0000
0000
0000
0000
0000
0000
0000
0000
0000
0000
0000
0000
0000
0000
2010
0000
0000
0000
0000
0000
0000
0000
0000
0000
0000
0000
0000
0000
0000
0000
0000
0000
0000
0000
0000
0000
0000
0000
0000
0000
0000
0000
0000
0000
0000
0000
0000
0000
0000
0000
0000
0000
0000
0000
0000
0000
0000
0000
0000
0000
0000
0000
,
3001
0011
0110
1100
,
1002
0203
0320
2030
,
3002
0023
0230
2300
,
3002
0100
0010
1003
,
0001
0000
0000
0100
0000
0010
0100
0000
0000
0001
0000
0000
,
2000
0100
0010
3001
,
1000
0000
0000
0100
0000
0010
0100
0000
0000
1000
0000
0000
,
1001
0000
0000
0110
0000
0000
1001
0000
0000
0001
0000
0010
,
0001
0101
0110
1010
,
2000
0100
3200
0010
,
0320
0032
0203
0320
,
2030
0100
0010
3001
,
1000
0000
0000
0010
0000
0100
0002
0000
0000
1003
0000
0000
,
0002
0100
0010
1003
,
0001
0000
0000
0100
0000
0010
2000
0000
0000
3001
0000
0000
,
0101
0000
0000
0110
0000
0000
1010
0000
0000
1000
0000
0100
,
1000
1100
0110
0011
,
0002
0100
0203
0010
,
0320
1030
1010
1001
,
0001
0101
1000
1100
,
0001
0011
1000
1010
,
0001
0101
0100
0110
,
0020
1000
1030
1001
,
1000
1100
0001
0101
,
1000
1010
0001
0011
,
1000
1100
0100
0110
,
0020
0001
0031
1001
,
1000
0000
0010
1000
0000
0000
0010
0000
0100
0010
0000
0000
,
0100
0000
0001
0100
0000
0000
0001
0000
0010
0001
0000
0000
,
0010
0000
0100
0010
0000
0000
0100
0000
1000
0100
0000
0000
,
2000
0010
3001
1001
,
0001
0000
0010
0001
0000
0000
0010
0000
0100
0010
0000
0000
,
0100
0000
1000
0100
0000
0000
1000
0000
0010
1000
0000
0000
,
0010
0000
0100
0010
0000
0000
0100
0000
0001
0100
0000
0000
,
0002
0010
1003
1001
,
0220
0000
0000
0000
,
0330
0000
0000
0000
;

//---------------dance-single - ----------------
#NOTEDATA:;
#CHARTNAME:;
#STEPSTYPE:dance-single;
#DESCRIPTION:;
#CHARTSTYLE:;
#DIFFICULTY:Hard;
#METER:9;
#RADARVALUES:0.585556,0.706816,0.355022,0.217854,0.843177,508.000000,464.000000,44.000000,27.000000,0.000000,0.000000,0.000000,0.000000,0.000000,0.585556,0.706816,0.355022,0.217854,0.843177,508.000000,464.000000,44.000000,27.000000,0.000000,0.000000,0.000000,0.000000,0.000000;
#CREDIT:;
#NOTES:
// measure 0
0000
0000
0000
0000
,  // measure 1
0000
0000
0000
0000
,  // measure 2
0000
0000
0000
0000
,  // measure 3
0000
0000
0000
0000
,  // measure 4
0000
0000
0000
0000
,  // measure 5
0000
0000
0000
0000
,  // measure 6
0000
0000
0000
0000
,  // measure 7
0000
0000
0000
1001
,  // measure 8
1000
0000
1000
0010
0000
0010
0100
0000
0100
0001
0000
0001
,  // measure 9
1000
0000
1000
0100
0000
0100
0010
0000
0010
0001
0000
0001
,  // measure 10
2000
0100
0010
3001
,  // measure 11
1000
0000
1000
0010
0000
0010
0100
0000
0100
0001
0000
0001
,  // measure 12
1000
0000
1000
0100
0000
0100
0001
0000
0001
0100
0000
0100
,  // measure 13
1000
0000
1000
0010
0000
0010
0100
0000
0100
0001
0000
0001
,  // measure 14
0020
0100
1000
0031
,  // measure 15
0010
0001
0010
0001
1000
0010
1000
0000
0000
1001
0000
0000
,  // measure 16
0101
0000
0100
0010
0000
0010
1000
0000
1000
0001
0000
0000
,  // measure 17
0011
0000
0010
0100
0000
0100
1000
0000
1000
0001
0000
0001
,  // measure 18
1000
0000
1000
0010
0000
0010
0100
0000
0100
0001
0000
0001
,  // measure 19
1000
0000
0000
1100
0000
0000
0011
0000
0000
1001
0000
1000
,  // measure 20
0010
0000
0010
0100
0000
0100
0001
0000
0001
1000
0000
1000
,  // measure 21
0100
0000
0000
2100
0000
0000
3001
0000
1000
0001
1000
0001
,  // measure 22
0100
0000
0100
0010
0000
0010
1000
0000
1000
0001
0000
0001
,  // measure 23
2000
3020
0230
0301
,  // measure 24
1001
0000
0000
1000
0010
0100
0010
0000
0100
0010
0100
0001
,  // measure 25
1000
0000
1000
0100
0000
0100
0010
0000
0010
0001
0000
0001
,  // measure 26
1000
0000
1000
0001
0010
0100
0010
0000
0100
0010
0100
1000
,  // measure 27
0001
0000
0001
0100
0000
0100
0010
0000
0010
1000
0000
1000
,  // measure 28
0002
0000
0000
0103
0000
0010
2000
0000
0000
3100
0000
0010
,  // measure 29
0002
0000
0000
1003
0000
0010
0200
0000
0000
0301
0000
0001
,  // measure 30
1000
0000
1000
0100
0000
0100
0010
0000
0000
0011
0000
0000
,  // measure 31
1001
0000
1000
0010
0000
0010
0100
0000
0100
0001
0000
0000
,  // measure 32
2001
0010
3020
0000
,  // measure 33
0230
0302
0023
0000
,  // measure 34
0032
0100
0203
0010
,  // measure 35
0320
1000
2030
0000
,  // measure 36
3001
0000
0000
0101
0000
0000
0110
0000
0000
0010
1000
0010
,  // measure 37
1000
0000
0000
1100
0000
0000
0110
0000
0000
0011
0000
0001
,  // measure 38
1000
0000
1000
0100
0000
0100
0001
0000
0001
0100
0000
0100
,  // measure 39
1000
0000
1000
0001
1000
0001
0100
0010
0100
0010
1000
0010
,  // measure 40
2000
0000
0000
0100
0000
0000
0001
0000
0000
3010
0000
1000
,  // measure 41
0100
0000
0100
0010
0000
0010
0001
0000
0001
0100
0000
0000
,  // measure 42
0012
0000
0000
0100
0000
0000
1000
0000
0000
0013
0000
0001
,  // measure 43
0100
0000
0100
0010
0000
0010
1000
0000
1000
0001
0000
0000
,  // measure 44
1001
0000
0000
0110
0000
0000
1001
0000
0000
0101
0000
0100
,  // measure 45
0010
0000
0010
1000
0000
1000
0001
0000
0000
0011
0000
0010
,  // measure 46
0100
0000
0100
1000
0000
1000
0001
0000
0000
0011
0000
0000
,  // measure 47
1100
0000
0000
1000
0010
0100
0001
0100
0010
1000
0000
0000
,  // measure 48
1002
0000
0000
0103
0000
0000
0012
0000
0000
1003
0000
0001
,  // measure 49
0100
0000
0100
1000
0000
1000
0100
0000
0100
0001
0000
0000
,  // measure 50
2001
0000
0000
3100
0000
0000
2010
0000
0000
3001
0000
1000
,  // measure 51
0100
0000
0100
0001
0000
0001
0100
0000
0100
1000
0000
0000
,  // measure 52
1100
0000
0000
0011
0000
0000
1001
0000
0000
1010
0000
0010
,  // measure 53
0100
0000
0100
0001
0000
0001
1000
0000
0000
1001
0000
0001
,  // measure 54
0010
0000
0010
0100
0000
0100
1000
0000
1000
0001
0000
0001
,  // measure 55
0100
0101
1010
0110
,  // measure 56
1001
0000
1000
0100
0000
0100
0001
0000
0001
0100
0000
0100
,  // measure 57
1000
0000
1000
0010
1000
0010
0100
0000
0100
0001
1000
0001
,  // measure 58
1000
0000
1000
0010
0000
0010
0100
0010
0100
0001
0000
0001
,  // measure 59
1000
0100
0010
0001
0010
0100
1000
0000
0000
0110
0000
0000
,  // measure 60
1001
0000
0001
0100
0000
0100
1000
0000
1000
0100
0000
0100
,  // measure 61
0001
0000
0001
0010
0001
0010
0100
0000
0100
1000
0001
1000
,  // measure 62
0001
0000
0001
0010
0000
0010
0100
0000
0100
1000
0100
1000
,  // measure 63
0001
0100
0010
1000
0010
0100
0001
0000
0000
1001
0000
0000
,  // measure 64
1000
0010
1000
0010
0000
0100
0001
1000
0001
1000
0000
0100
,  // measure 65
0010
0001
0010
0001
0000
1000
0010
0100
0010
0100
0000
0001
,  // measure 66
1000
0100
1000
0100
0000
0010
0001
1000
0001
1000
0000
0010
,  // measure 67
0100
0001
1000
0100
0010
0001
1000
0000
0000
1001
0000
0000
,  // measure 68
0001
0100
0001
0100
0010
1000
0010
1000
0100
0010
0000
0001
,  // measure 69
1000
0100
1000
0100
0010
0001
0010
0001
0100
0010
0000
1000
,  // measure 70
0001
0100
0001
0100
0010
1000
0010
1000
0001
0100
0001
0100
,  // measure 71
0001
0010
0100
1000
0100
0010
0001
0000
0000
1001
0000
0000
,  // measure 72
0220
0000
0000
0000
,  // measure 73
0330
0000
0000
0000
;
