#VERSION:0.83;
#TITLE:16note;
#SUBTITLE:;
#ARTIST:dj VERTICAI;
#TITLETRANSLIT:;
#SUBTITLETRANSLIT:;
#ARTISTTRANSLIT:;
#GENRE:;
#ORIGIN:;
#CREDIT:;
#BANNER:16note.png;
#BACKGROUND:16note-bg.png;
#PREVIEWVID:;
#JACKET:16note-jacket.png;
#CDIMAGE:;
#DISCIMAGE:;
#LYRICSPATH:;
#CDTITLE:;
#MUSIC:16note.ogg;
#OFFSET:-0.020000;
#SAMPLESTART:15.431000;
#SAMPLELENGTH:15.000000;
#SELECTABLE:YES;
#BPMS:0.000=156.000;
#STOPS:216.000=0.577,
216.500=0.288,
216.750=0.288;
#DELAYS:;
#WARPS:;
#TIMESIGNATURES:0.000=4=4;
#TICKCOUNTS:0.000=4;
#COMBOS:0.000=1;
#SPEEDS:0.000=1.000=0.000=0;
#SCROLLS:0.000=1.000;
#FAKES:;
#LABELS:0.000=Song Start;
#BGCHANGES:;
#KEYSOUNDS:;
#ATTACKS:
;

//---------------dance-single - ----------------
#NOTEDATA:;
#CHARTNAME:;
#STEPSTYPE:dance-single;
#DESCRIPTION:;
#CHARTSTYLE:;
#DIFFICULTY:Hard;
#METER:8;
#RADARVALUES:0.454110,0.602350,0.104091,0.440384,0.032028,397.000000,384.000000,13.000000,55.000000,0.000000,0.000000,0.000000,0.000000,0.000000,0.454110,0.602350,0.104091,0.440384,0.032028,397.000000,384.000000,13.000000,55.000000,0.000000,0.000000,0.000000,0.000000,0.000000;
#CREDIT:;
#NOTES:
// measure 0
0000
0000
0000
0000
,  // measure 1
0200
0000
0000
0002
0000
0000
0303
0000
,  // measure 2
2000
0000
0000
0020
0000
0000
3030
0000
,  // measure 3
0200
0000
0000
0020
0000
0000
0330
0000
,  // measure 4
2000
0000
0000
0002
0000
0000
3003
0000
,  // measure 5
0100
0000
0001
0000
0001
0000
0010
0001
,  // measure 6
0010
0000
0100
0000
0100
0000
1000
0100
,  // measure 7
1000
0000
0010
0000
0010
0000
0100
0010
,  // measure 8
0100
0001
0001
1000
,  // measure 9
2002
0000
0000
3003
,  // measure 10
0010
0000
1000
0010
0000
0100
0001
0100
,  // measure 11
0010
0000
1000
0100
0000
1000
0001
1000
,  // measure 12
0010
0000
0100
0010
0000
1000
0100
1000
,  // measure 13
0001
0000
1000
0010
0000
0100
0010
0100
,  // measure 14
0001
0000
1000
0100
0000
1000
0010
0100
,  // measure 15
0010
0000
0100
0001
0000
0010
0001
0010
,  // measure 16
0100
0000
1000
0010
0000
1000
0000
0001
,  // measure 17
0200
0320
2030
3002
,  // measure 18
0013
0000
0010
0000
0100
1000
0001
1000
,  // measure 19
0100
0000
0100
0000
1000
0010
0100
0010
,  // measure 20
1000
0000
1000
0000
0010
0100
0001
0100
,  // measure 21
0010
0000
0010
0000
1000
0001
1000
0000
,  // measure 22
0001
0010
0100
1000
0010
0000
0010
0000
,  // measure 23
1000
0100
0010
0001
1000
0000
0001
0000
,  // measure 24
0220
0330
2200
3300
,  // measure 25
0001
0000
0010
0000
0001
0100
0001
0001
,  // measure 26
0020
0000
0130
2000
,  // measure 27
3200
0000
2300
0000
,  // measure 28
3002
0000
1000
0000
0013
0000
0100
0010
,  // measure 29
0100
2000
3020
2030
,  // measure 30
3200
0010
2300
3002
,  // measure 31
0023
0100
0230
1000
,  // measure 32
1300
0010
0100
0010
,  // measure 33
0200
0300
0202
0303
,  // measure 34
0001
0000
1000
0000
0100
0000
1000
0010
,  // measure 35
1000
0100
0010
0100
,  // measure 36
1000
0000
0100
0000
0010
0000
0001
0010
,  // measure 37
0001
0100
0010
1000
,  // measure 38
0010
0010
0100
0001
,  // measure 39
0100
0000
0010
1000
0010
0000
1000
0000
,  // measure 40
0100
0010
0001
0010
,  // measure 41
0002
0000
1000
0000
,  // measure 42
0203
0010
0010
0300
,  // measure 43
0010
1000
0100
0010
0200
0000
0300
0000
,  // measure 44
1000
0001
0010
0100
0020
0000
0030
0000
,  // measure 45
0001
0010
0001
0100
0010
0100
0010
1000
,  // measure 46
0001
0000
0000
0000
1001
0000
0000
0000
0100
0000
0000
1000
0000
0000
0010
0000
,  // measure 47
1000
0000
0100
0000
1000
0000
0001
0000
0010
0000
0000
0001
0000
0000
1000
0000
,  // measure 48
0100
0000
0010
0000
0100
0000
1000
0000
0010
0000
0000
0100
0000
0000
0001
0000
,  // measure 49
0100
0000
0000
0010
0000
0000
1000
0000
0010
0000
0000
0100
0000
0000
0001
0000
,  // measure 50
1000
0010
0100
0001
1000
0010
0100
0001
,  // measure 51
1000
0100
0010
0001
1000
0100
0010
0000
,  // measure 52
0100
1000
0001
0010
0100
1000
0001
0010
,  // measure 53
0100
0010
0001
1000
0010
0100
0001
1000
,  // measure 54
1001
0000
0010
1000
0100
0000
0010
0000
0100
0000
1000
0000
0001
0000
1000
0000
,  // measure 55
0001
0010
0001
0010
0100
1000
0010
1000
,  // measure 56
0100
0010
0001
1000
0001
1000
0010
0100
,  // measure 57
0010
0100
0001
0010
0100
1000
0100
0010
,  // measure 58
0001
1000
0100
0100
0010
0010
0001
1000
,  // measure 59
0100
1000
0001
0001
1000
1000
0010
0100
,  // measure 60
0010
1000
0001
0000
1000
0010
1000
0000
,  // measure 61
0100
0010
0100
0000
0001
0000
1001
0000
,  // measure 62
1100
0000
0020
0000
0000
0000
0000
0031
,  // measure 63
0100
0001
2000
0000
0000
0000
3100
0000
,  // measure 64
1000
0000
0002
0000
0000
0023
0000
0000
,  // measure 65
0230
0000
0320
0000
0000
0002
0000
0000
,  // measure 66
0033
1000
0010
1000
,  // measure 67
0001
0010
0010
0100
,  // measure 68
0010
0000
0210
0000
0000
2000
0000
0000
,  // measure 69
3300
0000
2001
0000
0000
0020
0000
0000
,  // measure 70
3030
0000
0021
0000
0000
0200
0000
0000
,  // measure 71
0330
0000
0102
0000
0000
2000
0000
0000
,  // measure 72
3003
0000
0010
0100
0010
0100
0010
1000
,  // measure 73
0001
0100
0001
0010
0001
1000
0100
0010
,  // measure 74
0100
0000
0010
0001
1000
0001
0010
0001
,  // measure 75
1000
0001
0010
0100
1000
0100
0010
0100
,  // measure 76
1000
0000
0100
0100
0010
0010
0100
0000
,  // measure 77
0001
0010
0001
0010
0001
0000
0000
0000
0220
0000
0000
0000
0000
0000
0000
0000
,  // measure 78
0000
0000
0000
0000
,  // measure 79
0000
0000
0000
0330
0000
0000
0000
0000
0000
0000
0000
0000
0000
0000
0000
0000
;

//---------------dance-single - ----------------
#NOTEDATA:;
#CHARTNAME:;
#STEPSTYPE:dance-single;
#DESCRIPTION:;
#CHARTSTYLE:;
#DIFFICULTY:Challenge;
#METER:12;
#RADARVALUES:0.848740,1.110468,0.304265,0.240209,1.084946,742.000000,704.000000,38.000000,30.000000,19.000000,4.000000,0.000000,0.000000,0.000000,0.848740,1.110468,0.304265,0.240209,1.084946,742.000000,704.000000,38.000000,30.000000,19.000000,4.000000,0.000000,0.000000,0.000000;
#CREDIT:;
#NOTES:
0000
0000
0000
0000
,
0220
0000
0300
0002
0000
0000
0033
0000
,
2002
0000
0003
0200
0000
0000
3300
0000
,
2200
0000
3000
0020
0000
0000
0330
0000
,
0202
0000
0300
2000
0000
0000
3003
0000
,
0100
0000
0000
0010
0200
0000
0000
0000
0000
0000
0000
0000
0310
1000
0010
0000
,
1000
0000
0000
0001
2000
0000
0000
0000
0000
0000
0000
0000
3100
0010
0100
0000
,
0010
0000
0000
0001
0020
0000
0000
0000
0000
0000
0000
0000
0031
0100
0001
0000
,
1000
0000
0000
0010
2000
0000
0000
0000
0000
0000
0000
0000
3001
0100
0001
0000
,
0000
00M0
0000
0M00
0000
00M0
0000
0M00
0000
00M0
0000
M000
0000
000M
0000
0000
,
1000
0000
0001
1000
0001
1000
0010
0000
1000
0100
1000
0100
1000
0010
0100
0001
,
0010
0000
0100
0010
0100
0010
0001
0000
0100
0001
0100
0001
0100
0010
1000
0001
,
0100
0000
0001
1000
0001
1000
0010
0000
0100
0010
0100
0010
0100
0001
1000
0100
,
1000
0000
0010
1000
0010
0000
0100
0000
0001
0100
0001
0100
0010
1000
0100
0010
,
0001
0000
0010
0100
0010
0100
1000
0000
0001
0100
0001
0100
0001
0010
0100
1000
,
0001
0000
0100
0001
0100
0001
0010
0000
0100
1000
0100
1000
0100
0010
0001
0010
,
0100
0000
1000
0010
0100
0010
1000
0000
0001
1000
0010
1000
0010
0100
0001
0010
,
0100
0110
1001
0011
,
1100
0000
1000
0010
0100
0010
1000
0000
0100
1000
0100
1000
0100
0010
0001
0100
,
0010
0000
0100
0001
0100
0001
0010
0000
0001
1000
0001
1000
0001
0010
0100
1000
,
0001
0000
1000
0010
1000
0010
0100
0000
0010
1000
0010
1000
0100
0010
0001
0010
,
0100
0000
1000
0010
1000
0000
0001
0000
0010
0100
0010
0100
1000
0001
0100
0001
,
1000
0000
0010
0000
0100
0000
0001
0000
0010
0000
0100
0010
0100
1000
0001
1000
,
0001
0010
0100
1000
0001
0000
0101
0000
,
0010
0001
0010
0100
0010
0001
0010
0100
1000
0010
1000
0100
1000
0010
1000
0100
,
0010
0100
0010
0000
0001
1000
0001
0000
0010
0000
0010
0000
0100
0010
0100
0010
,
0100
0000
0001
0100
,
0010
0000
1000
0000
,
0100
0000
0000
0000
1000
0000
0001
0010
,
0001
1000
0100
1000
,
0100
0000
0010
0001
,
1000
0000
0000
0000
0000
0000
0001
0100
0001
0000
0000
0000
0000
0000
1000
0000
,
0010
0000
0100
0000
0001
0000
0010
0001
,
0010
0000
0000
0000
0010
0000
0000
0000
0100
0000
0000
0000
1000
0010
1000
0010
,
1000
0000
0001
0000
0100
0010
0100
0000
,
0010
0000
1000
0000
0010
0100
0001
0100
,
0010
0000
1000
0000
0100
0000
0010
0100
,
0010
0000
0001
0000
1000
0000
0001
0100
,
0001
0001
1000
0100
,
0010
0000
0000
0000
0001
0000
0100
0001
1000
0000
0000
0000
0100
0000
1000
0000
,
0010
0100
0010
1000
,
0011
0000
0000
M000
0000
0M00
0000
M000
0000
00M0
0000
M000
0000
000M
0000
0M00
,
0000
M000
0000
000M
0000
00M0
0000
0000
0100
0000
0100
0000
1000
0100
1000
0000
,
0010
1000
0100
1000
0010
0100
0001
0010
0100
0000
0010
0000
0001
0000
0010
0000
,
0001
0010
0100
0010
0001
0010
0100
1000
0010
0000
0100
0000
0010
0000
1000
0000
,
0001
0010
0001
0010
0001
0100
0010
0100
0010
1000
0100
1000
0001
1000
0010
0100
,
0010
0000
0000
0000
1010
0000
0000
0000
0110
0000
0000
0101
0000
0000
1100
0000
,
1000
0000
0001
0000
0010
0000
0100
0000
0110
0000
0000
0011
0000
0000
0101
0000
,
0100
0000
0010
0000
1000
0000
0001
0000
1001
0000
0000
1010
0000
0000
0110
0000
,
0101
0000
0000
0011
0000
0000
1001
0000
1100
0000
0000
0110
0000
0000
1010
0000
,
0100
0010
0100
0010
0100
0001
1000
0010
0100
0010
0100
0010
0100
0010
1000
0001
,
0010
0001
0010
0001
0010
0100
1000
0001
0010
0001
0010
0001
0010
0100
1000
0001
,
1000
0010
1000
0010
1000
0001
0100
0010
1000
0010
1000
0010
1000
0001
0100
0010
,
1000
0010
0100
0001
0100
0010
1000
0100
0010
0001
0010
0100
1000
0010
0100
0001
,
1000
0000
0110
1001
0100
0010
1000
0010
0100
0010
1000
0010
0100
0010
0100
0001
,
0010
0100
0010
0001
1000
0010
0100
0001
1000
0010
0100
0010
0100
0001
1000
0001
,
0010
0100
0010
0001
1000
0010
0100
0010
0100
0001
0010
0001
0010
0100
1000
0001
,
1000
0010
0100
0010
1000
0001
0100
0010
1000
0001
0100
0010
1000
0001
0100
0010
,
1000
0001
0010
0000
0100
1000
0100
1000
0100
1000
0100
1000
0010
0000
0100
0000
,
0001
0100
0010
0100
0010
1000
0001
1000
0010
1000
0100
1000
0010
0100
0001
0010
,
0001
1000
0100
0010
0100
1000
0001
0010
0100
0010
0100
0000
1000
0100
0010
0001
,
1000
0010
1000
0000
0001
0100
0010
1000
0001
0100
0010
1000
0001
0010
0001
1000
,
0010
0100
0010
0000
1000
0001
0010
0001
1000
0001
0010
0001
1000
0000
0010
0000
,
0100
0000
0001
0000
0010
0100
1000
0100
0010
0100
1000
0100
0010
0000
0100
0000
,
1000
0000
0001
0000
1000
0000
0010
0100
0010
0000
1000
0000
0001
0000
0100
0010
,
0100
0010
1000
0000
0001
0000
1001
0000
,
0010
0000
0100
0010
0100
0000
0001
1000
0001
1000
0001
0010
0001
0000
0100
0000
,
1000
0010
0011
0000
0110
0000
1100
0000
,
1001
0000
2020
0000
0000
0200
0000
0000
,
3330
0000
2200
0000
0000
0002
0000
0000
,
3303
0000
0022
0000
0000
0200
0000
0000
,
0333
0000
0202
0000
0000
2000
0000
0000
,
3303
0000
0000
0000
0010
0000
0010
0000
0010
0000
0010
0000
0010
0100
1000
0100
,
1000
0010
0100
0001
0100
0010
1000
0010
0100
0001
0100
0001
0010
0100
0010
0100
,
0010
0100
1000
0000
0100
1000
0010
1000
0100
0010
0001
1000
0100
1000
0010
1000
,
0100
0010
0001
1000
0001
0100
0010
0100
0001
1000
0010
0100
0001
0100
0010
0100
,
0001
1000
0010
0000
0001
0010
0001
0010
0001
0010
0001
0010
0100
0010
0100
0010
,
0100
0010
0100
0010
0001
0010
0100
1000
2002
0000
0000
0000
0000
0000
0000
0000
,
0000
0000
0000
0000
,
0000
3003
M00M
0000
0000
0000
0000
0000
;
