#TITLE:Wake Up;
#SUBTITLE:;
#ARTIST:Kayzo x RIOT;
#TITLETRANSLIT:;
#SUBTITLETRANSLIT:;
#ARTISTTRANSLIT:;
#GENRE:;
#CREDIT:;
#BANNER:bn.png;
#BACKGROUND:bg.png;
#LYRICSPATH:;
#CDTITLE:;
#MUSIC:Wake Up.ogg;
#OFFSET:-6.052;
#SAMPLESTART:72.032;
#SAMPLELENGTH:12.000;
#SELECTABLE:YES;
#DISPLAYBPM:80.000:160.000;
#BPMS:0.000=160.000,16.000=80.000,32.000=160.000,111.000=240.000,112.000=160.000,179.000=240.000,180.000=160.000,280.000=80.000;
#STOPS:111.000=0.062
,111.500=0.063
,179.000=0.062
,179.500=0.063
;
#BGCHANGES:;
#KEYSOUNDS:;

//---------------dance-single - warpdrive----------------
#NOTES:
     dance-single:
     warpdrive:
     Challenge:
     10:
     0.723,0.945,0.100,0.583,0.591:
1000
0000
0000
1000
0000
0000
0001
0000
0100
0001
0000
0000
1000
0000
1000
0000
,
0100
0000
0000
0100
0000
0000
0010
0000
0001
0010
0000
0000
0001
0000
0001
0000
,
1000
0000
0000
1000
0000
0000
1000
0000
0010
1000
0000
0000
1000
0000
0000
1000
,
0000
0000
1000
0000
0000
1000
0000
0000
0010
0000
0000
0100
0000
0000
0100
0000
,
00M2
0000
0000
0000
0000
0000
0000
0000
0000
0000
0000
0000
0000
0000
0000
0000
0000
0000
0000
0000
0000
0000
0000
0000
0000
0000
0000
0000
0000
0000
0000
0000
0000
0000
0000
0000
0000
0000
0000
0000
0000
0000
0000
0000
0000
0000
0000
0000
1003
0000
0000
0000
0100
0000
0000
0000
1000
0000
0000
0000
0100
0000
0000
0000
0000
0000
0010
0000
0000
0000
0000
0000
0001
0000
0000
0000
0000
0000
1000
0000
0000
0000
0000
0000
0001
0000
0000
0000
0000
0000
1000
0000
0000
0000
0000
0000
0020
0000
0000
0000
0000
0000
0000
0000
0000
0000
0000
0000
0000
0000
0000
0000
0000
0000
0000
0000
0000
0000
0000
0000
0000
0000
0000
0000
0000
0000
0000
0000
0000
0000
0000
0000
0000
0000
0000
0000
0000
0000
0000
0000
0000
0000
0000
0000
1030
0000
0000
0000
0000
0000
0000
0000
0001
0000
0000
0000
0000
0000
0000
0000
1000
0000
0000
0000
0000
0000
0000
0000
0010
0000
0000
0000
0000
0000
0000
0000
0000
0000
0000
0000
0010
0000
0000
0000
0000
0000
0000
0000
0000
0000
0000
0000
,
2000
0000
0000
0000
0000
0000
0000
0000
0000
0000
0000
0000
3001
0000
0000
0010
0000
0000
0100
0000
1000
0000
0100
0000
1000
0000
0000
0001
0000
0000
1000
0000
0000
0020
0000
0000
0230
0000
0000
0300
0000
0000
0000
0000
0000
0000
0000
0000
,
0020
0000
0000
0000
0000
0000
0000
0000
0000
0000
0000
0000
0000
0000
0000
0000
0000
0000
0000
0000
0000
0000
0000
0000
0000
0000
0000
0000
0000
0000
0000
0000
0000
0000
0000
0000
0000
0000
0000
0000
0000
0000
0000
0000
0000
0000
0000
0000
1030
0000
0000
0000
0001
0000
0000
0000
1000
0000
0000
0000
0001
0000
0000
0000
0000
0000
0010
0000
0000
0000
0000
0000
0100
0000
0000
0000
0000
0000
1000
0000
0000
0000
0000
0000
0001
0000
0000
0000
0000
0000
0010
0000
0000
0000
0000
0000
0002
0000
0000
0000
0000
0000
0000
0000
0000
0000
0000
0000
0000
0000
0000
0000
0000
0000
0000
0000
0000
0000
0000
0000
0000
0000
0000
0000
0000
0000
0000
0000
0000
0000
0000
0000
0000
0000
0000
0000
0000
0000
0000
0000
0000
0000
0000
0000
1003
0000
0000
0000
0000
0000
0000
0000
0010
0000
0000
0000
0000
0000
0000
0000
1000
0000
0000
0000
0000
0000
0000
0000
0001
0000
0000
0000
0000
0000
0000
0000
0000
0000
0000
0000
0001
0000
0000
0000
0000
0000
0000
0000
0000
0000
0000
0000
,
0200
0000
0000
0000
0301
1000
0100
0010
0022
0000
0000
0000
0000
0000
0000
0033
,
0M01
0000
1000
0001
0000
0000
0100
0000
0000
0000
0010
0000
0100
0000
0001
0100
,
0000
0000
0010
0000
1000
0000
0010
0100
0000
1000
0100
0000
0010
0000
0010
0000
,
1000
0000
0001
0010
0000
0000
0100
0000
0000
0000
0010
0000
0001
0000
1000
0001
,
0000
0000
1000
0000
0100
0000
0010
1000
0000
0010
0100
0000
1000
0000
1000
0000
,
0001
0000
0100
0001
0000
0000
1000
0000
0000
0000
0001
0000
0100
0000
0010
0100
,
0000
0000
0001
0000
1000
0000
0010
0100
0000
1000
0100
0000
0010
0000
0010
0000
,
1000
0000
0001
0010
0000
0000
0100
0000
0000
0000
1000
0000
0001
0000
0010
0100
,
0000
0000
1000
0000
0100
0000
0010
1000
0000
0000
0010
0000
0100
0000
0100
0000
,
1000
0000
0001
1000
0000
0000
0010
0000
0000
0000
1000
0000
0010
0000
0100
0010
,
0000
0000
1000
0000
0001
0000
0100
0010
0000
0001
0010
0000
0100
0000
0100
0000
,
0001
0000
1000
0100
0000
0000
0010
0000
0000
0000
0100
0000
0010
0000
0001
1000
,
0000
0000
0001
0000
0010
0000
0100
0001
0000
0000
0100
0000
0020
0000
0000
0000
,
0031
0000
0000
0001
0000
0001
1000
0000
0010
0000
0000
0010
0000
0010
1000
0000
,
0001
0000
0000
0001
0000
0001
0010
0000
0100
0000
0000
0100
0000
0100
1000
0000
,
0004
0003
0100
0000
0040
0030
1000
0000
0001
1000
0100
0010
0001
1000
0100
0010
,
0002
0000
0000
0000
1003
0000
0000
0000
1000
0000
0000
0000
0000
0000
0001
0000
0000
0000
0000
0000
0010
0100
0010
0000
0100
0000
0010
0000
0001
0000
0000
0000
,
0000
0000
2000
3002
0203
0300
0200
0300
,
0000
0000
0002
0003
2000
3002
2003
3000
,
0000
0001
0000
0001
0000
0001
0000
0001
,
2000
0000
0000
0000
3010
0000
1000
0010
,
0000
0000
2000
3002
0023
0030
0020
0030
,
0000
0000
0200
0300
2000
3002
2003
3000
,
0010
0000
0000
0010
0000
0000
0100
0000
0001
0100
0000
0000
0010
0000
0010
0000
,
1000
0000
0000
1000
0000
0000
0001
0000
1000
0100
1000
0100
0010
0001
0010
0001
,
1000
0000
0001
1000
0000
0000
0010
0000
0000
0000
1000
0000
0010
0000
0100
0010
,
0000
0000
1000
0000
0001
0000
0100
0010
0000
0001
0010
0000
0100
0000
0001
0000
,
1000
0000
0001
0010
0000
0000
0100
0000
0000
0000
0010
0000
0001
0000
1000
0001
,
0000
0000
1000
0000
0100
0000
0010
1000
0020
0000
0000
0000
0130
0000
0100
0000
,
1000
0001
0200
0301
1000
0001
0200
0301
,
1000
0001
0200
0301
1000
0001
0200
0301
,
1000
0100
0010
0001
4000
3100
0010
0001
1000
0010
0100
0001
0100
0010
1000
0001
,
2000
0000
3010
0000
0010
0000
0010
0000
0010
0000
0010
0100
0010
1000
0001
0000
,
1000
0000
0100
0000
0010
0001
0010
0001
0200
0300
0000
0000
0010
1000
0010
1000
,
0200
0300
0000
0000
0020
0000
0000
0000
1030
0000
0010
0000
0002
0000
0000
0000
,
1003
0000
0010
0000
0100
0001
0100
0001
0020
0030
0000
0000
0100
1000
0100
1000
,
0020
0030
1000
0000
1000
0000
1000
0010
1000
0000
1000
0010
4000
0000
3001
0000
,
1000
0000
0010
0000
0100
0001
0100
0001
0020
0030
0000
0000
0001
0000
0010
0000
,
0200
0000
0320
0000
1030
0010
0002
0000
,
1003
0000
0000
1000
0000
0000
0001
0000
1000
0001
0000
0000
0100
0000
0100
0000
,
0002
0000
0103
0001
2000
0000
3400
0000
,
1300
0000
0001
0000
0010
0001
0010
0001
0200
0300
0010
0000
0010
0000
1000
0000
,
0002
0003
0002
0003
0101
0000
1010
0000
,
2000
3000
2000
3000
1100
0000
0011
0000
,
0011
0000
0002
0003
0002
1003
0040
0130
,
0002
0003
2000
3000
1001
0000
0011
0000
,
0011
0000
0002
0003
0101
0000
1010
0000
,
1000
0000
0000
1000
0000
0000
0001
0000
0100
0001
0000
0000
1000
0000
1000
0000
,
0002
2003
3002
0043
,
0230
0000
0301
0100
1000
0001
0001
0000
,
0100
0100
0010
0010
1000
0002
2003
0000
,
3010
0000
0000
0000
1000
0000
0004
0400
0000
0000
0003
0300
0010
0000
0000
0000
0200
0000
0000
0000
0000
0000
0000
0000
0301
0000
0000
0000
0001
0000
0000
0000
,
2000
0000
3100
0000
0010
0010
0100
0100
,
0020
0000
1030
0010
0002
2003
3020
0030
,
0100
0100
0001
0001
1000
0000
1001
0000
,
0001
0000
0010
0100
0000
0000
0010
0000
0000
0000
0001
0000
1000
0000
0100
0010
,
0000
0000
0001
0000
0010
0000
0100
0010
0001
1000
0010
0000
0100
0000
0010
0000
,
1000
0000
0000
1000
0000
0000
0001
0000
0100
0001
0000
0000
1000
0000
1000
0000
,
0100
0000
0000
0100
0000
0000
0010
0000
0001
0010
0000
0000
0100
0000
0100
0000
,
1000
0000
0000
1000
0000
0000
0001
0000
0100
0001
0000
0000
1000
0000
1000
0000
,
0001
0000
0000
0001
0000
0000
0010
0000
0100
0010
0000
0000
0001
0000
0001
0000
,
1000
0000
0000
1000
0000
0000
0010
0000
0100
0010
0000
0000
1000
0000
1000
0000
,
0001
0000
0000
0001
0000
0000
1000
0000
0100
1000
0000
0000
0001
0000
0001
0000
,
20M0
0000
3000
00M0
0000
0000
0M00
0000
0000
0M00
0000
0000
00M0
0000
00M0
0000
M000
0000
0000
M000
0000
0000
000M
0000
0000
000M
0000
0000
M000
0000
M000
0000
;

//---------------dance-single - warpdrive----------------
#NOTES:
     dance-single:
     warpdrive:
     Hard:
     8:
     0.564,0.591,0.183,0.400,0.308:
1000
0000
0000
1000
0000
0000
0001
0000
0000
0001
0000
0000
1000
0000
1000
0000
,
0010
0000
0000
0010
0000
0000
0100
0000
0000
0100
0000
0000
0010
0000
1000
0000
,
1000
0000
0000
0001
0000
0000
1000
0000
0000
0001
0000
0000
1000
0000
0000
0001
,
0000
0000
1000
0000
0000
0001
0000
0000
1000
0000
0000
0001
0000
0000
1000
0000
,
02M0
0000
0000
0300
1100
0000
0000
0000
2000
0000
0000
3000
1001
0000
0000
0000
,
0002
0000
0000
0003
1001
0000
0000
0000
0000
0000
0000
2000
3020
0030
0000
0000
,
0200
0000
0000
0300
0101
0000
0000
0000
0002
0000
0000
0003
1001
0000
0000
0000
,
2000
0000
0000
3000
1100
0000
0000
0000
2002
0000
0000
0000
0000
0000
3003
0000
,
00M1
0000
0000
0001
0000
0000
0001
0000
0000
0000
0100
0000
0010
0000
0000
1000
,
0000
0000
0001
0000
0010
0000
0000
1000
0000
0000
0010
0000
0001
0000
0001
0000
,
1000
0000
0000
1000
0000
0000
1000
0000
0000
0000
0100
0000
0010
0000
0000
0001
,
0000
0000
1000
0000
0010
0000
0000
0001
0000
0000
0010
0000
1000
0000
1000
0000
,
0001
0000
0000
0001
0000
0000
0001
0000
0000
0000
1000
0000
0100
0000
0000
1000
,
0000
0000
0001
0000
0100
0000
0000
1000
0000
0000
0100
0000
0001
0000
0001
0000
,
1000
0000
0000
1000
0000
0000
1000
0000
0000
0000
0001
0000
0010
0000
0000
0100
,
0000
0000
0010
0000
0001
0000
0000
1000
0000
0000
0001
0000
0200
0000
0000
0300
,
0110
0000
0010
0100
0001
0000
0001
0000
,
1001
0000
1000
0100
0010
0000
0010
0010
,
0011
0000
0001
1000
0010
0000
0010
0000
,
0110
0000
0100
0001
20M0
0000
3M02
0000
,
1003
0000
0000
0010
0000
0100
0001
0000
1000
0000
0000
0010
0000
0100
0001
0000
,
1000
0000
0000
0010
0000
0100
0001
0000
1000
0000
0000
0010
0000
0100
0001
0000
,
1000
1000
0100
0100
0010
0010
0001
0001
,
2000
0000
3010
0000
0010
0000
0000
1000
0000
0000
0001
0000
0000
0010
0000
0000
,
0000
0000
0002
2003
3200
0300
0200
0300
,
0000
0000
2000
3000
0002
0203
0302
0003
,
0000
1000
0000
1000
0000
1000
0000
1000
,
0002
0000
0000
0000
0013
0000
0001
0010
,
0000
0000
0002
2003
3020
0030
0020
0030
,
0000
0000
2000
3000
0002
0023
0032
0003
,
1000
0000
0000
1000
0000
0000
0010
0000
0000
0010
0000
0000
1000
0000
1000
0000
,
0001
0000
0000
0001
0000
0000
1000
0000
00M1
0000
0100
0000
M001
0000
0100
0000
,
0010
0000
0000
0010
0000
0000
0010
0000
0000
0000
1000
0000
0001
0000
0000
1000
,
0000
0000
0001
0000
0010
0000
0000
1000
0000
0000
0010
0000
0001
0000
1000
0000
,
0010
0000
0000
0010
0000
0000
0010
0000
0000
0000
1000
0000
0001
0000
0000
1000
,
0000
0000
0001
0000
0010
0000
0000
1000
000M
0000
0000
0000
0010
0000
0010
0000
,
0100
1000
0002
1003
0100
1000
0002
1003
,
0100
1000
0002
1003
0100
1000
0002
1003
,
0010
0000
0000
0010
0000
0000
0100
0000
0000
0100
0000
0000
0001
0000
0001
0000
,
1000
0100
0010
0100
0010
0100
0010
0100
,
1000
0000
0100
1000
0010
0000
0100
0001
,
0010
0000
0200
0300
1000
0100
0001
0000
,
0100
0000
0010
0001
0100
0000
0010
1000
,
0100
0010
0010
0001
0001
1000
1000
0001
,
1000
0000
0100
1000
0010
0000
1000
0010
,
0100
0000
0001
0000
1000
0010
0001
0000
,
0010
0000
0000
0010
0000
0000
1000
0000
0000
1000
0000
0000
0001
0000
0010
0000
,
0100
0000
0000
0000
2000
0000
3002
0000
0203
0000
0300
0000
0010
1000
0010
0000
,
0100
0000
0000
0000
0001
1000
0001
0000
0010
0000
0100
0000
0100
0000
1000
0000
,
0001
0001
0101
1010
,
1000
1000
1100
0011
,
0011
0000
0001
0000
0001
1000
0010
1000
,
0001
1000
1001
1100
,
1100
0100
1100
0011
,
0010
0000
0000
0010
0000
0000
0001
0000
0000
0001
0000
0000
1000
0000
1000
0000
,
0020
2030
3002
0023
,
0130
0000
0001
0100
1000
0001
0001
0000
,
1000
0100
1000
0100
1000
0001
0100
0000
,
0010
0000
0100
0001
0100
0001
0100
0000
0010
0000
0000
0000
1000
0000
1000
0000
,
0002
0000
0013
0000
0100
0100
1000
0001
,
0020
0000
1030
0010
0001
2000
3020
0030
,
0100
0010
0100
0010
0100
0000
0101
0000
,
0001
0000
0000
0001
0000
0000
0001
0000
0000
0000
1000
0000
0100
0000
0000
1000
,
0000
0000
0001
0000
0100
0000
0000
1000
0000
0000
0100
0000
0001
0000
1000
0000
,
0001
0000
0000
0001
0000
0000
0010
0000
0000
0010
0000
0000
0100
0000
0100
0000
,
1000
0000
0000
1000
0000
0000
0001
0000
0000
0001
0000
0000
1000
0000
1000
0000
,
0010
0000
0000
0010
0000
0000
0100
0000
0000
0100
0000
0000
0001
0000
0001
0000
,
1000
0000
0000
1000
0000
0000
0001
0000
0000
0001
0000
0000
0010
0000
0010
0000
,
0100
0000
0000
0100
0000
0000
1000
0000
0000
1000
0000
0000
0001
0000
0001
0000
,
1000
0000
0000
1000
0000
0000
0010
0000
0000
0010
0000
0000
0100
0000
0100
0000
,
M002
0000
0003
M000
0000
0000
00M0
0000
0000
00M0
0000
0000
0M00
0000
0M00
0000
000M
0000
0000
000M
0000
0000
M000
0000
0000
M000
0000
0000
000M
0000
000M
0000
;

//---------------dance-single - yay----------------
#NOTES:
     dance-single:
     yay:
     Easy:
     3:
     0.211,0.237,0.092,0.100,0.000:
1000
0000
0000
0000
,
0001
0000
0000
0000
,
1000
0000
0000
0000
,
0001
0000
0000
0000
,
0200
0300
0020
0030
,
2000
3000
0002
0003
,
0020
0030
0200
0300
,
2000
3000
0002
0000
,
0103
0000
0100
0000
,
0010
0000
0010
0100
,
0001
0000
0001
0000
,
1000
0000
1000
0100
,
0010
0000
0010
0000
,
0001
0000
0001
1000
,
0010
0000
0010
0000
,
1000
0000
1000
0001
,
0010
0000
0010
0000
,
0100
0000
0100
1000
,
0001
0000
0001
0000
,
0100
0000
0100
0000
,
0110
0000
1001
0000
,
0110
0000
1001
0000
,
0001
1000
0001
1000
,
0000
0000
0000
0000
,
0001
1000
0001
0000
,
1000
0100
1000
0000
,
0001
1000
0001
0000
,
0010
0100
0010
0110
,
0100
1000
0100
0000
,
0010
0100
0010
0000
,
0100
0000
0000
0000
,
1000
0000
0002
0000
,
1003
0010
1000
0000
,
0001
0010
0001
0000
,
1000
0001
1000
0000
,
0001
0100
0001
0000
,
1000
0000
1000
0000
,
0001
0000
0001
0000
,
2000
0000
0000
0000
,
3001
0000
0000
0000
,
1000
0000
1100
0000
,
1100
0000
0100
0100
,
1000
0000
1001
0000
,
1001
0000
0001
0000
,
0100
0000
0110
1001
,
0001
0000
1000
1000
,
0001
0000
0010
0000
,
0100
0000
1000
0000
,
0001
0000
0100
0010
,
1000
1000
0001
0000
,
1000
1000
0001
0000
,
1000
0001
0001
0000
,
0010
0000
0100
0000
,
1000
1000
0001
0000
,
0100
0000
0010
0000
,
1000
0001
1000
0010
,
0100
0000
0001
0000
,
1000
0000
0001
1000
,
0200
0000
0310
0000
,
0001
0000
1000
0000
,
0001
0000
0100
0000
,
0010
1000
0001
0000
,
1000
0000
0000
0000
,
0100
0000
0000
0000
,
1000
0000
0000
0000
,
0001
0000
0000
0000
,
0100
0000
0000
0000
,
0001
0000
0000
0000
,
1000
0000
0000
0000
,
0100
0000
0000
0000
,
2000
0000
0000
0000
,
3000
0000
0000
0000
;

//---------------dance-single - warpdrive----------------
#NOTES:
     dance-single:
     warpdrive:
     Medium:
     7:
     0.399,0.380,0.042,0.283,0.021:
1000
0000
0000
1000
0000
0000
0001
1000
,
0001
0000
0000
0001
0000
0000
1000
0001
,
1000
0000
0000
1000
0000
0000
1000
0000
,
0000
0000
1000
0000
0000
0000
0000
0000
1000
0000
0000
0001
0000
0000
1000
0000
,
0020
1030
2000
3001
,
0002
0013
0000
0011
,
0002
1003
2000
3010
,
0020
0130
0200
0000
,
0301
1000
0010
1000
,
0001
0000
0010
0000
0100
0000
1000
1000
,
0001
0100
0010
0100
,
0001
0000
1000
0000
0100
0000
0010
0010
,
0100
1000
0001
1000
,
0010
0000
0100
0000
0010
0000
1000
1000
,
0001
0010
0100
0010
,
0001
0000
1000
0000
0001
0000
0100
0100
,
0001
0000
1000
0001
1000
0000
1000
0000
,
0001
0000
0010
0100
0010
0000
0001
0001
,
1000
0000
0010
1000
0010
0000
0010
0000
,
0100
0000
0001
1000
0001
0000
2000
0000
,
3001
0000
0000
0001
0000
0000
0001
0000
1000
0000
0000
1000
0000
0000
1000
0000
,
0001
0000
0000
0001
0000
0000
0001
0000
1000
0000
0000
1000
0000
0000
1000
0000
,
0002
0023
0230
2300
,
3002
0003
0000
0000
0000
0000
0000
0000
,
0000
0000
1000
0010
1000
0000
1000
0000
,
0000
0000
0001
0000
0010
0100
0010
0000
,
0000
0001
0000
0001
0000
0001
0000
0001
,
2000
0000
0000
0000
3010
0000
0100
0010
,
0000
0000
1000
0001
1000
0000
1000
0000
,
0000
0000
0001
0000
0010
0100
0010
0000
,
0001
0000
0000
0001
0000
0000
1000
0001
,
1000
0000
0000
1000
0020
0000
0230
0000
,
0301
1000
0001
0010
,
0100
0000
1000
0000
0001
0000
1000
0010
,
0100
0001
1000
0001
,
1000
0000
0100
0000
0020
0000
0130
0100
,
1000
1001
0001
1001
,
1000
1001
0001
1001
,
2000
3200
0320
0032
,
2003
3000
0000
0000
0000
0000
0000
0000
,
0001
0200
1300
0200
,
0301
0000
1000
0000
0100
0010
0100
0000
,
1000
0200
0301
0200
,
1300
0000
0001
0100
0001
0000
1000
0001
,
1000
0000
0200
0000
0001
0300
0100
0010
,
0002
0000
2003
0000
3001
1000
0001
0000
,
0100
0000
0000
0100
0000
0000
0001
1000
,
0001
0100
0010
2000
,
3001
0020
1030
0010
,
0100
0100
1000
1000
,
0001
0001
0100
0010
,
0010
1000
1000
0001
,
1000
0100
0010
0001
,
0001
1000
0010
0010
,
1000
0000
0000
1000
0000
0000
0001
0010
,
0001
1000
0100
0010
,
0001
0020
1030
0010
,
0100
1000
0100
0000
0010
0000
0001
0000
,
2000
0000
0000
0000
3001
0000
0100
0001
,
0100
0001
1000
1000
,
0001
0000
0100
0010
0100
0000
0001
0000
,
1000
0100
1000
0000
0100
0000
0010
0000
,
0001
0000
0000
0001
0000
0000
1000
0001
,
1000
0000
0000
1000
0010
0000
0100
0001
,
0100
0000
0000
0100
0000
0000
0001
1000
,
0001
0000
0000
0001
0000
0000
1000
0100
,
1000
0000
0000
1000
0000
0000
0001
0100
,
0001
0000
0000
0001
0000
0000
1000
0010
,
1000
0000
0000
1000
0000
0000
0001
0010
,
0001
0000
0000
0001
0000
0000
1000
0100
,
2000
3000
0000
0000
0000
0000
0000
0000
;
