#TITLE:Vampin' Magic;
#SUBTITLE:;
#ARTIST:uma;
#TITLETRANSLIT:;
#SUBTITLETRANSLIT:;
#ARTISTTRANSLIT:;
#CREDIT:;
#BANNER:;
#BACKGROUND:;
#LYRICSPATH:;
#CDTITLE:;
#MUSIC:Vampin' Magic.ogg;
#OFFSET:-0.388;
#SAMPLESTART:23.360;
#SAMPLELENGTH:12.000;
#SELECTABLE:YES;
#BPMS:0.000=175.000;
#STOPS:;
#BGCHANGES:;

//---------------dance-single - ----------------
#NOTES:
     dance-single:
     :
     Hard:
     9:
     0.697,0.715,0.645,0.298,0.657: // measure 1
0000
0000
0000
0000
,  // measure 2
1000
0000
0000
0000
0000
1000
0100
0000
0000
0000
0000
0100
,  // measure 3
1000
0000
0000
0001
0000
0100
0001
0000
0000
1000
0000
0000
,  // measure 4
0100
0000
0000
0000
0000
0100
0010
0000
0000
0000
0000
0010
,  // measure 5
0100
0000
0000
1000
0000
0001
0100
0000
0000
0010
0000
0000
,  // measure 6
0100
0000
0000
0000
0000
0100
0010
0000
0000
0000
0000
0010
,  // measure 7
1000
0000
0000
0100
0000
0010
0001
0000
0000
0100
0000
0000
,  // measure 8
0010
0000
0000
0000
0000
1000
0100
0000
0000
0010
0000
0001
,  // measure 9
0010
0001
2002
3003
,  // measure 10
1001
0000
0000
0001
0000
0000
0100
0000
0000
0010
0000
2000
,  // measure 11
0001
0000
0000
0001
0000
0000
3001
0000
0000
1000
0000
0100
,  // measure 12
1000
0000
0000
0001
0000
0010
0001
0000
0000
0100
0000
0020
,  // measure 13
0100
0100
0130
1010
,  // measure 14
0101
0000
0000
0001
0000
1000
0100
0000
0000
0010
0000
0000
,  // measure 15
1002
0000
0000
1000
0000
0000
1003
0000
0000
0001
0000
1000
,  // measure 16
0100
0000
0000
1000
0000
0001
0100
0000
0000
0010
0000
0100
,  // measure 17
0110
1001
0110
1111
,  // measure 18
1001
0000
0000
0101
0000
0000
1010
0000
0000
1000
0000
0100
,  // measure 19
0010
0000
0000
0001
0000
0100
0010
0000
0000
1001
0000
0000
,  // measure 20
1010
0000
0000
0101
0000
0000
1001
0000
1000
0100
0000
0010
,  // measure 21
0001
0000
0000
0101
0000
0100
0020
0000
0000
0130
0000
0000
,  // measure 22
1001
0000
0000
0110
0000
0000
0011
0000
0000
0100
0000
0001
,  // measure 23
1000
0000
0000
0010
0000
0100
0001
0000
0000
1100
0000
0000
,  // measure 24
1001
0000
0000
0011
0000
0001
0100
0000
0000
1010
0000
1000
,  // measure 25
0100
0000
0000
0011
0000
0000
1001
0000
0000
1000
0100
0010
,  // measure 26
0002
0000
0000
0103
0000
0100
0020
0000
0000
1030
0000
0100
,  // measure 27
1000
0000
0100
0010
0000
0100
1000
0000
0000
0100
0000
0010
,  // measure 28
0002
0000
0000
1003
0000
0010
0100
0000
0100
0010
0000
0100
,  // measure 29
0001
0000
0100
1000
0000
0100
0010
0000
0010
1000
0000
0000
,  // measure 30
2001
0000
0000
3001
0000
0010
0200
0000
0000
0310
0000
0001
,  // measure 31
1000
0000
0001
0100
0000
0001
0010
0000
0000
0011
0000
0000
,  // measure 32
1001
0000
1000
0100
0000
0010
0001
1000
0001
0100
0010
1000
,  // measure 33
0001
0110
2202
3303
,  // measure 34
1001
0000
0000
0001
0000
0100
0001
0000
0000
0100
0000
0010
,  // measure 35
1000
0000
0000
0001
0000
1000
0010
0000
0010
1000
0000
1000
,  // measure 36
0001
0000
0000
0010
0000
0100
0010
0000
0000
0001
0000
1000
,  // measure 37
0001
0000
0000
0100
0000
0010
0100
0000
0000
0110
0000
0000
,  // measure 38
1001
0000
0000
0001
0000
0100
0010
0000
0000
1000
0000
0100
,  // measure 39
0010
0000
0000
0001
0000
0100
1000
0000
0000
0100
0000
0000
,  // measure 40
0001
0000
0000
0010
0000
0100
0010
0000
0000
0001
0000
1000
,  // measure 41
0100
0010
0011
1100
,  // measure 42
1001
0000
0001
0100
0000
0000
0010
0000
1000
0100
0000
0002
,  // measure 43
1000
0000
0000
1000
0000
0000
1003
0000
0000
0010
0000
1000
,  // measure 44
0100
0000
0000
0010
0000
0001
1000
0000
1000
0100
0000
0010
,  // measure 45
0110
0000
0000
0110
0000
0000
0110
0000
0000
1001
0000
0001
,  // measure 46
0100
0000
0000
0010
0000
1000
0001
0000
0000
0010
0000
0002
,  // measure 47
0010
0000
0000
1000
0000
0000
0103
0000
0000
0010
0000
1000
,  // measure 48
0100
0000
0000
0100
0000
0001
0100
0000
0000
0100
0000
0010
,  // measure 49
0100
0110
2200
3300
,  // measure 50
2002
0000
0000
3003
0000
0001
0200
0000
0000
0300
0000
0010
,  // measure 51
1000
0000
1000
0100
0000
0100
0010
0000
0000
0100
0000
0000
,  // measure 52
0020
0000
0000
0030
0000
0010
0002
0000
0000
0003
0000
0001
,  // measure 53
0100
0000
0010
1000
0000
1000
0100
0000
0000
1000
0000
0000
,  // measure 54
0002
0000
0000
0003
0000
0100
0020
0000
0000
0030
0000
1000
,  // measure 55
0100
0000
0100
0010
0000
0010
0100
0000
0000
1000
0000
0000
,  // measure 56
0002
0000
0000
0003
0000
1000
0010
0000
0000
1000
0000
0100
,  // measure 57
0010
0110
2002
3013
,  // measure 58
1001
0000
0000
0001
0000
0100
0001
0000
0000
1000
0000
0100
,  // measure 59
1000
0000
1000
0100
0000
0100
0010
0000
0000
0001
0000
0000
,  // measure 60
1000
0000
0000
0010
0000
0100
0010
0000
0000
1000
0000
0100
,  // measure 61
0010
0000
0100
0010
0000
0001
1000
0000
0000
1001
0000
0000
,  // measure 62
0101
0000
0001
0100
0000
0100
0010
0000
0010
1000
0000
1000
,  // measure 63
0100
0000
0100
0001
0000
0001
0100
0000
0100
1000
0000
1000
,  // measure 64
0001
0000
0100
0010
0000
1000
0001
0010
0001
1000
0100
1000
,  // measure 65
0001
0101
0110
1111
,  // measure 66
1100
0000
0000
1000
0000
0100
0020
0000
0000
0131
0000
0000
,  // measure 67
1001
0000
0001
0100
0000
0010
1000
0000
0000
0011
0000
0000
,  // measure 68
1001
0000
0000
0010
0000
1000
0100
0000
0100
0001
0000
0100
,  // measure 69
1000
0000
0000
0001
0100
0001
2000
0000
0000
3101
0000
0000
,  // measure 70
0011
0000
0000
0100
0000
0010
0001
0000
0001
0100
0000
0100
,  // measure 71
1000
0000
0100
0010
0000
1000
0001
0000
0000
1001
0000
0000
,  // measure 72
0011
0000
0000
1000
0000
0100
1100
0000
0000
0001
0000
0100
,  // measure 73
0110
0000
0000
1001
0000
0000
0110
0000
0000
0001
1000
0001
,  // measure 74
1000
0000
0100
0001
0000
0100
1000
0000
0010
0100
0000
0001
,  // measure 75
1000
0000
0010
1000
0100
0010
0002
0000
0100
0103
0000
0000
,  // measure 76
0010
0000
1000
0100
0000
1000
0010
0000
0100
0001
0000
0010
,  // measure 77
0100
0000
0000
0010
0000
0001
2000
0000
0000
3011
0000
0000
,  // measure 78
0110
0000
0010
1000
0000
0001
0100
0000
0001
0010
0000
0100
,  // measure 79
0001
0000
0100
1000
0001
0100
0020
0000
1000
1030
0000
0000
,  // measure 80
1001
0000
1000
0100
0000
0100
0001
0100
1000
0010
0100
0001
,  // measure 81
0010
0110
2002
3003
,  // measure 82
0011
0011
0101
0101
,  // measure 83
1010
1001
2200
3300
,  // measure 84
1001
0000
0001
0100
0000
1000
0010
1000
0100
0001
0100
1000
,  // measure 85
0001
1111
1111
0000
;

//---------------dance-single - ----------------
#NOTES:
     dance-single:
     :
     Medium:
     6:
     0.519,0.615,0.556,0.314,0.141: // measure 1
0000
0000
0000
0000
,  // measure 2
0001
0000
1000
0000
,  // measure 3
0001
0000
0000
0100
0000
0010
0100
0000
0000
0001
0000
0000
,  // measure 4
1000
0000
0001
0000
,  // measure 5
1000
0000
0000
0100
0000
0010
0100
0000
0000
1000
0000
0000
,  // measure 6
0001
0000
0100
0000
,  // measure 7
0010
0000
0000
1000
0000
0010
1000
0000
0000
0001
0000
0000
,  // measure 8
0010
0000
0100
0010
,  // measure 9
0001
1000
2002
3003
,  // measure 10
1000
0100
0010
0200
,  // measure 11
1000
1000
1300
0000
,  // measure 12
1000
0001
0100
0020
,  // measure 13
0100
0100
0130
0010
,  // measure 14
1001
0100
1001
0020
,  // measure 15
0001
0001
0031
0011
,  // measure 16
1001
1000
1010
0010
,  // measure 17
0110
1001
0220
0330
,  // measure 18
0010
0000
0000
1000
0000
0000
0001
0000
0100
0001
0000
0000
,  // measure 19
1000
0100
0010
0100
,  // measure 20
0010
0000
0000
0001
0000
0000
1000
0000
0100
1000
0000
0000
,  // measure 21
0001
0100
0220
0330
,  // measure 22
0010
0000
0000
1000
0000
0000
0001
0000
0010
0001
0000
0000
,  // measure 23
1000
0001
0100
0010
,  // measure 24
1000
0001
0010
0100
,  // measure 25
0011
1100
2002
3003
,  // measure 26
0001
0000
0000
1000
0000
0100
1000
0000
0000
0001
0000
0100
,  // measure 27
0001
1000
0100
0010
,  // measure 28
0001
0000
0000
0100
0000
0010
0100
0000
0000
0001
0000
1000
,  // measure 29
0001
1000
0100
0010
,  // measure 30
0001
0000
0000
1000
0000
0100
1000
0000
0000
0001
0000
0100
,  // measure 31
0001
1000
0010
0100
,  // measure 32
0001
0000
0000
0010
0000
0001
0100
0000
0000
0010
0000
1000
,  // measure 33
0200
0010
0020
0330
,  // measure 34
2000
3100
0200
0301
,  // measure 35
0002
0103
0200
1300
,  // measure 36
0002
0103
2000
3100
,  // measure 37
0002
0013
2001
3001
,  // measure 38
0101
0010
1001
0100
,  // measure 39
0110
1000
0110
0001
,  // measure 40
1100
0010
0101
0010
,  // measure 41
1001
0100
0110
1001
,  // measure 42
0110
0010
1000
0200
,  // measure 43
0010
0010
0310
0000
,  // measure 44
0010
0001
1000
0002
,  // measure 45
0100
0100
0103
0000
,  // measure 46
0010
1000
0100
2000
,  // measure 47
0001
0001
3001
1000
,  // measure 48
1100
0100
0101
0100
,  // measure 49
0110
0110
0220
0330
,  // measure 50
1001
0000
0000
0000
0000
0001
0100
0000
0000
0000
0000
0100
,  // measure 51
0001
1000
0100
1000
,  // measure 52
0100
0000
0000
0000
0000
1000
0100
0000
0000
0000
0000
1000
,  // measure 53
0001
0100
0001
0010
,  // measure 54
0100
0000
0000
0000
0000
0010
0100
0000
0000
0000
0000
0010
,  // measure 55
0001
0010
0001
1000
,  // measure 56
0100
0000
0000
0000
0000
1000
0001
0000
0000
1000
0000
0001
,  // measure 57
1000
0001
1002
1003
,  // measure 58
0110
0000
0000
0010
0000
1000
0010
0000
0000
0100
0000
0001
,  // measure 59
0100
0010
1000
0100
,  // measure 60
0010
0000
0000
0001
0000
0010
0001
0000
0000
1000
0000
0100
,  // measure 61
1000
0001
1000
0100
,  // measure 62
0011
0011
1100
1100
,  // measure 63
1010
1010
0101
0101
,  // measure 64
1001
1001
0110
0110
,  // measure 65
1001
0110
2002
3003
,  // measure 66
1001
0000
0000
0001
0000
0100
0002
0000
0000
0103
0000
0000
,  // measure 67
0010
1000
0100
0010
,  // measure 68
0100
0000
0000
0010
0000
0001
0010
0000
0000
0001
0000
1000
,  // measure 69
0001
1000
0020
0130
,  // measure 70
1001
0000
0000
0001
0000
0100
0001
0000
0000
0100
0000
0000
,  // measure 71
1000
0100
0010
1000
,  // measure 72
0100
0000
0000
0010
0000
0001
1000
0000
0000
0001
0000
1000
,  // measure 73
0001
0110
2002
3003
,  // measure 74
1001
0001
1001
1000
,  // measure 75
1010
0000
0000
0001
0000
0100
0001
0000
0000
1000
0000
0000
,  // measure 76
0110
0100
1001
0010
,  // measure 77
1001
0000
0000
0001
0000
1000
0020
0000
0000
0130
0000
0000
,  // measure 78
0110
1000
0110
0001
,  // measure 79
1001
0000
0000
1000
0000
0001
0010
0000
0000
0100
0000
0000
,  // measure 80
0011
0100
1001
0100
,  // measure 81
1010
0101
2002
3003
,  // measure 82
1000
0100
0001
0100
,  // measure 83
1000
0001
2000
3000
,  // measure 84
1001
0100
1001
0010
,  // measure 85
0100
0110
2002
3003
;

//---------------dance-single - ----------------
#NOTES:
     dance-single:
     :
     Easy:
     5:
     0.427,0.512,0.419,0.193,0.000: // measure 1
0000
0000
0000
0000
,  // measure 2
0100
0000
0100
0000
,  // measure 3
0010
0100
0010
0100
,  // measure 4
0010
0000
0010
0000
,  // measure 5
0010
1000
0001
1000
,  // measure 6
0001
0000
0001
0000
,  // measure 7
1000
0100
0010
0001
,  // measure 8
0100
0000
0010
0100
,  // measure 9
0010
1000
0001
0000
,  // measure 10
1001
0000
0110
0000
,  // measure 11
0010
1000
0100
0010
,  // measure 12
0110
0000
1001
0000
,  // measure 13
0001
0010
0001
1000
,  // measure 14
1001
0000
0110
0000
,  // measure 15
0010
1000
0001
1000
,  // measure 16
0100
0010
0100
0010
,  // measure 17
1001
1001
2002
3003
,  // measure 18
0001
0100
0001
1000
,  // measure 19
0100
0010
0001
0000
,  // measure 20
1000
0100
1000
0001
,  // measure 21
0010
0100
0010
0010
,  // measure 22
0010
0001
0100
0010
,  // measure 23
1000
0001
0100
0000
,  // measure 24
0010
0100
0001
0010
,  // measure 25
0100
0010
0220
0330
,  // measure 26
1001
0001
0100
0001
,  // measure 27
1000
0100
1000
0000
,  // measure 28
0001
0010
0100
0001
,  // measure 29
0100
1000
0001
0100
,  // measure 30
0001
0100
0010
1000
,  // measure 31
0010
0100
0010
0000
,  // measure 32
1000
0100
0010
0100
,  // measure 33
0110
0110
0220
0330
,  // measure 34
0010
0001
1000
0001
,  // measure 35
0100
0010
1000
1000
,  // measure 36
1000
0100
0010
0100
,  // measure 37
1000
0001
2002
3003
,  // measure 38
0001
0100
1000
0100
,  // measure 39
0010
1000
0100
0100
,  // measure 40
0100
1000
0001
0100
,  // measure 41
0001
1000
2002
3003
,  // measure 42
0001
0100
0010
2000
,  // measure 43
0001
0001
3001
0000
,  // measure 44
0001
0010
0100
0020
,  // measure 45
0100
0100
0130
0000
,  // measure 46
0010
0001
1000
0002
,  // measure 47
1000
1000
1003
0000
,  // measure 48
0120
0100
0100
0100
,  // measure 49
0100
0100
0130
0000
,  // measure 50
1001
0000
0100
0000
,  // measure 51
0010
1000
0100
0000
,  // measure 52
1000
0000
0001
0000
,  // measure 53
0010
0001
0100
0001
,  // measure 54
1000
0000
0100
0000
,  // measure 55
0010
0001
0100
0010
,  // measure 56
1000
0000
0010
1000
,  // measure 57
0001
0001
0002
0003
,  // measure 58
1001
0100
0010
1000
,  // measure 59
0100
0100
0100
1000
,  // measure 60
0001
0010
0100
0010
,  // measure 61
0001
0001
0001
1000
,  // measure 62
1001
0100
0010
1000
,  // measure 63
1001
0100
0010
0001
,  // measure 64
1001
1001
0110
0110
,  // measure 65
1001
0110
2002
3003
,  // measure 66
0001
0100
0010
0110
,  // measure 67
0100
0001
1000
0100
,  // measure 68
0010
0100
0001
0100
,  // measure 69
1000
0001
0100
0100
,  // measure 70
0010
1000
0100
0010
,  // measure 71
0100
1000
0001
1001
,  // measure 72
0110
0100
1001
0010
,  // measure 73
1001
0110
2002
3003
,  // measure 74
1001
0001
1000
0100
,  // measure 75
0110
0010
0001
1000
,  // measure 76
1001
1000
0010
0100
,  // measure 77
0110
1001
0110
0100
,  // measure 78
0110
0010
1000
0001
,  // measure 79
1001
0001
0010
0100
,  // measure 80
0110
0010
0001
1000
,  // measure 81
1001
1001
2002
3003
,  // measure 82
1000
1000
0100
0100
,  // measure 83
0010
0001
2000
3000
,  // measure 84
1001
0001
1001
1000
,  // measure 85
1001
0110
2002
3003
;

//---------------dance-single - ----------------
#NOTES:
     dance-single:
     :
     Beginner:
     2:
     0.252,0.341,0.314,0.000,0.000: // measure 1
0000
0000
0000
0000
,  // measure 2
1000
0000
0001
0000
,  // measure 3
1000
1000
1000
0000
,  // measure 4
0001
0000
1000
0000
,  // measure 5
0001
0001
0001
0000
,  // measure 6
0100
0000
0010
0000
,  // measure 7
0100
0100
0100
0000
,  // measure 8
0010
0000
0100
0000
,  // measure 9
0010
0010
0010
0000
,  // measure 10
1001
0000
0000
0000
,  // measure 11
0100
0100
0100
0000
,  // measure 12
0010
0000
0000
0000
,  // measure 13
1000
1000
1000
0000
,  // measure 14
0001
0000
0010
0000
,  // measure 15
0100
0100
0100
0000
,  // measure 16
0010
0000
0001
0000
,  // measure 17
1000
1000
1000
1000
,  // measure 18
1001
0000
0001
0000
,  // measure 19
0100
0000
0010
0000
,  // measure 20
1000
0000
0100
0000
,  // measure 21
0010
0000
0100
0000
,  // measure 22
0110
0000
0010
0000
,  // measure 23
0001
0000
1000
0000
,  // measure 24
0001
0000
1000
0000
,  // measure 25
1001
1001
1001
0000
,  // measure 26
0110
0000
0100
0000
,  // measure 27
0010
0000
0000
0000
,  // measure 28
1000
0000
0001
0000
,  // measure 29
1000
0000
0100
0000
,  // measure 30
0010
0000
0100
0000
,  // measure 31
0010
0000
0000
0000
,  // measure 32
0001
0000
1000
0000
,  // measure 33
0001
0001
0001
0000
,  // measure 34
1001
0000
1000
0000
,  // measure 35
0100
0000
0001
0000
,  // measure 36
0100
0000
1000
0000
,  // measure 37
0001
0000
1001
0000
,  // measure 38
1000
0000
0001
0000
,  // measure 39
0100
0000
1000
0000
,  // measure 40
0100
0000
0001
0000
,  // measure 41
1000
0000
0001
0001
,  // measure 42
0001
0000
1000
0000
,  // measure 43
0100
0100
0100
0000
,  // measure 44
1000
0000
0001
0000
,  // measure 45
0100
0100
0100
0000
,  // measure 46
0010
0000
1000
0000
,  // measure 47
0001
0001
0001
0000
,  // measure 48
0100
0100
0100
0100
,  // measure 49
0100
0100
0100
0000
,  // measure 50
0110
0000
0000
0000
,  // measure 51
0000
0000
0000
0000
,  // measure 52
0010
0000
0000
0000
,  // measure 53
1000
0000
0001
0000
,  // measure 54
1000
0000
0000
0000
,  // measure 55
0100
0000
0010
0000
,  // measure 56
0100
0000
0000
0000
,  // measure 57
0010
0010
0010
0000
,  // measure 58
1001
0000
0000
0000
,  // measure 59
0001
0000
1000
0000
,  // measure 60
1001
0000
0000
0000
,  // measure 61
0010
0000
0100
0000
,  // measure 62
0110
0000
0110
0000
,  // measure 63
1001
0000
1001
0000
,  // measure 64
0110
0000
1001
0000
,  // measure 65
0110
0110
0110
0000
,  // measure 66
1001
0000
0001
0000
,  // measure 67
0100
0000
0001
0000
,  // measure 68
0010
0000
0100
0000
,  // measure 69
0010
0000
0001
0000
,  // measure 70
1001
0000
1000
0000
,  // measure 71
0100
0000
0010
0000
,  // measure 72
0100
0000
1000
0000
,  // measure 73
0010
0010
0010
0000
,  // measure 74
0110
0000
0110
0000
,  // measure 75
0010
0000
1000
0000
,  // measure 76
1001
0000
1001
0000
,  // measure 77
0001
0000
0010
0000
,  // measure 78
0110
0000
1001
0000
,  // measure 79
0001
0000
1000
0000
,  // measure 80
1001
0000
0110
0000
,  // measure 81
1001
1001
1001
0000
,  // measure 82
0001
0000
1000
0000
,  // measure 83
0100
0100
0100
0000
,  // measure 84
1001
0000
0110
0000
,  // measure 85
1001
1001
1001
0000
;
