#VERSION:0.83;
#TITLE:The Only Way Is Up;
#SUBTITLE:;
#ARTIST:Martin Garrix & Tiesto;
#TITLETRANSLIT:;
#SUBTITLETRANSLIT:;
#ARTISTTRANSLIT:;
#GENRE:Progressive House;
#ORIGIN:;
#CREDIT:;
#BANNER:The Only Way Is Up.png;
#BACKGROUND:The Only Way Is Up-bg.png;
#PREVIEWVID:;
#JACKET:The Only Way Is Up-jacket.png;
#CDIMAGE:;
#DISCIMAGE:;
#LYRICSPATH:;
#CDTITLE:;
#MUSIC:towiu.ogg;
#OFFSET:0.000000;
#SAMPLESTART:45.000000;
#SAMPLELENGTH:15.000000;
#SELECTABLE:YES;
#BPMS:0.000=128.000;
#STOPS:;
#DELAYS:;
#WARPS:;
#TIMESIGNATURES:0.000=4=4;
#TICKCOUNTS:0.000=4;
#COMBOS:0.000=1;
#SPEEDS:0.000=1.000=0.000=0;
#SCROLLS:0.000=1.000;
#FAKES:;
#LABELS:0.000=Song Start;
#BGCHANGES:;
#KEYSOUNDS:;
#ATTACKS:
;

//---------------dance-single - ----------------
#NOTEDATA:;
#CHARTNAME:;
#STEPSTYPE:dance-single;
#DESCRIPTION:;
#CHARTSTYLE:;
#DIFFICULTY:Challenge;
#METER:6;
#RADARVALUES:0.361504,0.454473,0.453906,0.068086,0.130498,223.000000,183.000000,40.000000,6.000000,132.000000,0.000000,0.000000,0.000000,0.000000,0.361504,0.454473,0.453906,0.068086,0.130498,223.000000,183.000000,40.000000,6.000000,132.000000,0.000000,0.000000,0.000000,0.000000;
#CREDIT:;
#NOTES:
// measure 0
0000
0000
0000
0000
,  // measure 1
0000
0000
0000
0000
,  // measure 2
0000
0000
0000
0000
,  // measure 3
0000
0000
0000
0000
,  // measure 4
1000
0000
0110
0000
1000
0010
0100
0000
,  // measure 5
0010
0000
1001
0000
0010
1000
0002
0000
,  // measure 6
1003
0000
0000
1000
0000
0000
0100
0000
0000
0100
0000
0000
0010
0000
0000
0000
,  // measure 7
0100
0000
0010
0100
1000
0001
0100
0010
,  // measure 8
0100
0000
0000
0100
0000
0000
0100
0000
,  // measure 9
0000
0000
0000
0000
,  // measure 10
0001
0000
0000
0001
0000
0000
0001
0000
,  // measure 11
0000
0000
0000
0000
,  // measure 12
1000
0000
0000
0001
0000
0000
1000
0000
0000
0100
0000
0000
0010
0000
0000
0000
,  // measure 13
0110
0011
MMMM
0011
,  // measure 14
0001
0000
0000
1000
0000
0000
0001
0000
0000
0100
0000
0000
0010
0000
0000
0000
,  // measure 15
0110
1010
MMMM
1010
,  // measure 16
1000
0000
0000
0002
0000
0000
1000
0000
0000
0010
0000
0000
1003
0000
0000
0001
,  // measure 17
0000
0100
0010
0000
0100
0010
1000
0000
,  // measure 18
0001
0000
0000
2000
0000
0000
0001
0000
0000
0010
0000
0000
3001
0000
0000
1000
,  // measure 19
0000
0100
0010
0000
0100
0010
0001
0000
,  // measure 20
1000
0010
0001
0100
,  // measure 21
1000
0001
0100
0100
,  // measure 22
0010
0100
0001
1000
0100
0001
0100
1000
,  // measure 23
0001
0000
0000
0001
1000
0010
0110
0000
,  // measure 24
1010
MMMM
1010
MMMM
0110
MMMM
1010
MMMM
,  // measure 25
1010
MMMM
1001
MMMM
0011
MMMM
0110
MMMM
,  // measure 26
0011
MMMM
0011
MMMM
0110
MMMM
0011
MMMM
,  // measure 27
0011
MMMM
1001
MMMM
1010
MMMM
1100
MMMM
,  // measure 28
0101
MMMM
0101
MMMM
0110
MMMM
0101
MMMM
,  // measure 29
0101
MMMM
1001
MMMM
1100
MMMM
0110
MMMM
,  // measure 30
1100
MMMM
1100
MMMM
0110
MMMM
1100
MMMM
,  // measure 31
2100
0001
0010
3001
,  // measure 32
1000
0000
0000
0001
0000
0000
0010
0000
0000
1000
0000
0000
0010
0000
0000
0001
,  // measure 33
0000
0100
0010
0001
0010
1000
0001
0000
,  // measure 34
0001
0000
0000
1000
0000
0000
0100
0000
0000
0001
0000
0000
0100
0000
0000
1000
,  // measure 35
0000
0010
0100
1000
0100
0010
1000
1000
,  // measure 36
0001
0000
0000
1000
0000
0000
0100
0000
0000
0001
0000
0000
0100
0000
0000
1000
,  // measure 37
0000
0010
0100
1000
0100
0001
1000
0000
,  // measure 38
1000
0000
0000
0100
0000
0000
0001
0000
0000
0010
0000
0000
1000
0000
0000
0000
,  // measure 39
MMMM
0000
0000
1000
0001
0010
0100
0010
,  // measure 40
0001
1000
0010
0100
,  // measure 41
0110
MMMM
1001
MMMM
,  // measure 42
0001
1000
0100
0010
,  // measure 43
0100
0000
0000
0010
0100
1000
0001
0200
,  // measure 44
0020
0000
0330
0000
;

//---------------dance-single - ----------------
#NOTEDATA:;
#CHARTNAME:;
#STEPSTYPE:dance-single;
#DESCRIPTION:;
#CHARTSTYLE:;
#DIFFICULTY:Hard;
#METER:9;
#RADARVALUES:0.546308,0.580716,0.204258,0.079434,0.470927,337.000000,319.000000,18.000000,7.000000,0.000000,0.000000,0.000000,0.000000,0.000000,0.546308,0.580716,0.204258,0.079434,0.470927,337.000000,319.000000,18.000000,7.000000,0.000000,0.000000,0.000000,0.000000,0.000000;
#CREDIT:;
#NOTES:
0000
0000
0000
0000
,
0000
0000
0000
0000
,
0000
0000
0000
0000
,
0000
0000
0000
0000
,
0100
0000
1010
0000
0010
1000
0001
0000
,
1000
0000
0001
0000
0010
0000
0000
0000
0001
0000
0010
0000
0100
0000
1000
0100
,
1000
0000
0000
1000
0000
0000
0001
0000
0000
0001
0000
0000
0100
0000
0000
0000
,
0010
0000
0101
0100
0010
1000
0001
0010
,
0100
0000
0000
0010
0000
0000
0001
0000
0000
0100
0000
0000
0010
0000
0000
0000
,
0000
0000
0100
0000
0010
1000
0010
0000
0100
0000
0010
1000
0000
1000
0000
0000
,
0010
0000
0000
0100
0000
0000
0001
0000
0000
0010
0000
0000
0100
0000
0000
0000
,
0000
0000
0010
0000
0100
1000
0100
0000
0010
0000
0001
0000
1000
0000
0010
0000
,
0100
0000
0001
0200
0000
0000
0010
0000
0000
0001
0000
0000
0310
0000
0100
0001
,
0000
0000
0100
0000
0001
1000
0000
0000
0001
0000
1000
0100
0000
0010
0000
0000
,
0100
0000
1000
0200
0000
0000
0010
0000
0000
1000
0000
0000
0310
0000
0100
1000
,
0000
0000
0100
0000
1000
0001
0000
0000
1000
0000
0001
0100
0000
0000
0010
0000
,
0100
0000
0010
0100
0000
0000
0101
0000
0000
1001
0000
0000
0011
0000
0010
0100
,
0000
0000
0010
0000
0100
1000
0000
0000
0001
0000
1000
0010
0000
0100
0000
0000
,
0010
0000
0100
0010
0000
0000
1010
0000
0000
1001
0000
0000
1100
0000
0100
0010
,
0000
0000
0100
0000
0010
0001
0000
0000
1000
0000
0001
0100
0000
0000
0010
0000
,
0100
0001
1000
0100
0001
0000
0001
0100
,
1000
0001
1000
0100
0001
0100
1000
0100
,
0001
0000
0100
0000
0010
0000
0001
0000
1000
0001
1000
0001
1000
0010
1000
0010
,
0100
0000
0000
0100
0010
1000
1001
0000
,
1000
0000
0001
1000
0000
0001
0010
0000
0100
0010
0000
0001
0010
0000
0001
1000
,
0000
0001
0100
0000
0010
0100
0010
0000
0100
0000
0001
0000
1000
0001
1000
0001
,
1000
0000
0001
0010
0000
0100
0010
0000
0000
0011
0000
0000
1001
0000
1000
0010
,
0000
0100
0010
0000
1000
0010
1000
0000
0001
0000
0010
0000
0100
0000
1000
0000
,
0001
0000
1000
0001
0000
1000
0010
0000
0100
0010
0000
1000
0010
0000
1000
0001
,
0000
1000
0100
0000
0010
0100
0010
0000
0100
0000
1000
0000
0001
1000
0001
1000
,
0001
0000
1000
0010
0000
0100
0010
0000
0000
1010
0000
0000
1001
0000
0001
1000
,
0002
0000
0000
0013
0001
1000
0010
0100
,
0010
0000
0100
0010
0100
0000
0010
0000
1000
0000
0100
0000
0010
0000
0100
0010
,
0100
0000
0001
0000
0100
0010
0100
0000
0010
0000
0001
0000
1000
0001
1000
0001
,
1000
0000
0001
1000
0001
0000
1000
0000
0001
0100
0000
0010
0100
0000
0010
0100
,
0010
0000
0100
0000
0010
1000
0010
0000
1000
0000
0001
0000
1000
0000
0100
0000
,
0010
0000
0100
0010
0100
0000
0010
0000
0001
0000
0100
0000
0010
0000
0100
0010
,
0100
0000
1000
0000
0100
0010
0100
0000
0010
0000
1000
0000
0001
1000
0001
1000
,
0001
0000
1000
0001
1000
0000
0001
0000
1000
0100
0000
0010
0100
0000
0020
0000
,
0000
0001
0000
0130
0010
0001
1000
0010
,
0100
1010
0100
1010
,
0100
0000
1010
0100
0010
1000
0200
0000
,
0310
1100
0010
1100
,
1000
0000
0000
0100
1000
0001
0100
0020
,
0200
0000
0330
0000
;

//---------------dance-single - ----------------
#NOTEDATA:;
#CHARTNAME:;
#STEPSTYPE:dance-single;
#DESCRIPTION:;
#CHARTSTYLE:;
#DIFFICULTY:Medium;
#METER:5;
#RADARVALUES:0.316113,0.353479,0.011348,0.170215,0.034043,195.000000,194.000000,1.000000,15.000000,0.000000,0.000000,0.000000,0.000000,0.000000,0.316113,0.353479,0.011348,0.170215,0.034043,195.000000,194.000000,1.000000,15.000000,0.000000,0.000000,0.000000,0.000000,0.000000;
#CREDIT:;
#NOTES:
0000
0000
0000
0000
,
0000
0000
0000
0000
,
0000
0000
0000
0000
,
0000
0000
0000
0000
,
2000
0100
0001
3010
,
0100
0000
0010
0000
1000
0010
2000
0000
,
3002
0010
1000
0103
,
0010
0000
0100
0000
0001
0100
0001
1000
,
0001
0000
0000
0001
0000
0000
0001
0000
,
0000
1000
0100
0010
,
0100
0000
0000
0100
0000
0000
0100
0000
,
0000
0010
0001
1000
,
0001
0100
1000
0010
,
0001
0000
1000
0000
0010
0000
1000
0001
,
1000
0100
0001
0010
,
1000
0000
0001
0000
0010
0000
0001
1000
,
0001
0000
0000
0002
0000
0000
1000
0000
0000
1000
0000
0000
0013
0000
0000
0020
,
0000
0000
0031
0000
0001
0010
0001
0000
,
1000
0000
0000
2000
0000
0000
0001
0000
0000
0001
0000
0000
3010
0000
0000
0020
,
0000
0000
1030
0000
1000
0010
1000
0001
,
1000
0100
0000
1000
0001
0000
1000
0010
,
0000
0100
0010
0000
0100
0010
0100
0000
,
0010
0100
0010
1000
0010
1000
0001
1000
,
0001
0000
0000
1000
0001
1000
0100
0000
,
1000
0100
0001
0100
,
1000
0100
1000
0000
0001
1000
0002
0000
,
1003
0010
0001
0010
,
1000
0010
1000
0000
0001
1000
0001
0010
,
0001
0010
1000
0010
,
0001
0010
0001
0000
1000
0001
2000
0000
,
3001
0100
1000
0100
,
0002
1000
0000
1003
,
0001
0000
1000
0000
0100
0010
0100
0000
,
1000
0000
0001
0000
0100
0010
0200
0000
,
0310
0000
1000
0000
0001
1000
0001
0000
,
0010
0000
0001
0000
1000
0001
1000
0010
,
1000
0000
0001
0000
0100
0010
0100
0000
,
0001
0000
1000
0000
0100
0010
0200
0000
,
0310
0000
0001
0000
1000
0001
1000
0000
,
1001
0000
0000
0001
1000
0001
0100
0010
,
0100
0100
0010
0010
,
1000
0000
1000
0000
0001
1000
0002
0000
,
1003
1000
0100
0100
,
0010
0000
0000
0100
0010
0100
0010
0002
,
0020
0000
0033
0000
;

//---------------dance-single - ----------------
#NOTEDATA:;
#CHARTNAME:;
#STEPSTYPE:dance-single;
#DESCRIPTION:;
#CHARTSTYLE:;
#DIFFICULTY:Easy;
#METER:4;
#RADARVALUES:0.241543,0.353479,0.158867,0.431211,0.000000,149.000000,135.000000,14.000000,38.000000,0.000000,0.000000,0.000000,0.000000,0.000000,0.241543,0.353479,0.158867,0.431211,0.000000,149.000000,135.000000,14.000000,38.000000,0.000000,0.000000,0.000000,0.000000,0.000000;
#CREDIT:;
#NOTES:
0000
0000
0000
0000
,
0000
0000
0000
0000
,
0000
0000
0000
0000
,
0000
0000
0000
0000
,
0001
0001
0010
0100
,
1000
1000
0010
0200
,
0310
0010
0100
0100
,
0001
1000
0100
0010
,
0002
0000
0000
1003
,
0000
0000
0000
0000
,
0002
0000
0000
0103
,
0000
0000
0000
0000
,
0020
0100
0000
0100
,
2030
0010
0000
0010
,
3002
1000
0000
1000
,
0023
0001
0000
0031
,
1000
0010
0001
0100
,
0000
1000
0000
1000
,
0001
0010
1000
0100
,
0000
0001
0000
0001
,
1000
1000
1000
0100
,
0100
0100
0010
0010
,
0001
0100
1000
0100
,
0001
0000
0001
1001
,
2000
3200
0302
0023
,
0032
0203
0320
2030
,
3020
0032
0023
2030
,
3020
0032
0023
0230
,
2300
3020
0032
0203
,
0302
0023
0230
2300
,
3200
0302
0203
2300
,
3200
0000
0000
0000
,
0310
1001
0010
1001
,
0100
1001
0100
1001
,
1000
0110
1000
0110
,
0001
0110
0001
0110
,
0010
0101
0100
1010
,
0010
0101
0010
2000
,
3100
0011
0010
1100
,
0001
0000
1000
1000
,
1000
0001
1000
0001
,
1000
0001
1000
1000
,
0100
0010
0100
0010
,
0100
0000
0100
0010
,
0002
0000
0003
0000
;

//---------------dance-single - ----------------
#NOTEDATA:;
#CHARTNAME:;
#STEPSTYPE:dance-single;
#DESCRIPTION:;
#CHARTSTYLE:;
#DIFFICULTY:Beginner;
#METER:2;
#RADARVALUES:0.137793,0.201988,0.011348,0.090781,0.000000,85.000000,84.000000,1.000000,8.000000,0.000000,0.000000,0.000000,0.000000,0.000000,0.137793,0.201988,0.011348,0.090781,0.000000,85.000000,84.000000,1.000000,8.000000,0.000000,0.000000,0.000000,0.000000,0.000000;
#CREDIT:;
#NOTES:
0000
0000
0000
0000
,
0000
0000
0000
0000
,
0000
0000
0000
0000
,
0000
0000
0000
0000
,
1000
0000
0000
1000
,
0000
0001
0000
0001
,
0001
0000
0000
0001
,
0000
0000
1000
1000
,
1000
0000
0000
0000
,
0000
0000
0000
0000
,
0010
0000
0000
0000
,
0000
0000
0000
0000
,
0100
0100
0000
0001
,
0000
1000
0000
0001
,
0001
0001
0000
1000
,
0000
0100
0000
0010
,
0020
0000
0030
2000
,
0000
3000
0001
0000
,
2000
0000
3000
0020
,
0000
0030
0100
0000
,
0010
0000
0010
0000
,
0010
0000
0010
0010
,
0010
0000
1000
0000
,
0001
0000
0000
1001
,
1000
1000
1000
1000
,
0000
0001
0000
0100
,
0100
0100
0100
0100
,
0000
0010
0000
0010
,
0010
0010
0010
0010
,
0000
0100
0000
0001
,
0001
0001
0001
0001
,
0002
0000
0000
0000
,
1003
0000
0100
0000
,
0001
0000
0010
0000
,
1000
0000
0001
0000
,
0010
0000
0100
0000
,
1000
0000
0010
0000
,
0001
0000
0100
0000
,
1000
0000
0002
0000
,
2000
3003
0000
0000
,
0001
0000
0001
0000
,
0001
0000
1000
1000
,
1000
0000
1000
0000
,
1000
0000
0010
0010
,
0020
0000
0030
0000
;
