#TITLE:See It Coming;
#SUBTITLE:;
#ARTIST:JAKAZiD;
#TITLETRANSLIT:;
#SUBTITLETRANSLIT:;
#ARTISTTRANSLIT:;
#GENRE:;
#CREDIT:;
#BANNER:See It Coming.png;
#BACKGROUND:See It Coming-bg.png;
#LYRICSPATH:;
#CDTITLE:;
#MUSIC:See It Coming.ogg;
#OFFSET:-0.020000;
#SAMPLESTART:79.046417;
#SAMPLELENGTH:15.000000;
#SELECTABLE:YES;
#BPMS:0.000000=170.000000
,128.000000=85.000000
,144.000000=170.000000
,272.000000=85.000000
,303.000000=170.000000
;
#STOPS:303.000000=0.180000,
303.500000=0.180000
;
#BGCHANGES:;
#KEYSOUNDS:;
#ATTACKS:;

//---------------dance-single - ----------------
#NOTES:
     dance-single:
     :
     Hard:
     9:
     0.589882,0.828503,0.113402,0.326865,0.350212,553.000000,17.000000,49.000000,0.000000,0.000000,0.000000,0.589882,0.828503,0.113402,0.326865,0.350212,553.000000,17.000000,49.000000,0.000000,0.000000,0.000000:
0000
0000
0000
0000
,
0000
0000
0000
0000
,
0000
0000
0000
0000
,
0000
0000
0000
0000
,
0000
0000
0000
0000
,
0000
0000
0000
0000
,
0000
0000
0000
0000
,
0000
0000
0000
0000
,
2000
0100
0001
0100
,
0010
0100
0001
3100
,
0002
0100
1000
0100
,
0010
1000
0100
0013
,
2000
0100
0001
3100
,
0002
0010
1000
0013
,
2000
3010
0002
0103
,
1000
1000
0100
1000
0001
0010
0200
0000
,
1300
0000
0000
0001
0000
0000
1000
0000
0010
0000
0100
0000
0002
0000
0000
0000
,
0100
0000
1003
0000
0100
0010
1000
0000
,
0001
0000
0000
1000
0000
0000
0001
0000
1000
0000
0100
0000
0010
0000
0000
0000
,
0100
1000
0100
0000
0010
0001
0010
0000
,
1000
0000
0000
0001
0000
0000
0100
0000
0001
0000
1000
0000
0020
0000
0000
0000
,
0100
0000
1030
0000
0100
0001
0010
0000
,
0001
0000
0000
1000
0000
0000
0100
0000
0010
0000
0001
0000
0100
0000
0000
0000
,
0001
0100
0001
1000
0001
0010
1000
0010
,
0001
0000
0000
0100
0000
0000
0001
0000
1000
0000
0001
0000
0101
0000
0000
0000
,
0001
1000
1100
0000
1000
0001
0102
0000
,
1003
0000
0000
0100
0000
0000
1000
0000
0001
0000
1000
0000
1010
0000
0000
0000
,
1000
0001
0011
0000
0001
1000
2010
0000
,
3001
0100
0020
0000
1030
0100
0020
0000
,
0031
0010
0200
0000
1300
0010
0200
0000
,
0301
0100
1000
0100
0001
0010
1000
0010
,
0002
0000
0000
0000
0000
0000
0103
0100
,
0001
0000
0001
0010
0001
1000
0100
2000
0000
0000
0000
0000
3000
0010
0100
0002
,
0000
0000
0000
0000
0003
0000
1000
0100
1000
0010
0100
0001
0010
0001
0200
0000
,
0300
0000
0100
0001
0010
0100
1000
2000
0000
0000
0000
0000
0000
3020
0000
0000
,
0130
0000
0001
0000
0000
0000
0000
0000
1000
0000
0100
0000
0000
0000
0100
0000
1000
0000
0000
0002
0000
0000
0000
0000
0000
0000
1003
0000
0000
0000
0000
0000
,
0010
0000
1000
0001
0100
0001
0010
0100
,
1000
0000
0100
0000
1000
0010
0100
0001
,
0200
0000
0001
0000
0310
0000
0001
0100
,
0010
1000
0100
1000
0001
0010
0200
0000
,
1300
0000
0100
1000
0010
0100
0001
0001
,
0020
0000
0001
0000
0130
2000
0000
0000
,
3001
0100
0000
0000
1000
0100
0000
0100
,
0010
0000
0010
0200
0000
0000
0000
0000
0000
0000
0310
0000
0000
0000
0000
0000
,
0002
0100
1000
0100
,
0010
0100
1000
0013
,
2000
0100
0001
0010
,
0100
0010
0001
3100
,
0001
0100
0010
0000
0001
0010
0100
0000
,
1000
0010
0100
0000
1000
0100
0010
0000
,
1000
0001
1000
0100
0010
0001
0100
0010
,
2000
0000
0000
0000
0000
3002
0000
0000
,
1003
0000
0100
0000
1000
0000
0000
0100
1000
0000
0001
0000
0000
0000
0001
0000
,
0100
0000
0001
0000
0100
0000
0000
0001
0100
0000
0010
0000
0000
0000
0001
0000
,
0010
0000
0100
0000
0010
0000
0000
0100
1000
0000
0001
0000
0000
0000
0001
0000
,
1000
0000
0010
0000
1000
0000
0000
0010
0100
0000
0001
0000
0000
0000
1000
0000
,
0001
0000
0100
0000
0010
0000
0000
0100
0001
0000
0010
0000
0000
0000
0001
0000
,
1000
0000
0100
0000
0010
0000
0000
0001
0010
0000
0100
0000
0000
0000
0100
0000
,
0010
0000
0001
0000
0100
0000
0000
0010
1000
0000
0010
0000
0000
0000
0010
0000
,
0100
0000
0001
0000
1000
0000
0000
1000
0100
0000
0010
0000
0000
0000
0010
0000
,
0001
0001
1000
0100
0010
0001
1000
0010
,
1000
0000
1000
0000
0100
0000
0000
0100
0010
0000
0001
0000
0010
0000
0100
0000
,
1000
0000
0001
0000
0010
0000
0000
0010
0001
0000
0001
0000
0100
0000
0001
0000
,
1000
0010
1000
0001
0100
0001
0010
0000
,
0110
0000
0100
1000
0001
0100
0010
1000
,
0001
0000
0010
0000
0001
0000
0000
1000
0010
0000
0010
0000
0100
0000
0001
0000
,
1000
0100
1100
0000
0001
0100
0101
0000
,
2002
0000
0000
0000
0000
3003
0000
0000
,
1000
0000
0000
0000
0010
0000
0000
0100
0000
0000
0010
0000
1000
0000
0000
0000
0000
0000
0001
0000
0100
0000
0001
0000
0010
0000
0000
0000
0020
0000
0000
0000
,
0031
0000
0000
0000
1000
0000
0000
0010
0000
0000
1000
0000
0001
0000
0000
0000
0000
0000
1000
0000
0010
0000
1000
0000
0100
0000
0000
0000
0020
0000
0000
0000
,
0032
0000
0000
0000
0100
0000
0000
1003
0000
0000
1000
0000
0010
0000
0000
0000
0000
0000
0010
0000
1000
0000
0001
0000
0100
0000
0000
0000
0002
0000
0000
0000
,
2003
0000
0000
0000
0100
0000
0000
3001
0000
0000
0001
0000
0010
0000
0000
0000
0000
0000
0001
0000
1000
0000
0010
0000
0100
0000
0100
0000
0002
0000
0000
0000
,
1003
0000
0000
0100
0000
0000
1000
0000
0001
0000
0000
0100
0000
0000
0001
0000
1000
0000
0000
0010
0000
0000
1000
0000
0001
0000
0010
0000
0002
0000
0000
0000
,
1003
0000
0000
0010
0000
0000
0100
0000
0001
0000
0000
0010
0000
0000
0100
0000
1000
0000
0000
0100
0000
0000
0010
0000
0001
0000
0100
0000
0020
0000
0000
0000
,
1030
0000
0000
1000
0000
0000
0100
0000
0010
0000
0000
0001
0000
0000
0010
0000
0001
0000
0000
0001
0000
0000
0100
0000
0010
0000
0000
1000
0000
0000
0010
0000
,
0200
0000
0000
0000
0301
0000
1000
0000
0200
0000
0000
0000
1300
0001
1000
0001
0100
0000
0000
0010
0000
0000
1000
0000
0001
0000
0000
0000
0001
0000
0000
0000
,
0001
0000
0000
0100
0000
0000
0010
0000
1000
0000
0000
0010
0000
0000
0100
0000
,
0001
0000
0000
0100
0000
0000
0010
0000
1000
0000
0010
0000
1000
0000
0100
0000
,
1000
0000
0000
0100
0000
0000
0010
0000
0001
0000
0000
0010
0000
0000
0100
0000
,
1000
0000
0000
0100
0000
0010
0000
0010
0001
0000
0001
0000
0100
0000
0010
0000
,
1000
0000
0000
0001
0000
0000
0100
0000
0001
0000
0000
1000
0000
0000
0100
0000
,
1000
0000
0000
0001
0000
0000
0100
0000
0010
0000
0100
0000
1000
0000
0100
0000
,
0001
0000
0000
1000
0000
0000
0010
0000
1000
0000
0000
0001
0000
0000
0010
0000
,
0001
0000
0000
1000
0000
0001
0000
1000
0010
0000
0010
0000
0100
0000
0100
0000
,
0001
0201
0310
0120
,
1030
0000
2100
0000
3100
0010
0100
0010
,
0001
0102
1003
2010
,
3100
0000
0210
0000
1300
0001
1000
0100
,
0010
0001
0100
0001
1000
0100
1000
0010
,
0100
0001
1000
0100
0010
0001
0100
0100
,
0001
0100
0000
0010
0000
1000
0000
1000
0100
0000
0000
0010
0000
0000
0100
0000
,
1000
0000
0000
0001
0000
0010
0000
0001
0100
0000
0100
0000
0010
0000
1000
0000
,
1001
0000
0000
0000
;

//---------------dance-single - ----------------
#NOTES:
     dance-single:
     :
     Challenge:
     10:
     0.718531,0.981929,0.160097,0.286841,0.620376,687.000000,24.000000,43.000000,62.000000,0.000000,0.000000,0.718531,0.981929,0.160097,0.286841,0.620376,687.000000,24.000000,43.000000,62.000000,0.000000,0.000000:
// measure 0
0000
0000
0000
0000
,  // measure 1
0000
0000
0000
0000
,  // measure 2
0000
0000
0000
0000
,  // measure 3
0000
0000
0000
0000
,  // measure 4
0000
0000
0000
0000
,  // measure 5
0000
0000
0000
0000
,  // measure 6
0000
0000
0000
0000
,  // measure 7
0000
0000
0000
0000
,  // measure 8
2001
3002
M103
2000
,  // measure 9
310M
0002
02M3
1000
,  // measure 10
M310
2000
3M10
0002
,  // measure 11
M013
2000
301M
0100
,  // measure 12
1001
0001
0100
0010
0100
0001
0100
0010
,  // measure 13
1000
0100
0010
0100
0001
0100
1000
0010
,  // measure 14
0100
0000
0010
0000
1000
0000
0000
0100
1000
0000
0001
0000
0010
0100
0000
0100
,  // measure 15
0010
0000
0010
0000
0001
0000
0100
0001
0100
0000
0020
0000
MM0M
0000
0000
0000
,  // measure 16
1030
0000
0000
0001
0000
0000
0100
0000
0010
0000
1000
0000
0200
0000
0000
0000
,  // measure 17
0010
0000
0000
1300
0000
0000
0001
0000
0100
0000
0001
0000
0010
0000
0000
0000
,  // measure 18
0001
0000
0000
1000
0000
0000
0100
0000
1000
0000
0001
0000
0020
0000
0000
0000
,  // measure 19
0031
0000
1000
0100
0000
0100
1000
0000
0001
0000
0100
0000
0020
0000
0000
0000
,  // measure 20
1030
0000
0000
0001
0000
0000
0100
0000
0001
0000
1000
0000
0020
0000
0000
0000
,  // measure 21
1000
0000
0000
0130
0000
0000
1000
0000
0010
0000
1000
0000
0100
0000
0000
0000
,  // measure 22
1000
0000
0000
0001
0000
0000
0100
0000
0001
0000
1000
0000
0020
0000
0000
0000
,  // measure 23
1030
0000
0001
0010
0000
0010
0001
0000
0100
0000
0001
0000
1000
0010
1000
0000
,  // measure 24
0001
0000
0000
0010
0000
0000
0010
0000
0100
0000
1000
0000
0020
0000
0000
0000
,  // measure 25
1030
0001
0200
0000
0301
1000
1M2M
0000
,  // measure 26
1030
0000
0000
0100
0000
0000
0100
0000
1000
0000
0001
0000
0020
0000
0000
0000
,  // measure 27
0031
0000
1000
0001
0000
1000
0100
0000
1000
0000
0001
0000
MM21
0000
0000
0000
,  // measure 28
0031
1000
1M1M
0000
0010
0100
M1M1
0000
,  // measure 29
0100
0001
MM11
0000
0010
0100
11MM
0000
,  // measure 30
0100
0000
M010
0000
0001
0000
M010
0000
0100
0000
M010
0000
0001
0010
M001
0010
,  // measure 31
0001
0000
0100
0010
0000
0010
0100
0000
0001
0000
1000
0000
0200
0000
0000
0000
,  // measure 32
1300
0000
2000
0000
0000
0000
0000
0000
0000
0000
3100
0000
0000
0010
0000
0000
0001
0000
0002
0000
0000
0000
0000
0000
0000
0000
1003
0000
0010
0000
1000
0000
,  // measure 33
0100
0200
0000
0000
0000
0000
1300
0010
0100
0001
0010
0001
1000
0100
0020
0000
,  // measure 34
0031
0000
0002
0000
0000
0000
0000
0000
0000
0000
0103
0000
0000
0010
0000
0000
1000
0000
2000
0000
0000
0000
0000
0000
0000
0000
3020
0000
0000
0100
0000
0000
,  // measure 35
0130
0000
0001
0000
0000
0000
1000
0100
1000
0000
0001
0000
0000
0000
1000
0100
0010
0000
0001
0200
0000
0000
0000
0000
0000
0000
M31M
0000
0000
0000
0000
0000
,  // measure 36
0100
0000
0001
0000
0010
0000
0001
0100
0001
0000
0001
0000
0010
0000
0000
0000
,  // measure 37
0100
0000
1000
0000
0010
0000
1000
0100
1000
0000
1000
0000
0010
0000
0100
0000
,  // measure 38
0001
0000
1000
0000
0010
0000
0100
0000
0001
0000
1000
0100
1000
0000
0001
0000
,  // measure 39
0010
0100
1000
0100
0010
0001
0200
0000
,  // measure 40
0310
0000
1000
0000
0001
0000
0100
0010
0100
0000
0001
0000
0010
0000
0000
0000
,  // measure 41
0010
0000
0001
0000
0100
0000
0010
1000
0010
0000
1000
0000
1000
0000
0001
0000
,  // measure 42
1000
0000
0200
0000
0000
0000
1300
0000
0001
0000
0200
0000
0000
0000
0301
1000
,  // measure 43
0020
0000
0000
0000
0000
0100
0100
0130
,  // measure 44
0200
0000
0301
0010
0200
0000
1300
0010
,  // measure 45
0200
0000
0000
0000
0301
0010
0000
0010
0100
0000
01M0
0000
1000
0000
0001
0000
,  // measure 46
0020
0000
0031
0100
0020
0000
1030
0100
,  // measure 47
0020
0000
0000
0000
0031
0100
0000
0100
0010
0000
100M
0000
0010
0000
M100
0000
,  // measure 48
0001
1M00
0010
1000
0100
M010
0001
0010
,  // measure 49
0100
10M0
0001
0100
0010
1M00
0001
1000
,  // measure 50
0001
M100
0010
100M
0100
M001
0010
1000
,  // measure 51
0002
0000
0000
0000
0000
0000
0000
0000
0000
0000
10M3
0M00
10M0
0M00
10M0
0M00
,  // measure 52
0001
0000
0100
0000
0001
0000
0000
1000
0010
0000
0010
0000
0000
0100
0001
0000
,  // measure 53
1000
0000
0100
0000
1000
0000
0000
0001
0010
0000
0001
0000
0000
1000
0010
0000
,  // measure 54
0100
0000
0001
0000
1000
0000
0000
0100
0010
0000
0010
0000
0000
0001
0100
0000
,  // measure 55
0010
0000
1000
0000
0001
0000
0000
0001
0010
0000
0100
0000
0000
0010
0001
0000
,  // measure 56
0001
0000
1000
0000
0001
0100
0000
0100
0001
1000
0010
0000
0000
0010
1000
0000
,  // measure 57
0100
0000
0010
0000
0100
1000
0000
1000
0001
0100
0010
0000
0000
0100
0001
0000
,  // measure 58
1000
0000
0010
0000
1000
0001
0000
0001
0100
0010
1000
0000
0000
1000
0100
0000
,  // measure 59
0010
0000
0001
0000
0100
0001
0000
0010
0001
1000
0100
0000
0000
0100
1000
0000
,  // measure 60
0001
0001
0101
0010
1000
0001
0100
0010
,  // measure 61
1000
0000
0100
0000
0010
0001
0000
0001
0100
0000
0001
0000
0010
0000
0100
0000
,  // measure 62
1000
0000
0010
0000
0100
0001
0000
0001
0010
0000
0100
0000
1000
0000
0100
0000
,  // measure 63
0001
0100
1000
0010
0001
0010
2000
0000
,  // measure 64
3001
1000
1100
0010
0001
1000
0100
0010
,  // measure 65
0001
0000
1000
0000
0010
0100
0000
0100
0001
0000
0010
0000
0100
0000
0010
0000
,  // measure 66
0001
0000
0100
0000
0010
1000
0000
1000
0100
0000
0010
0000
0001
0100
0000
0100
,  // measure 67
0020
0000
0000
0000
0000
M13M
0000
0000
,  // measure 68
1000
0000
0000
0000
1100
0000
0000
1001
0000
0000
1000
0000
0100
0000
0000
0000
1000
0000
0100
0000
0010
0000
0001
0000
0100
0000
0100
0000
0001
0000
0000
0000
,  // measure 69
0001
0000
0000
0000
0101
0000
0000
1001
0000
0000
0001
0000
0100
0000
0000
0000
0001
0000
1000
0000
0010
0000
0100
0000
0001
0000
0001
0000
0010
0000
0000
0000
,  // measure 70
0100
0000
1000
0000
0010
0000
0000
0101
0000
0000
0010
0000
1000
0000
0000
0000
0010
0000
0100
0000
0001
0000
0010
0000
0100
0000
0100
0000
1000
0000
0000
0000
,  // measure 71
0010
0000
1000
0000
0001
0000
0000
1100
0000
0000
0001
0000
0010
0000
0000
0000
0001
0000
1000
0000
0100
0000
1000
0000
0001
0000
0100
0000
0020
0000
0000
0000
,  // measure 72
1030
0000
0010
0000
0100
0000
0010
0000
1000
0000
0001
0000
0010
0000
0001
0000
1000
0000
0010
0000
0100
0010
0000
0010
1000
0000
1000
0000
1000
0000
0000
0000
,  // measure 73
0001
0000
0010
0000
0100
0000
0010
0000
0001
0000
1000
0000
0100
0000
1000
0000
0001
0000
0100
0000
0010
1000
0000
1000
0001
0000
0001
0000
0001
0000
0000
0000
,  // measure 74
1000
0000
0000
0100
0000
0000
0010
0000
0100
0000
1000
0000
0001
0000
0010
0000
0001
0000
0000
0100
0000
0000
0010
0000
1000
0000
0010
0000
0100
0001
0000
0001
,  // measure 75
0010
0000
0000
0000
0100
1000
0100
1000
0010
0000
0000
0000
0200
0000
0000
0000
0301
0000
0000
0010
0000
0000
0100
0000
11MM
0000
0000
0000
MM11
0000
0000
0000
,  // measure 76
0001
0000
0000
1000
0000
0000
0010
0000
1000
0000
0000
0100
0000
0000
0010
0000
,  // measure 77
0001
0000
0000
0100
0000
0001
0000
0010
0100
0000
0100
0000
1000
0000
0010
0000
,  // measure 78
1000
0001
0000
1000
0000
0000
0100
0000
0010
0000
0000
0001
0000
0000
0100
0000
,  // measure 79
0001
0000
0000
1000
0000
0010
0000
0100
0001
0000
0001
0000
0100
0000
0010
0000
,  // measure 80
1000
0001
0000
1000
0000
0000
0100
0000
0010
0000
0000
0001
0000
0000
0100
0000
,  // measure 81
1000
0000
0000
0100
0000
0001
0000
0010
0100
0000
0100
0000
1000
0000
0010
0000
,  // measure 82
1000
0001
0000
0100
0000
0000
0010
0000
1000
0000
0000
0001
0000
0000
0010
0000
,  // measure 83
1000
0000
0000
0010
0000
0001
0000
0100
0010
0000
0010
0000
0100
0000
0001
0000
,  // measure 84
1000
0100
0010
0100
1000
0001
M1M1
0001
,  // measure 85
0010
0100
1000
0001
0100
0010
1M1M
1000
,  // measure 86
0100
1000
0010
0100
0001
1000
11MM
0100
,  // measure 87
1000
0001
0100
0010
0100
0001
MM11
0010
,  // measure 88
0001
0100
0000
0010
0000
0100
0001
0100
0010
0000
0000
1000
0000
0000
0100
0000
,  // measure 89
1000
0000
0000
0100
0000
0010
0000
0001
0100
0000
0100
0000
0010
0000
1000
0000
,  // measure 90
0001
0000
1000
010M
1000
0000
0001
M100
0001
0000
1000
001M
1000
0000
0001
M010
,  // measure 91
0001
0000
0000
0100
0000
0110
0000
0010
1000
0000
0100
0000
0010
0000
0001
0000
,  // measure 92
1001
0000
0000
0000
;
