#TITLE:最Ψ最好調!;
#SUBTITLE:;
#ARTIST:でんぱ組.inc;
#TITLETRANSLIT:Sai Psi Sai Kuchou!;
#SUBTITLETRANSLIT:;
#ARTISTTRANSLIT:Dempagumi.inc;
#GENRE:Idol Pop;
#CREDIT:;
#BANNER:[Round C] - Sai Psi Sai Kouchou!.png;
#BACKGROUND:[Round C] - Sai Psi Sai Kouchou!-bg.png;
#LYRICSPATH:;
#CDTITLE:cdtitle.png;
#MUSIC:[Round C] - Sai Psi Sai Kouchou!.ogg;
#OFFSET:-0.101816;
#SAMPLESTART:52.403904;
#SAMPLELENGTH:12.799999;
#SELECTABLE:YES;
#DISPLAYBPM:132.000000:150.000000;
#BPMS:0.000000=132.000000
,112.000000=150.000000
;
#STOPS:
;
#BGCHANGES:2.625=[Round C] - Sai Psi Sai Kouchou!.avi=1.000=1=0=0=StretchNoLoop==CrossFade==,
99999=-nosongbg-=1.000=0=0=0 // don't automatically add -songbackground-
;
#KEYSOUNDS:;
#ATTACKS:;

//---------------dance-single - ----------------
#NOTES:
     dance-single:
     09-14:
     Challenge:
     9:
     0.816031,0.865071,0.856832,0.351521,0.686564,520.000000,442.000000,78.000000,32.000000,0.000000,0.000000,0.816031,0.865071,0.856832,0.351521,0.686564,520.000000,442.000000,78.000000,32.000000,0.000000,0.000000:
// measure 0
0000
0000
0000
0000
,  // measure 1
0000
0000
0000
0000
,  // measure 2
0000
0000
0000
0000
,  // measure 3
1000
0000
0100
0000
0010
0000
0001
0000
0011
0000
0000
0101
0000
0000
0011
0000
,  // measure 4
0000
0000
0001
0000
0100
0000
0010
0000
1010
0000
0000
1100
0000
0000
1010
0000
,  // measure 5
0000
0010
1000
0001
1000
0100
1000
0100
0010
0001
0100
0010
1000
0000
0001
0000
,  // measure 6
0011
1000
1010
0001
0101
1000
1100
0001
,  // measure 7
1002
0000
0000
0000
0103
0001
0000
0001
0010
0000
0100
1000
0000
0001
0100
0001
,  // measure 8
0100
0000
0010
0000
0100
0000
1000
0000
0100
0000
0010
0100
0001
1000
0000
1000
,  // measure 9
0000
0100
0010
0000
0001
1000
0001
1000
0100
0010
0000
0010
0001
1000
0010
0000
,  // measure 10
1010
0001
0011
1000
1100
0001
0101
1000
,  // measure 11
2001
0000
0001
0000
0001
0000
3001
1000
0000
0001
1000
0100
0010
0001
0010
0001
,  // measure 12
1000
0000
1000
0000
0010
1000
0010
1000
0001
0000
0001
0000
1000
0100
1000
0000
,  // measure 13
0001
0100
0001
0100
0010
1000
0001
0000
0010
0000
0010
0000
0100
1000
0010
0100
,  // measure 14
0001
1000
0001
1000
0100
0010
0100
0010
0001
1000
0010
0100
0001
0000
0010
0000
,  // measure 15
0100
0000
0000
1001
0000
0000
0010
0000
0000
1001
0000
0001
0010
0000
0010
0100
0000
0100
1000
0000
1000
0001
0000
0000
,  // measure 16
1001
0000
0000
1000
0000
0000
0010
0000
0000
0001
0000
0010
0000
0000
0010
1000
0000
0000
0100
0000
0000
0001
0000
0000
,  // measure 17
0100
0000
0010
0100
0000
0000
0010
0000
0000
0010
0000
0000
0001
0000
1000
0000
0000
1000
0001
0000
0000
0100
0000
0000
,  // measure 18
0001
1000
0010
1000
0010
1000
0000
0001
0010
0001
0010
0000
0001
0000
1000
0000
,  // measure 19
1010
0000
0001
0000
0011
0000
1000
0000
0001
0100
0001
1000
0001
0010
0001
0000
,  // measure 20
0011
0011
0000
1001
1001
0000
0101
0101
,  // measure 21
0000
1000
0010
0000
0100
0000
0001
0000
1000
0100
1000
0001
1000
0010
1000
0000
,  // measure 22
1010
1010
0000
1001
1001
0000
1100
1100
,  // measure 23
0000
0000
0001
0000
0010
0100
0010
0000
1000
0000
0010
0001
0000
0200
0000
0000
,  // measure 24
0310
0000
1000
0000
0000
0010
1000
0000
0001
1000
0000
0001
1000
0000
0100
1000
0000
0010
0000
0000
0010
1000
0000
0000
,  // measure 25
0001
0000
0000
0010
0000
0001
0100
0000
0000
0010
0000
1000
0100
0000
1000
0100
0000
0010
0000
0000
0001
0100
0000
0000
,  // measure 26
0110
1000
0110
0001
1001
0100
1001
0010
,  // measure 27
1001
0000
0000
1000
0000
0100
0010
0000
0000
0100
0000
0010
0000
0000
0010
0001
0000
1000
0000
0000
1000
0010
0000
0000
,  // measure 28
0120
0000
0000
0000
0000
0000
0000
0000
1030
0010
0100
0001
1000
0000
0001
0010
,  // measure 29
0100
0000
0010
0001
0000
0001
0000
0001
0100
0000
1000
0000
0100
0000
0001
0000
,  // measure 30
0011
0000
0000
0000
1010
0000
0000
0011
0000
0000
2000
0000
3002
0000
1003
0010
,  // measure 31
0100
0000
0010
1000
0000
1000
0000
1000
0100
0000
0001
0000
0100
0000
1000
0010
,  // measure 32
1000
0000
0011
0000
1010
1000
0100
0010
,  // measure 33
0002
0000
0103
0000
1001
0000
1000
0100
0020
0000
0000
0032
0000
0000
0103
0000
,  // measure 34
0110
0000
0000
1010
0000
0000
2001
0000
0000
0000
3100
0000
0001
0000
0100
0000
,  // measure 35
1000
0000
0001
0000
0101
0000
0010
1000
0010
0000
1000
0000
1100
0000
0010
0000
,  // measure 36
0011
0000
0000
1100
0000
0000
1010
0000
1002
0000
0000
1003
0100
0000
0010
0001
,  // measure 37
0100
0000
0010
1000
0000
1000
0100
0000
0001
0000
0100
0000
1000
0000
0010
0000
,  // measure 38
1010
0000
0000
0000
0011
0000
0000
1010
0000
0000
0002
0000
2003
0000
3010
1000
,  // measure 39
0100
0000
0010
0001
0000
0001
0000
0001
0100
0000
0010
1000
0100
0000
0010
0001
,  // measure 40
0010
0000
1010
0000
0011
0001
0100
0010
,  // measure 41
2000
0000
3100
0000
1001
0000
0001
0100
0020
0000
0000
2030
0000
0000
3100
0000
,  // measure 42
0110
0000
0000
0011
0000
0000
1002
0000
0000
0000
0103
0000
1000
0000
0100
0000
,  // measure 43
0001
0000
0010
0000
0011
0000
0100
1000
0100
0000
1000
0000
1010
0000
0001
0000
,  // measure 44
0101
0000
0000
1010
0000
0000
1001
0000
0012
0000
0000
0000
1003
0000
0010
0100
,  // measure 45
0002
0000
0000
2003
0000
0000
3002
0000
0023
0000
0000
0000
0230
0000
0000
0000
,  // measure 46
0302
0000
0000
0203
0000
0000
2300
0000
0020
0000
0000
3030
0000
0000
1000
0010
,  // measure 47
1000
0000
0100
0000
0100
0000
0001
0010
0001
0000
0100
0000
0100
0000
1000
0000
,  // measure 48
0010
1010
0100
0101
1000
1100
0011
0011
,  // measure 49
2001
0000
0000
3001
0100
0000
0010
0000
2000
0000
0000
3100
0010
0000
0100
0000
,  // measure 50
0002
0000
0000
0103
0010
0000
0001
0000
0200
0000
0000
1300
0100
0000
0010
0000
,  // measure 51
2000
0000
0000
3100
0010
0000
0001
0000
1000
0000
0010
0000
0100
0000
0001
0000
,  // measure 52
1001
1001
1001
0000
;

//---------------dance-single - ----------------
#NOTES:
     dance-single:
     07-10:
     Hard:
     7:
     0.557098,0.519043,0.219701,0.461371,0.197730,355.000000,335.000000,20.000000,42.000000,0.000000,0.000000,0.557098,0.519043,0.219701,0.461371,0.197730,355.000000,335.000000,20.000000,42.000000,0.000000,0.000000:
0000
0000
0000
0000
,
0000
0000
0000
0000
,
0000
0000
0000
0000
,
0000
0000
0001
0000
0100
0000
0100
0000
2000
0000
0000
3200
0000
0000
0302
0000
,
0000
0000
1003
0000
0100
0000
0100
0000
0002
0000
0000
0203
0000
0000
2300
0000
,
0000
3001
0100
0000
0010
0000
1000
0000
0100
0000
0001
0000
0100
0000
0010
0000
,
0001
0001
0100
0100
0010
0010
1000
1000
,
2002
0000
3003
0000
0000
1000
0000
1000
0100
0000
0010
0000
0000
0001
0100
0000
,
0010
0000
1000
0000
0001
0000
1000
0000
0100
0000
0010
0100
0010
0000
0001
0000
,
0000
1000
0010
0000
1000
0000
0100
0000
0001
0000
0100
0000
1000
0000
0010
0000
,
1000
1000
0100
0100
0010
0010
0001
0001
,
2002
0000
0000
0000
3003
0000
0001
0100
,
0010
0010
1000
0100
0010
0010
0001
0100
,
1000
0100
0001
0010
0100
0100
1000
0010
,
0100
0001
0100
0001
0100
0010
1000
0001
,
0010
0100
0100
0010
0010
0100
1000
1000
,
0001
0100
1000
0100
0001
0010
1000
0010
,
0001
0001
1000
1000
0010
0001
0010
1000
,
0100
0010
0100
0010
0100
1000
0001
0100
,
0001
0001
0010
0010
0100
1000
0001
1000
,
0010
2010
3000
0001
2001
3000
0100
2100
,
3000
0001
0100
0001
1000
0010
1000
0100
,
0010
0012
0003
1000
1002
0003
0100
0102
,
0003
0000
1000
0000
0010
0000
0001
0000
0010
0000
0100
0010
0000
2000
0000
0000
,
3001
1000
0100
1000
0001
0100
0001
0000
,
1000
0100
0010
0001
0100
0010
1000
0000
,
0001
0001
0010
0010
0100
0100
1000
1000
,
0001
0100
0010
0100
1000
0100
0001
0010
,
0022
0000
0000
0000
0030
0000
0003
1000
,
0010
0000
0100
0001
0000
0100
0000
0001
0100
0000
0010
0000
1000
0000
0001
0000
,
0020
0000
0000
0000
2030
0000
0000
3020
0000
0000
0001
0000
0031
0000
1000
0000
,
0010
0000
1000
0100
0000
1000
0000
0100
1000
0000
0001
0000
0100
0000
0010
0000
,
0200
0000
2300
0000
3100
1000
0100
0001
,
0010
0000
0000
0000
1100
0000
0000
0000
1000
0000
0000
0010
0000
0000
1000
0000
,
0100
0000
0000
0010
0000
0000
0012
0000
0000
0000
1003
0000
0001
0000
0100
0000
,
0000
0001
0100
0010
0010
1000
0100
0010
,
0002
0000
0000
0203
0000
0000
0320
0000
2030
0000
0000
0000
3000
0000
0001
0000
,
0010
0000
0100
1000
0000
0100
1000
0000
0100
0000
0010
0000
0001
0000
1000
0000
,
0020
0000
0000
0000
0032
0000
0000
0023
0000
0000
1000
0000
1030
0000
0001
0000
,
0010
0000
0001
0100
0000
0001
0000
0100
0001
0000
1000
0000
0100
0000
0010
0000
,
0200
0000
0302
0000
0103
0001
0100
1000
,
0010
0000
0000
0000
0101
0000
0000
0000
0001
0000
0000
0010
0000
0000
0001
0000
,
0100
0000
0000
0010
0000
0000
2010
0000
0000
0000
3001
0000
1000
0000
0100
0000
,
0000
1000
0100
0010
0010
0001
0100
0010
,
2000
0000
0000
3002
0000
0000
0023
0000
0230
0000
0000
0000
0300
0000
0010
0000
,
0001
0000
0000
0001
0000
0000
0001
0000
0200
0000
0000
0000
0302
0000
0000
0000
,
1003
0000
0000
1000
0000
0000
0100
0000
0020
0000
0000
0000
0030
0000
0001
0000
,
0100
0010
1000
0001
0010
0100
1000
0001
,
1001
0011
1001
1010
,
1000
0000
0000
0100
0000
0000
0010
0000
0001
0000
0000
0100
0000
0000
1000
0000
,
0100
0000
0000
0001
0000
0000
0010
0000
0100
0000
0000
1000
0000
0000
0010
0000
,
0100
0000
0000
0001
0000
0000
1000
0000
0100
0000
0010
0000
0001
0000
1000
0000
,
1001
1001
1001
0000
;

//---------------dance-single - ----------------
#NOTES:
     dance-single:
     05-08:
     Medium:
     5:
     0.434693,0.490207,0.461371,0.219701,0.010985,277.000000,235.000000,42.000000,20.000000,0.000000,0.000000,0.434693,0.490207,0.461371,0.219701,0.010985,277.000000,235.000000,42.000000,20.000000,0.000000,0.000000:
0000
0000
0000
0000
,
0000
0000
0000
0000
,
0000
0000
0000
0000
,
1000
0010
1000
0010
1000
0000
1010
0000
,
0001
0010
0001
0010
0001
0000
0011
0000
,
1000
0001
0100
0000
0001
1000
0100
0000
,
0011
1100
1010
0101
,
1001
0000
1000
0000
0010
1000
0100
0000
,
0010
0000
0010
0000
0100
1000
0001
0100
,
0010
0000
0010
0000
0100
0001
1000
0000
,
1100
0011
0101
1010
,
2002
0000
0000
0000
3003
0000
1000
0100
,
0001
0000
0001
0100
1000
0000
0010
1000
,
0001
0000
0001
1000
0100
0000
1000
0010
,
0100
0000
0100
0000
0010
0100
0001
0000
,
0000
1001
0000
1001
0000
0001
1000
0000
,
0001
0010
0010
0000
1000
0010
0010
0000
,
0001
0100
0100
0000
0010
1000
1000
0000
,
0001
0000
0001
0000
1000
0100
0010
0000
,
0110
0000
1001
0000
1000
0010
0100
0000
,
0001
0001
0000
0010
0010
0000
0001
0001
,
0000
1000
0100
0010
0001
0000
0001
0000
,
1000
1000
0000
0010
0010
0000
1000
1000
,
0000
0001
0100
0010
1000
0000
1000
0000
,
0001
0000
0010
0000
0001
0010
0001
0000
,
1000
0000
0010
0000
1000
0010
1000
0000
,
1100
1001
0101
1001
,
1000
0100
0010
0001
0100
0010
1000
0000
,
2002
0000
0000
3003
,
1000
0010
0100
0000
0010
1000
0100
0000
,
0011
0011
0022
0033
,
0001
0010
0100
0000
0010
0001
0100
0000
,
1001
0000
1001
0000
1000
0010
1000
0001
,
0020
0000
0030
0100
1000
0000
0001
0100
,
0010
0000
0000
0010
0000
0000
0020
0000
0000
0000
0000
0000
1030
0000
1000
0000
,
0000
1000
0100
0000
0010
0001
0100
0000
,
1010
1001
0022
0033
,
0001
0010
0100
0000
0010
0001
0100
0000
,
1010
1010
2020
3030
,
1000
0010
0100
0000
0010
1000
0100
0000
,
1001
0000
1001
0000
0001
0010
0001
1000
,
0020
0000
0030
0100
0001
0000
1000
0100
,
0010
0000
0000
0010
0000
0000
0020
0000
0000
0000
0000
0000
0031
0000
0001
0000
,
0000
0001
0100
0000
0010
1000
0100
0000
,
0011
1001
0202
0303
,
2000
0000
0000
0000
,
0002
0000
0000
3003
,
0220
0330
0000
0000
,
0000
1001
0000
1001
0000
1000
0001
1000
,
0100
0001
0100
1000
,
0010
0001
0010
1000
,
0100
0000
0010
0000
0001
0100
0010
1000
,
0001
1001
1001
0000
;

//---------------dance-single - ----------------
#NOTES:
     dance-single:
     04-05:
     Easy:
     4:
     0.307581,0.403700,0.406446,0.307581,0.000000,196.000000,159.000000,37.000000,28.000000,0.000000,0.000000,0.307581,0.403700,0.406446,0.307581,0.000000,196.000000,159.000000,37.000000,28.000000,0.000000,0.000000:
0000
0000
0000
0000
,
0000
0000
0000
0000
,
0000
0000
0000
0000
,
0001
0000
0000
0000
0010
0000
0000
0000
0022
0000
0000
0030
0000
0000
0003
0000
,
1000
0000
0000
0000
0010
0000
0000
0000
2020
0000
0000
0030
0000
0000
3000
0000
,
0001
0010
0100
1000
,
1001
0110
1001
0110
,
2002
3003
1000
0000
,
0001
0100
1000
0100
,
0001
0000
0001
0000
,
1001
0110
1001
0110
,
2002
0000
3003
1000
,
1000
0001
0001
1000
,
0001
0010
0001
1000
,
0010
0010
0010
0010
,
0000
1001
0000
1001
0000
1001
0000
0000
,
1000
0100
1000
0100
,
0001
0100
0001
0100
,
1000
1000
0001
0001
,
0110
1001
0100
0100
,
1001
0000
0000
1001
0000
0000
1001
0000
,
0000
1000
0001
1000
,
0110
0000
0000
0110
0000
0000
0110
0000
,
0000
0001
0100
0010
,
2000
0000
3100
0000
,
0002
0000
0013
0000
,
1000
1000
0001
0001
,
1000
0100
0010
0001
,
2002
0000
0000
3003
,
0001
0100
0010
1000
,
0001
0001
0002
0003
,
1000
0001
0010
0100
,
1000
1000
0010
0001
,
0020
0030
0010
1000
,
0100
0000
0000
2002
0000
0000
3003
0000
,
0001
0101
1000
1100
,
0010
0002
2000
3003
,
1000
0100
0010
0001
,
1000
1000
2000
3000
,
0001
1000
0010
0100
,
0001
0001
0010
1000
,
0020
0030
0010
0001
,
0100
0000
0000
2002
0000
0000
3003
0000
,
1000
1100
0001
0101
,
1000
0002
2000
3003
,
0200
0000
0000
0300
,
0020
0000
0000
0030
,
2002
3003
0000
0000
,
0000
1001
0000
1001
0000
0000
1001
0000
,
1000
0100
0010
0001
,
1000
0010
0100
0001
,
1000
0100
0010
0001
,
1001
1001
1001
0000
;

//---------------dance-single - ----------------
#NOTES:
     dance-single:
     01-02:
     Beginner:
     1:
     0.171053,0.259521,0.076895,0.142805,0.000000,109.000000,102.000000,7.000000,13.000000,0.000000,0.000000,0.171053,0.259521,0.076895,0.142805,0.000000,109.000000,102.000000,7.000000,13.000000,0.000000,0.000000:
0000
0000
0000
0000
,
0000
0000
0000
0000
,
0000
0000
0000
0000
,
0001
0000
0001
0000
,
1000
0000
1000
0000
,
0010
0000
0100
0000
,
0010
0010
0010
0010
,
0010
0000
0010
0000
,
1000
0000
1000
0000
,
0001
0000
0001
0000
,
0010
0010
0010
0010
,
0020
0000
0030
0000
,
0001
0000
0001
0000
,
1000
0000
1000
0000
,
0010
0000
0100
0000
,
0010
0010
0010
0010
,
0010
0000
0010
0000
,
0100
0000
0100
0000
,
0001
0000
0001
0000
,
1000
1000
1000
0000
,
2002
0000
0000
3003
,
0000
0000
0000
0000
,
0220
0000
0000
0330
,
0000
0000
0000
0000
,
2000
0000
3000
0000
,
0002
0000
0003
0000
,
0010
0010
0010
0010
,
0010
0000
0100
0000
,
2002
0000
3003
0000
,
1000
0000
0010
0000
,
1000
1000
1000
0000
,
0001
0000
0010
0000
,
0001
0001
0001
0000
,
1000
0000
0001
0000
,
0200
0000
0000
0300
0000
0000
0000
0000
,
0100
0000
0010
0000
,
1000
1000
1000
0000
,
0001
0000
0010
0000
,
0100
0100
0100
0000
,
1000
0000
0010
0000
,
0100
0100
0100
0000
,
0001
0000
1000
0000
,
0200
0000
0000
0300
0000
0000
0000
0000
,
0100
0000
0010
0000
,
0001
0001
0001
0000
,
2000
0000
3000
0000
,
0002
0000
0003
0000
,
1001
0000
0000
0000
,
0010
0010
0010
0000
,
0001
0000
0001
0000
,
1000
0000
1000
0000
,
0001
0000
0001
0000
,
1001
1001
1001
0000
;
