#TITLE:Pure Lily of a Timeless Romance;
#SUBTITLE:;
#ARTIST:nmk feat. Kanon Mopata;
#TITLETRANSLIT:;
#SUBTITLETRANSLIT:;
#ARTISTTRANSLIT:;
#GENRE:;
#CREDIT:vincentw;
#BANNER:[Round C] - Pure Lily of a Timeless Romance.png;
#BACKGROUND:[Round C] - Pure Lily of a Timeless Romance-bg.png;
#LYRICSPATH:;
#CDTITLE:cdtitle.png;
#MUSIC:[Round C] - Pure Lily of a Timeless Romance.ogg;
#OFFSET:-0.077000;
#SAMPLESTART:34.332001;
#SAMPLELENGTH:22.857000;
#SELECTABLE:YES;
#BPMS:0.000000=168.000000
;
#STOPS:
;
#BGCHANGES:;
#KEYSOUNDS:;
#ATTACKS:;

//---------------dance-single - Z-I-v ST17-C [Telperion × vincentw]----------------
#NOTES:
     dance-single:
     C 01 X 02:
     Beginner:
     1:
     0.096494,0.167592,0.000000,0.146484,0.000000,83.000000,83.000000,0.000000,18.000000,0.000000,0.000000,0.096494,0.167592,0.000000,0.146484,0.000000,83.000000,83.000000,0.000000,18.000000,0.000000,0.000000:
0000
0000
0000
0000
,
0000
0000
0000
0000
,
0000
0000
0000
0000
,
0000
0000
0000
0000
,
0000
0000
0000
0000
,
0000
0000
0000
0000
,
0000
0000
0000
0000
,
0000
0000
0000
0000
,
1000
0000
0000
0000
,
0000
0000
0000
0000
,
0001
0000
0000
0000
,
0000
0000
0000
0000
,
0100
0000
0000
0000
,
0000
0000
0000
0000
,
0010
0000
0000
0000
,
0000
0000
0000
0000
,
1000
0000
0000
0000
,
1000
0000
0000
0000
,
0001
0000
0000
0000
,
0001
0000
0000
0000
,
0100
0000
0000
0000
,
0100
0000
0000
0000
,
0010
0000
0000
0000
,
0010
0000
0000
0000
,
2000
0000
0000
0000
,
3000
0000
0000
0000
,
0002
0000
0000
0000
,
0003
0000
0000
0000
,
0020
0000
0000
0000
,
0030
0000
0000
0000
,
0200
0000
0000
0000
,
0300
0000
0000
0000
,
1000
0000
0000
0000
,
0001
0000
0000
0000
,
1000
0000
0000
0000
,
0001
0000
0000
0000
,
0010
0000
0000
0000
,
0100
0000
0000
0000
,
0020
0000
0000
0000
0000
0000
0000
0030
,
0000
0000
0000
0000
,
0100
0000
0000
0000
,
0100
0000
0000
0000
,
0010
0000
0010
0000
,
0010
0000
0000
0000
,
0001
0000
0000
0000
,
0001
0000
0000
0000
,
1000
0000
1000
0000
,
1000
0000
0000
0000
,
0020
0000
0000
0030
,
0000
0000
0200
0000
,
0000
0300
0000
0000
,
0020
0000
0000
0030
,
0000
0000
0200
0000
,
0000
0300
0000
0000
,
0001
0000
0001
0000
,
0001
0000
0000
0000
,
1000
0000
1000
0000
,
1000
0000
0000
0000
,
0100
0000
0100
0000
,
0200
0000
0300
0000
,
0010
0000
0010
0000
,
0020
0000
0030
0000
,
0200
0000
0300
0000
,
0020
0000
0030
0000
,
0100
0000
0010
0000
,
0100
0000
0000
0000
,
1000
0000
0001
0000
,
2000
0000
3000
0000
,
0001
0000
1000
0000
,
0002
0000
0003
0000
,
0100
0000
0010
0000
,
0200
0000
0300
0000
,
0010
0000
0100
0000
,
0020
0000
0000
0000
0000
0030
0000
0000
,
0100
0000
0100
0000
,
0001
0000
0001
0000
,
1000
0000
1000
0000
,
0010
0000
0010
0000
,
1000
0000
1000
0000
,
0100
0000
0100
0000
,
0010
0000
0010
0000
,
0001
0000
0001
0000
,
0002
0000
0000
0003
0000
0000
0000
0000
;

//---------------dance-single - Z-I-v ST17-C [Telperion × vincentw]----------------
#NOTES:
     dance-single:
     C 04 X 06:
     Easy:
     4:
     0.204613,0.303955,0.032552,0.284831,0.000000,176.000000,172.000000,4.000000,35.000000,0.000000,0.000000,0.204613,0.303955,0.032552,0.284831,0.000000,176.000000,172.000000,4.000000,35.000000,0.000000,0.000000:
0000
0000
0000
0000
,
0000
0000
0000
0000
,
0000
0000
0000
0000
,
0000
0000
0000
0000
,
0000
0000
0000
0000
,
0000
0000
0000
0000
,
0000
0000
0000
0000
,
0000
0000
0000
0000
,
1000
0000
0000
0000
,
0100
0000
0000
0000
,
0010
0000
0000
0000
,
0001
0000
0000
0000
,
1000
0000
1000
0000
,
0010
0000
0010
0000
,
0100
0000
0100
0000
,
0001
0000
0001
0000
,
1000
1000
1000
0000
,
0001
0001
0001
0000
,
0100
0100
0100
0000
,
0020
0000
0000
0030
0000
0010
0000
0000
,
0100
0100
0100
0000
,
0001
0001
0001
0000
,
1000
0000
0000
0001
0000
0000
0000
2001
,
0000
0000
0000
0000
,
3001
0000
1000
0000
,
0001
0000
1000
0000
,
0002
0000
0000
0003
,
2000
0000
0000
3000
,
0100
0000
0010
0000
,
0100
0000
0010
0000
,
0200
0000
0000
0300
,
0020
0000
0000
0030
,
0001
0000
0010
0000
,
0100
0000
1000
0000
,
0002
0000
0003
0000
,
2000
0000
3000
0000
,
0001
0000
0100
0000
,
0010
0000
1000
0000
,
0001
0000
0000
2000
0000
0000
0002
0000
,
0000
3000
0000
0003
0000
0000
0000
0000
,
1000
0000
0100
0000
,
1000
0100
1000
0000
,
0001
0010
0001
0010
,
0002
0000
0003
0000
,
0001
0000
0100
0000
,
0001
0100
0001
0000
,
1000
0000
0000
0010
0000
1000
0000
0020
,
0000
0000
0030
0000
,
2000
0000
0000
0100
,
0100
0100
3200
0000
,
0000
0001
0001
0001
,
0302
0000
0000
0010
,
0010
0010
0023
0000
,
0000
1000
1000
1000
,
1030
0000
0010
0000
,
1000
0010
1000
0000
,
0001
0100
0001
0100
,
0002
0000
0000
2000
0000
0000
3003
0000
,
1000
0100
1000
0100
,
2000
0000
0000
0200
0000
0000
3300
0000
,
0010
0001
0010
0001
,
0020
0002
0000
0033
,
2000
0000
3020
0000
,
0230
0000
0302
0000
,
1003
0010
0100
0001
,
2000
0000
0000
0002
0000
0000
3000
0000
,
2003
0000
0000
0000
,
3002
0000
0000
0000
,
1003
0000
1000
0000
,
1000
1000
1000
1000
,
0001
0010
0001
0000
,
1000
0010
1000
0000
,
0001
0000
0000
0100
0000
0010
0000
2000
,
0000
0000
0000
3000
,
0001
0001
1000
1000
,
0001
1000
0001
1000
,
0010
0010
0100
0100
,
0010
0000
0100
0000
0000
0110
0000
0000
,
0001
0100
0001
0100
,
0010
1000
0010
1000
,
0100
0000
0000
0010
0000
0002
0000
2000
,
0000
0000
0000
0000
0000
0000
0000
3003
,
0000
1001
0000
2002
0000
0000
0000
0000
,
3003
0000
0000
0000
;

//---------------dance-single - Z-I-v ST17-C [Telperion × vincentw]----------------
#NOTES:
     dance-single:
     C 06 X 09:
     Medium:
     6:
     0.332496,0.472819,0.089518,0.349935,0.052897,286.000000,275.000000,11.000000,43.000000,0.000000,0.000000,0.332496,0.472819,0.089518,0.349935,0.052897,286.000000,275.000000,11.000000,43.000000,0.000000,0.000000:
// measure 0
0000
0000
0000
0000
,  // measure 1
0000
0000
0000
0000
,  // measure 2
0000
0000
0000
0000
,  // measure 3
0000
0000
0000
0000
,  // measure 4
0000
0000
0000
0000
,  // measure 5
0000
0000
0000
0000
,  // measure 6
0000
0000
0000
0000
,  // measure 7
0000
0000
0000
0000
,  // measure 8
1000
0000
0100
0000
,  // measure 9
0010
0000
0001
0000
,  // measure 10
2000
0000
0000
3000
,  // measure 11
0002
0000
0000
0003
,  // measure 12
1000
0000
0010
0000
,  // measure 13
0100
0000
0001
0000
,  // measure 14
1000
0000
0000
0001
0000
0001
0000
2000
,  // measure 15
0000
0000
0000
3000
,  // measure 16
0001
0010
0001
0010
,  // measure 17
0100
0000
1000
0000
0100
1000
0100
0000
,  // measure 18
1000
0010
1000
0010
,  // measure 19
0100
0000
0001
0100
0000
0001
0000
0000
,  // measure 20
1000
0100
0010
0100
,  // measure 21
1000
0000
0001
0000
1000
0001
1000
0000
,  // measure 22
0001
0000
0001
0100
0000
0100
0000
0202
,  // measure 23
0000
0000
0000
0303
,  // measure 24
0001
0010
0100
1000
,  // measure 25
0001
0000
0000
0001
0000
0000
0001
0000
,  // measure 26
2000
0000
0000
3000
,  // measure 27
0001
0000
0000
0001
0000
0000
0001
0000
,  // measure 28
1000
0010
0100
0001
,  // measure 29
1000
0000
0000
1000
0000
0000
1000
0000
,  // measure 30
2002
0000
0000
3003
,  // measure 31
1000
0000
0001
1000
0000
0001
1000
0000
,  // measure 32
0001
0010
0100
0010
,  // measure 33
0001
0100
0010
0100
,  // measure 34
0001
0000
0001
1000
0000
1000
0001
0000
,  // measure 35
0010
0000
0010
0100
0000
0100
0010
0000
,  // measure 36
0100
1000
0001
0100
,  // measure 37
0010
1000
0001
0010
,  // measure 38
0100
0010
0000
0100
0010
0000
0100
0010
,  // measure 39
0000
0110
0000
2002
0000
0000
3003
0000
,  // measure 40
0001
0010
0100
1000
,  // measure 41
0010
0000
0000
0100
0000
0000
0001
0000
1000
0000
0000
0000
0000
0000
0000
0000
,  // measure 42
0001
0000
0000
0010
0000
0000
0100
0000
1000
0000
0000
0100
0000
0000
0010
0000
,  // measure 43
0002
0000
0003
0000
,  // measure 44
1000
0000
0000
0010
0000
0000
0100
0000
0001
0000
0000
0000
0000
0000
0000
0000
,  // measure 45
0001
0000
0000
0100
0000
0000
0010
0000
1000
0000
0000
0000
1000
0000
0000
0000
,  // measure 46
0001
0000
0100
0010
0000
0100
0000
0220
,  // measure 47
0000
0000
0330
0000
,  // measure 48
2000
0000
0000
3010
,  // measure 49
1000
0001
0020
0000
,  // measure 50
0000
0000
0031
0000
0010
0100
1000
0000
,  // measure 51
0002
0000
0000
0000
0000
0000
0103
0001
,  // measure 52
1000
0001
0010
0000
0200
0000
0000
0000
,  // measure 53
0000
0020
0000
0330
,  // measure 54
0100
0010
0100
0000
1000
0001
1000
0000
,  // measure 55
0010
0100
0010
0000
1000
0001
1000
0000
,  // measure 56
0001
0000
0000
0010
0000
0000
0100
0000
0000
0010
0000
0000
0001
0000
0000
0000
,  // measure 57
2000
0000
0000
3200
0000
0000
1300
0000
,  // measure 58
0001
0010
0100
0000
1000
0100
0010
0000
,  // measure 59
0002
0000
0000
2003
0000
0000
3001
0000
,  // measure 60
1000
0000
0010
0000
0100
0000
0000
0000
0001
0000
0000
0100
0000
0000
0010
0000
,  // measure 61
2000
0002
0000
3003
,  // measure 62
0001
0000
0000
1000
0000
0000
0010
0000
1000
0000
0000
0000
0001
0000
0000
0000
,  // measure 63
1000
0000
0000
0001
0000
0000
0010
0000
0001
0000
0000
0000
1000
0000
0000
0000
,  // measure 64
0002
0203
2300
3200
,  // measure 65
0302
0000
0000
2003
0000
0000
0000
0000
,  // measure 66
3020
0000
0000
1000
0000
0000
1030
0000
,  // measure 67
0002
0100
0100
0003
,  // measure 68
0002
0010
2003
0100
,  // measure 69
3002
0023
2030
3200
,  // measure 70
0301
0000
0000
0010
0000
0000
0100
0000
1000
0000
0000
0000
0001
0000
0000
0000
,  // measure 71
1000
0000
0000
0010
0000
0000
0100
0000
0001
0000
0000
0000
1000
0000
0000
0000
,  // measure 72
0010
0100
0000
0110
0000
1001
0000
0220
,  // measure 73
0000
0000
0000
0330
,  // measure 74
1000
0010
1000
0000
0001
0100
0001
0000
,  // measure 75
1000
0100
0000
0010
0001
0010
0001
0000
,  // measure 76
1000
0000
0001
0000
1000
0000
0000
0000
0001
0000
0000
0001
0000
0000
0001
0000
,  // measure 77
0100
0000
0100
0010
0000
0110
0000
0000
,  // measure 78
0100
0001
1000
0000
1000
0001
0010
0000
,  // measure 79
0100
1000
0000
0001
1000
0010
1000
0000
,  // measure 80
0001
0010
0100
1000
0000
1100
0000
0022
,  // measure 81
0000
0000
0000
0033
,  // measure 82
0001
0100
0010
2000
0000
0000
0000
0000
,  // measure 83
3000
0000
0000
0000
;

//---------------dance-single - Z-I-v ST17-C [Telperion × vincentw]----------------
#NOTES:
     dance-single:
     C 09 X 13:
     Hard:
     9:
     0.510370,0.675456,0.154622,0.260417,0.134277,439.000000,420.000000,19.000000,32.000000,0.000000,0.000000,0.510370,0.675456,0.154622,0.260417,0.134277,439.000000,420.000000,19.000000,32.000000,0.000000,0.000000:
// measure 0
0000
0000
0000
0000
,  // measure 1
0000
0000
0000
0000
,  // measure 2
0000
0000
0000
0000
,  // measure 3
0000
0000
0000
0000
,  // measure 4
0000
0000
0000
0000
,  // measure 5
0000
0000
0000
0000
,  // measure 6
0000
0000
0000
0000
,  // measure 7
0000
0000
0000
0000
,  // measure 8
0000
1000
0000
1000
0000
0001
0000
0001
,  // measure 9
0000
0100
0000
0100
0000
0010
0000
0010
,  // measure 10
0000
1000
0000
0010
0000
0100
0000
0001
,  // measure 11
0000
0010
0000
0100
0000
0010
0000
0100
,  // measure 12
0000
1000
0000
0001
0000
1000
0000
0010
,  // measure 13
0000
0100
0000
0001
0000
0010
0000
0100
,  // measure 14
0000
0010
0000
0001
0000
1000
0000
0100
,  // measure 15
1000
0000
0000
0010
0000
0000
0100
0000
0000
0010
0000
0000
1000
0000
0000
0000
,  // measure 16
0001
0010
0100
0000
1000
0100
0010
0001
,  // measure 17
0000
0100
0000
0001
0010
0100
1000
0000
,  // measure 18
0010
0000
1000
0000
0001
0000
0000
0000
0100
0000
0000
0100
0000
0000
0100
0000
,  // measure 19
0010
1000
0010
0100
0000
0110
0000
0000
,  // measure 20
0010
1000
0100
0000
0010
0100
1000
0001
,  // measure 21
0000
0100
0000
0001
1000
0100
0010
0000
,  // measure 22
0001
0010
0100
1000
0000
1001
0000
0022
,  // measure 23
0000
0000
0000
0033
,  // measure 24
2000
0000
3200
0000
0302
0000
0103
0020
,  // measure 25
0000
0100
0030
0200
0000
1300
0001
0100
,  // measure 26
0020
0000
0000
1000
0000
1030
0000
0001
,  // measure 27
0001
0000
1000
1000
0000
0010
0100
0000
,  // measure 28
0002
0000
0023
0000
2030
0000
3010
0200
,  // measure 29
0000
0010
0300
0010
0100
1000
0001
0100
,  // measure 30
0020
0000
0000
0000
0000
0030
0000
1000
,  // measure 31
1010
0000
0001
0101
0000
0400
0000
0310
,  // measure 32
0100
1000
0100
0010
0000
1000
0001
0010
,  // measure 33
0001
0000
1000
0100
0001
0100
0010
0100
,  // measure 34
2000
0000
3010
0100
0000
0001
0010
0100
,  // measure 35
0000
1000
0001
0100
0000
0001
0000
1000
,  // measure 36
0100
0010
0001
0000
0010
0100
0001
0100
,  // measure 37
0000
0010
0001
0100
0010
1000
0100
0000
,  // measure 38
0010
0011
0000
1000
1010
0000
0010
0110
,  // measure 39
0000
0101
0000
1001
0000
0000
1000
0010
,  // measure 40
1000
0000
0000
0100
0000
0000
0001
0000
0000
0100
0000
0000
1000
0000
0001
0000
,  // measure 41
0010
0000
0000
0100
0000
0000
0010
0000
0001
0000
0000
0000
1000
0000
0010
0000
,  // measure 42
1000
0000
0000
0100
0000
0000
0001
0000
1000
0000
0000
0010
0000
0000
0001
0000
,  // measure 43
2000
0000
0010
0000
0001
0000
3100
1000
,  // measure 44
0010
0000
0000
0001
0000
0000
0010
0000
1000
0000
0000
0000
0001
0000
0010
0000
,  // measure 45
0001
0000
0000
0100
0000
0000
1000
0000
0100
0000
0000
0000
0001
0000
1000
0000
,  // measure 46
0010
0100
0001
0001
0000
0010
0100
0200
,  // measure 47
0000
0001
0000
0010
0300
1000
0100
0000
,  // measure 48
1001
0000
0001
0100
1000
0100
0001
0000
,  // measure 49
1000
0100
0001
0100
1000
0000
0001
0010
,  // measure 50
1000
0010
0001
0000
1000
0010
0001
0010
,  // measure 51
1000
0000
0001
0010
0100
0000
1000
0010
,  // measure 52
0100
0100
0001
1000
0002
0000
0000
0000
,  // measure 53
0003
0000
0000
0010
0100
0000
0000
0000
1000
0000
1000
0000
0001
0000
0001
0000
,  // measure 54
1000
0010
0100
1000
0100
0010
1000
0000
,  // measure 55
0001
0010
0100
0001
0100
0010
0001
0000
,  // measure 56
1000
0000
0000
0010
0000
0000
0001
0000
0000
0010
0000
0000
1000
0000
0001
0000
,  // measure 57
0020
0000
0000
0032
0000
0000
1003
0000
,  // measure 58
0001
0100
0010
0100
1000
0100
0010
0100
,  // measure 59
0002
0000
0000
0023
0000
0000
0130
0000
,  // measure 60
1000
0000
0100
0000
0010
0000
0100
0000
0002
0000
0000
0203
0000
0000
1300
0000
,  // measure 61
0002
0200
0003
0300
,  // measure 62
0010
0000
0000
1000
0000
0000
0100
0000
0100
0000
0000
0010
0000
0000
0001
0000
,  // measure 63
1000
0010
0001
1000
0001
0010
1000
0001
,  // measure 64
1000
0100
0010
0001
1000
0010
0100
0002
,  // measure 65
0000
1003
0001
2000
0000
0000
0000
0000
,  // measure 66
3001
0000
0000
0100
0000
0000
0001
0000
0000
1000
0000
0000
0100
0000
0000
0000
,  // measure 67
1000
0000
0000
0010
0000
0000
1000
0000
0001
0000
0000
0000
0010
0000
0000
0000
,  // measure 68
0001
0000
0000
0001
0000
0000
0100
0000
1000
0000
0000
1000
0000
0000
0100
0000
,  // measure 69
0001
0000
0010
0000
0001
0000
0010
0000
0100
0000
0100
0000
1000
0100
1000
0100
,  // measure 70
1000
0000
0000
0010
0000
0000
0001
0000
1000
0000
0001
0000
0010
0000
1000
0000
,  // measure 71
0001
0000
0000
0010
0000
0000
1000
0000
0001
0000
1000
0000
0010
0000
0001
0000
,  // measure 72
1000
0000
0010
0000
0100
0000
0101
0000
0000
0000
0001
0000
1000
0000
0100
0020
,  // measure 73
0000
1000
0000
0100
0000
0031
0010
0001
,  // measure 74
1000
0100
0010
0100
1000
0001
0010
0001
,  // measure 75
1000
0010
1000
0000
0000
0000
0001
0000
1000
0100
1000
0000
0001
0000
0000
0000
,  // measure 76
0100
0000
0001
0000
1000
0000
0010
0000
1000
0000
0001
1000
0000
0001
1000
0000
,  // measure 77
0001
0010
0100
0000
1000
0000
1100
0000
0000
0000
0011
0000
0000
0000
0000
0000
,  // measure 78
0001
0010
0100
0010
0001
1000
0100
1000
,  // measure 79
0001
0100
0001
0000
0000
0000
1000
0000
0001
0010
0001
0000
1000
0000
0000
0000
,  // measure 80
0010
1000
0001
0101
0000
1001
0000
2020
,  // measure 81
0000
0000
0000
0000
0000
0000
0000
3030
,  // measure 82
0010
1001
0100
2002
0000
0000
0000
0000
,  // measure 83
3003
0000
0000
0000
;
