#TITLE:My Słowianie - We Are Slavic;
#SUBTITLE:;
#ARTIST:Donatan & Cleo;
#TITLETRANSLIT:My Slowianie - We Are Slavic;
#SUBTITLETRANSLIT:;
#ARTISTTRANSLIT:;
#GENRE:BOOBS UP MY ASS AND OUT;
#CREDIT:Telperion assisted by Daffa212162;
#BANNER:[Round C] - My Slowianie - We Are Slavic.png;
#BACKGROUND:[Round C] - My Slowianie - We Are Slavic-bg.png;
#LYRICSPATH:;
#CDTITLE:;
#MUSIC:[Round C] - My Slowianie - We Are Slavic.ogg;
#OFFSET:-1.758000;
#SAMPLESTART:88.978996;
#SAMPLELENGTH:12.287999;
#SELECTABLE:YES;
#BPMS:0.000000=156.000000
;
#STOPS:
;
#BGCHANGES:;
#KEYSOUNDS:;
#ATTACKS:;

//---------------dance-single - Telperion----------------
#NOTES:
     dance-single:
     Telperion:
     Hard:
     8:
     0.450614,0.502766,0.368268,0.400291,0.008006,394.000000,348.000000,46.000000,50.000000,0.000000,1.000000,0.450614,0.502766,0.368268,0.400291,0.008006,394.000000,348.000000,46.000000,50.000000,0.000000,1.000000:
// measure 0
1001
0000
0000
0000
,  // measure 1
0000
0000
0000
0000
0000
0000
1000
0001
,  // measure 2
1000
0000
0000
0000
,  // measure 3
0000
0000
0020
0130
,  // measure 4
1001
0000
0000
0000
,  // measure 5
0000
0000
0000
0000
0000
0000
0001
1000
,  // measure 6
0001
0000
0000
0000
,  // measure 7
0020
0000
0100
0031
,  // measure 8
1001
0000
0000
1000
1010
0000
0100
0000
,  // measure 9
0001
0000
1001
0000
0101
0000
0100
0010
,  // measure 10
1000
0000
0000
0001
0011
0000
0100
0000
,  // measure 11
1000
0100
1000
0000
1100
0000
0001
0000
,  // measure 12
1000
0010
0000
0010
0100
0000
0000
0001
,  // measure 13
1000
0011
2100
3000
,  // measure 14
0001
0010
0000
0010
0100
0000
0000
1000
,  // measure 15
0001
1000
0010
0000
0102
0000
0003
0000
,  // measure 16
1000
0010
1000
0001
1000
0010
0100
0000
,  // measure 17
0001
1000
0001
0100
0020
0000
1030
0000
,  // measure 18
0001
0010
0001
1000
0001
0010
0100
1000
,  // measure 19
0001
1000
0100
0010
0002
0000
1003
0000
,  // measure 20
0010
1000
0000
0010
0100
0000
0000
0100
,  // measure 21
0001
1001
1200
0300
,  // measure 22
0010
0001
0000
0010
0100
0000
0000
0100
,  // measure 23
1000
0001
0101
0000
0220
0000
0330
0000
,  // measure 24
2000
0000
0100
3001
0000
0000
1001
0000
,  // measure 25
0002
0000
0100
1003
0000
0000
1001
0000
,  // measure 26
2000
0000
0100
3001
0000
0000
0011
0000
,  // measure 27
0002
1000
0023
0000
,  // measure 28
0230
0000
0010
1300
0000
0000
1001
0000
,  // measure 29
2000
0000
0010
3001
0000
0000
0101
0000
,  // measure 30
0200
0000
0301
1000
0200
0000
1300
0001
,  // measure 31
0200
0000
0001
0310
0000
0000
0110
0000
,  // measure 32
1000
0000
0001
1000
0100
0000
0001
0000
,  // measure 33
1000
0001
0100
1000
0002
0000
1000
0000
,  // measure 34
0103
0000
1000
0001
0100
0010
0001
1000
,  // measure 35
0100
0010
2000
0000
0001
0000
3100
0010
,  // measure 36
0001
0000
0010
0100
0001
0000
1000
0010
,  // measure 37
0001
0000
1000
0010
0001
0000
0010
0000
,  // measure 38
0100
0000
0001
1000
0001
0000
0010
0000
,  // measure 39
0200
0300
0200
0300
,  // measure 40
1001
0000
1000
1000
0010
0000
0110
0000
,  // measure 41
0102
0000
0000
0000
1003
0000
0100
0010
,  // measure 42
0011
0000
1000
0200
0001
0000
0010
0000
,  // measure 43
1300
0000
0001
0100
1000
0100
0010
0100
,  // measure 44
0101
0000
0001
0001
1000
0001
0010
0100
,  // measure 45
2000
0000
0001
3000
1000
1000
0001
1000
,  // measure 46
1010
0010
0100
0000
1000
0000
0100
0001
,  // measure 47
0020
0000
0100
0000
0001
0000
0130
1000
,  // measure 48
1001
0000
1020
0001
,  // measure 49
0200
0000
0000
0000
0330
0000
0001
1000
,  // measure 50
1100
0100
0010
0000
1000
0020
0001
0000
,  // measure 51
0200
0000
0000
0000
0330
0001
1000
0001
,  // measure 52
0100
0010
0100
0000
1000
0100
0002
0000
,  // measure 53
1000
0000
0010
0000
1003
0001
0010
0100
,  // measure 54
0001
0100
0010
0001
2000
0000
0001
0000
,  // measure 55
0010
3001
0001
0010
,  // measure 56
0020
0000
0030
0100
,  // measure 57
1001
0000
1000
1000
0010
1000
0001
0000
,  // measure 58
0011
0000
0001
0000
1000
0001
0100
0001
,  // measure 59
4000
0400
0000
0000
0000
0000
0000
0300
3000
0000
0000
0000
0001
0000
0001
0000
,  // measure 60
1000
0000
0100
1000
0002
0000
0103
0000
,  // measure 61
1000
0001
0000
0001
0100
0000
0101
0000
,  // measure 62
1000
0001
0100
0000
0220
0000
0330
0000
,  // measure 63
0001
1000
0000
1000
0100
0000
0000
0000
,  // measure 64
0011
1100
0220
0330
,  // measure 65
1001
0000
0001
0001
0010
0001
1000
0000
,  // measure 66
1010
0000
1000
0000
0001
1000
0100
1000
,  // measure 67
0004
0400
0000
0000
0000
0000
0000
0300
0003
0000
0000
0000
1000
0000
1000
0000
,  // measure 68
0001
0000
0100
0001
2000
0000
3100
0000
,  // measure 69
0001
1000
0000
1000
0010
0000
1010
0000
,  // measure 70
0001
1000
0010
0000
0220
0000
0330
0000
,  // measure 71
1000
0001
0000
0001
0010
0000
0000
0000
,  // measure 72
1100
0101
0220
0330
,  // measure 73
0002
0000
0010
1003
0000
0000
1000
0000
,  // measure 74
2000
0000
3001
0010
0001
0000
0100
0001
,  // measure 75
2000
0000
0010
3001
0000
0000
0002
0000
,  // measure 76
0103
0000
0001
0100
0001
0010
0100
0000
,  // measure 77
2200
0000
0000
0000
,  // measure 78
0000
0000
3311
0000
;

//---------------dance-single - Telperion----------------
#NOTES:
     dance-single:
     Telperion:
     Medium:
     6:
     0.332814,0.377075,0.144105,0.352256,0.008006,291.000000,273.000000,18.000000,44.000000,0.000000,1.000000,0.332814,0.377075,0.144105,0.352256,0.008006,291.000000,273.000000,18.000000,44.000000,0.000000,1.000000:
1001
0000
0000
0000
,
0000
0000
0000
0000
0000
0000
1000
0001
,
1000
0000
0000
0000
,
0000
0000
0000
0100
,
1001
0000
0000
0000
,
0000
0000
0000
0000
0000
0000
0001
1000
,
0001
0000
0000
0000
,
0020
0000
0000
0030
,
1000
0000
0000
1000
0001
0000
1000
0000
,
0001
0100
0101
0000
,
0001
0000
0000
1000
0000
1000
0001
0000
,
1000
0100
1100
0000
,
0001
0000
0000
0000
0010
0100
0000
0100
,
1000
0010
2020
3030
,
1000
0000
0000
0000
0010
0100
0000
0100
,
0001
0010
0022
0033
,
1000
0000
0000
1000
0010
0000
1000
0000
,
0001
0010
0011
0000
,
0001
0000
0000
1000
0000
1000
0001
0000
,
1000
0010
1010
0000
,
0001
0000
0000
0000
0100
0010
0000
0010
,
1000
0100
2200
3300
,
1000
0000
0000
0000
0100
0010
0000
0010
,
0001
1000
0001
0000
0202
0000
0303
0000
,
2000
0000
0000
0010
0000
0000
3010
0000
,
0002
0000
0000
0010
0000
0000
0013
0000
,
2000
0000
0000
0100
0000
0000
3100
0000
,
0002
0000
0000
0100
0003
0000
0001
1000
,
0200
0000
0000
0010
0000
0000
1300
0000
,
0002
0000
0000
1000
0000
0000
0103
0000
,
0200
0000
0300
0100
0020
0000
0030
0010
,
2000
0000
0000
0100
0000
0000
3001
0000
,
0000
0000
1000
0100
0010
0000
0001
0000
,
0001
1000
0020
0030
,
0000
0000
0001
0100
0010
0000
1000
0000
,
0001
0020
0000
0130
,
0000
0000
1000
0100
0010
0000
0001
0000
,
1000
0010
0200
0000
,
0300
0000
0001
0100
0010
0000
1000
0000
,
2002
0000
3003
0000
,
0011
0000
0000
0001
1000
0000
0010
0000
,
0200
0000
0001
0000
0310
0000
0001
1000
,
0010
0000
0000
1000
0001
0000
0010
0000
,
0200
1000
0310
0001
,
0011
0000
0000
0001
1000
0000
0010
0000
,
0001
0000
0010
0000
1000
0000
0001
1000
,
0010
1000
0001
0000
0010
0000
0100
0000
,
2000
0000
0000
0000
0001
0000
3100
1000
,
0002
0000
0100
0100
,
0203
0000
0000
0000
0300
0000
0010
1000
,
0001
1000
0001
0000
0010
0001
0010
0000
,
0200
0000
0300
1000
,
2001
0000
3020
0000
,
0230
0000
0000
0000
0301
0100
0001
0100
,
0002
0000
0023
0000
,
0230
0000
1300
0001
,
1002
0000
0003
0100
,
0110
1000
0001
0100
,
1000
0100
0010
0100
0001
0000
1000
0000
,
0400
4000
0000
0000
0000
0000
0000
3000
0300
0000
0000
0000
1000
0000
0000
0000
,
0001
0000
0010
0100
1000
0000
0001
0000
,
1000
1000
0000
0010
0010
0000
1000
0000
,
0100
1000
0100
0000
0020
0000
0030
0000
,
0001
0001
0000
0010
0010
0000
0000
0000
,
0020
1000
0031
0010
,
0110
0001
1000
0100
,
0001
0100
0010
0100
1000
0000
0001
0000
,
0400
0004
0000
0000
0000
0000
0000
0003
0300
0000
0000
0000
0001
0000
0000
0000
,
1000
0000
0010
0100
0001
0000
1000
0000
,
0001
0001
0000
0010
0010
0000
0001
0000
,
0100
0001
0100
0000
0020
0000
0030
0000
,
1000
1000
0000
0010
0010
0000
0000
0000
,
0200
1000
0301
0100
,
0010
0000
1000
0001
0000
0000
1000
0000
,
0020
0000
1000
0000
0130
0010
1000
0001
,
0010
0000
0001
1000
0000
0000
0002
0000
,
0013
0000
0000
1000
0100
0010
0001
0000
,
2002
0000
0000
0000
,
0000
0000
3013
0000
;

//---------------dance-single - Telperion----------------
#NOTES:
     dance-single:
     Telperion:
     Easy:
     3:
     0.258474,0.282806,0.200146,0.056041,0.000000,226.000000,201.000000,25.000000,7.000000,0.000000,0.000000,0.258474,0.282806,0.200146,0.056041,0.000000,226.000000,201.000000,25.000000,7.000000,0.000000,0.000000:
1001
0000
0000
0000
,
0000
0000
0000
0100
,
0100
0000
0000
0000
,
0000
0000
0000
0000
,
1001
0000
0000
0000
,
0000
0000
0000
0100
,
0100
0000
0000
0000
,
0020
0000
0000
0030
,
1000
0000
0000
1000
0001
0000
0000
0000
,
1000
0001
1001
0000
,
0001
0000
0000
0001
1000
0000
0000
0000
,
0001
1000
1001
0000
,
0100
0000
0100
0000
,
0010
0100
0110
0000
,
0100
0000
0100
0000
,
0010
0100
0110
0000
,
0001
0000
0000
0001
1000
0000
0000
0000
,
0001
1000
1001
0000
,
1000
0000
0000
1000
0001
0000
0000
0000
,
1000
0001
1001
0000
,
0100
0000
0100
0000
,
0010
0100
0110
0000
,
0100
0000
0100
0000
,
0010
0100
0110
0000
,
0000
0001
0000
0010
,
0000
0001
0000
0010
,
0000
0100
0000
1000
,
0001
0010
0100
1000
,
0000
0010
0000
1000
,
0000
0010
0000
1000
,
0000
0001
0000
0100
,
0001
1000
0100
0010
,
0000
0001
0010
0001
,
0000
1000
0010
1000
,
0000
0001
0100
0001
,
1000
0100
0010
0001
,
0000
1000
0010
1000
,
0000
0001
0010
0001
,
0000
1000
0010
0100
,
0001
0000
0001
0000
,
1100
0000
0001
1000
,
0100
0000
1000
0001
,
0101
0000
1000
0010
,
0100
0000
0001
1000
,
1010
0000
1000
0001
,
0010
0000
0100
0010
,
0011
0000
1000
0010
,
0100
0000
0001
1000
,
0200
0000
0010
0010
,
0320
0000
0030
0001
,
1002
0000
0100
0100
,
0203
0000
0300
0010
,
1010
0000
0010
0100
,
0001
0000
1000
0100
,
0010
0100
1000
0000
,
0001
0000
0100
0010
,
0020
0000
0030
0000
,
1000
0000
0000
1000
0001
0000
0000
0000
,
1000
0001
1001
0000
,
0001
0000
0000
0001
1000
0000
0000
0000
,
0001
1000
1001
0000
,
0010
0000
0010
0000
,
0100
0010
0110
0000
,
0010
0000
0010
0000
,
0100
0010
0110
0000
,
0001
0000
0000
0001
1000
0000
0000
0000
,
0001
1000
1001
0000
,
1000
0000
0000
1000
0001
0000
0000
0000
,
1000
0001
1001
0000
,
0010
0000
0010
0000
,
0100
0010
0110
0000
,
0010
0000
0010
0000
,
0100
0010
0110
0000
,
1000
0000
0001
0001
0000
0000
0001
0000
,
0000
0100
0000
0100
,
0001
0000
1000
1000
0000
0000
1000
0000
,
0000
0100
0010
0100
,
2001
0000
0000
0000
,
0000
0000
3100
0000
;

//---------------dance-single - Telperion----------------
#NOTES:
     dance-single:
     Telperion:
     Beginner:
     1:
     0.082346,0.157114,0.040029,0.000000,0.000000,72.000000,67.000000,5.000000,0.000000,0.000000,0.000000,0.082346,0.157114,0.040029,0.000000,0.000000,72.000000,67.000000,5.000000,0.000000,0.000000,0.000000:
1001
0000
0000
0000
,
0000
0000
0000
0000
,
0100
0000
0000
0000
,
0000
0000
0000
0000
,
1001
0000
0000
0000
,
0000
0000
0000
0000
,
0100
0000
0000
0000
,
0010
0000
0000
0000
,
1000
0000
0000
0000
,
0001
0000
0000
0000
,
0010
0000
0000
0000
,
1000
0000
0000
0000
,
0001
0000
0000
0000
,
1000
1000
1000
0000
,
0001
0000
0000
0000
,
1000
1000
1000
0000
,
0001
0000
0000
0000
,
0010
0000
0000
0000
,
1000
0000
0000
0000
,
0001
0000
0000
0000
,
0100
0000
0000
0000
,
0010
0010
0010
0000
,
0100
0000
0000
0000
,
0010
0010
0010
0000
,
0001
0000
0000
0000
,
1000
0000
0000
0000
,
1000
0000
0000
0000
,
0001
0000
0000
0000
,
0001
0000
0000
0000
,
1000
0000
0000
0000
,
1000
0000
0000
0000
,
0100
0000
0000
0000
,
1000
0000
0000
0000
,
0001
0000
0000
0000
,
0001
0000
0000
0000
,
1000
0000
0000
0000
,
1000
0000
0000
0000
,
0001
0000
0000
0000
,
0001
0000
0000
0000
,
0100
0000
0000
0000
,
0010
0000
0000
0000
,
0000
0000
0000
0000
,
0010
0000
0000
0000
,
0000
0000
0000
0000
,
0010
0000
0000
0000
,
0000
0000
0000
0000
,
0010
0000
0000
0000
,
0000
0000
0000
0000
,
0100
0000
0000
0000
,
0000
0000
0000
0000
,
0100
0000
0000
0000
,
0000
0000
0000
0000
,
0001
0000
0000
0000
,
0000
0000
0000
0000
,
1000
0000
0000
0000
,
0001
0000
0000
0000
,
0010
0000
0000
0000
,
1001
0000
0000
0000
,
0000
0000
0000
0000
,
0004
0000
0000
0000
,
0003
0000
0000
0000
,
0100
0000
0000
0000
,
0000
0000
0000
0000
,
1000
0000
0000
0000
,
0000
0000
0000
0000
,
1001
0000
0000
0000
,
0000
0000
0000
0000
,
4000
0000
0000
0000
,
3000
0000
0000
0000
,
0100
0000
0000
0000
,
0000
0000
0000
0000
,
0001
0000
0000
0000
,
0000
0000
0000
0000
,
0100
0000
0000
0000
,
0000
0000
0000
0000
,
0100
0000
0000
0000
,
0000
0000
0000
0000
,
1001
0000
0000
0000
,
0000
0000
0010
0000
;
