#TITLE:HAI HAI HAI;
#SUBTITLE:;
#ARTIST:CAPTAIN JACK;
#TITLETRANSLIT:;
#SUBTITLETRANSLIT:;
#ARTISTTRANSLIT:;
#CREDIT:;
#BANNER:HAI HAI HAI.png;
#BACKGROUND:HAI HAI HAI-bg.png;
#LYRICSPATH:;
#CDTITLE:;
#MUSIC:haihaihai.ogg;
#OFFSET:-0.884;
#SAMPLESTART:72.375;
#SAMPLELENGTH:27.234;
#SELECTABLE:YES;
#BPMS:0.000=141.000;
#STOPS:;
#BGCHANGES:;

//---------------dance-single - ----------------
#NOTES:
     dance-single:
     :
     Hard:
     8:
     0.626,0.574,0.182,0.087,0.372:
0000
0000
0000
0000
,
0000
0000
0000
0000
,
0000
0000
0000
0000
,
0000
0000
0000
0000
,
0000
0000
0000
0000
,
1001
0110
1001
0110
,
1000
0100
1000
0000
0001
0000
0000
0000
0001
0100
0001
0000
1000
0000
0010
0000
,
1010
0101
0011
1100
,
1000
0010
1000
0000
0001
0000
0000
0000
0001
0010
0001
0000
1000
0000
0001
0000
,
1000
0000
0000
1000
0010
0000
0100
0000
0001
0100
0001
0000
1000
0000
0100
0000
,
0010
0001
0010
0000
0001
0000
0100
0000
0010
1000
0010
0000
0100
0000
0001
0000
,
0010
0000
0000
0010
0100
0000
1000
0000
0010
0100
0010
0000
1000
0000
0001
0000
,
1000
0100
1000
0000
0001
0000
0010
0000
0001
0010
0001
0000
1000
0000
0001
0000
,
0100
0000
0000
0100
0010
0000
1000
0000
0100
0010
0001
0000
0100
0000
0010
0000
,
1000
0001
0010
0000
0001
0000
1000
0000
0010
0100
0001
0000
1000
0000
0100
0000
,
0010
0000
0000
0010
0001
0000
0100
0000
0010
1000
0001
0000
0100
0000
0010
0000
,
1000
0010
0100
0000
0001
0000
0010
0000
0100
1000
0001
0000
0100
0000
0010
0000
,
1000
0100
0000
1000
0100
0000
0010
0000
0001
0000
0000
0000
0001
0000
0100
0000
,
1000
0000
0100
0000
0001
0000
0100
0000
0010
0100
0001
0000
1001
0000
0000
0000
,
1000
0100
0000
1000
0100
0000
0010
0000
0001
0000
0000
0000
0100
0000
0010
0000
,
1000
0100
1000
0000
0001
0000
0100
0000
0001
0100
0001
0000
1000
0000
0100
0000
,
0010
0001
0000
0010
0001
0000
0100
0000
0010
0000
0000
0000
0010
0000
1000
0000
,
0100
0000
0001
0000
0100
0000
1000
0000
0010
0100
0001
0000
1001
0000
0000
0000
,
1000
0010
0000
1000
0010
0000
0100
0000
0001
0000
0000
0000
0010
0000
0100
0000
,
1000
0010
1000
0010
0001
0010
0100
0000
,
0110
0110
0001
0000
0001
0000
0200
0000
,
0310
0000
0000
0010
1000
0000
0100
0000
0010
0000
0000
0010
0001
0000
0100
0000
,
0010
0000
0000
0010
1000
0000
0100
0000
0010
0000
0000
0010
0001
0000
0100
0000
,
0010
0000
0000
0010
0100
0000
0001
0000
0010
0000
0000
0010
0100
0000
1000
0000
,
0010
0000
0000
0010
0100
0000
0001
0000
0010
0000
0000
0010
0100
0000
1000
0000
,
0001
0000
0000
0001
0100
0000
0010
0000
1000
0000
0000
1000
0100
0000
0010
0000
,
0001
0000
0000
0001
0100
0000
0010
0000
1000
0000
0000
1000
0100
0000
0010
0000
,
0001
0000
0000
0001
0010
0000
0100
0000
1000
0000
0000
1000
0010
0000
0100
0000
,
0001
0000
0000
0001
0010
0000
0100
0000
1000
0000
0000
1000
0010
0000
0100
0000
,
0001
0000
0000
0001
0100
0000
0000
0100
0010
0000
0000
0010
1000
0000
0000
0000
,
1000
0001
1000
0100
0010
0001
1000
0001
,
0100
0000
0000
0100
0010
0000
0000
0010
1000
0000
0000
1000
0001
0000
0000
0000
,
0001
0000
0100
0000
0001
0000
0010
0000
0100
0000
0000
0100
1000
0000
0001
0000
,
1001
0000
0000
0001
0010
0000
0000
0010
1000
0000
0000
1000
0010
0000
0000
0000
,
0001
0100
1000
0001
1000
0100
0001
1000
,
0002
0000
0000
1003
0100
0000
0000
0000
0020
0000
0000
0031
0100
0000
0000
0000
,
2000
0000
0000
0000
3200
0000
0000
0000
0302
0000
0000
0010
0000
0000
0100
0000
,
1003
0010
0000
0010
0100
0000
0001
0000
1000
0000
0000
0000
0001
0000
0010
0000
,
0001
0000
0100
0000
1000
0000
0100
0000
0010
1000
0001
0000
1001
0000
0000
0000
,
1000
0100
0000
0100
0010
0000
0001
0000
1000
0000
0000
0000
0001
0000
0100
0000
,
0010
1000
0001
0000
1000
0000
0001
0000
0010
0100
1000
0000
0001
0000
0100
0000
,
0010
1000
0000
1000
0001
0000
0100
0000
0010
0000
0000
0000
0010
0000
1000
0000
,
0100
0000
0001
0000
0100
0000
1000
0000
0010
0100
0001
0000
1001
0000
0000
0000
,
0001
0100
0000
0100
0010
0000
1000
0000
0001
0000
0000
0000
0001
0000
0010
0000
,
0100
1000
0001
0000
1000
0000
0001
0000
0010
0100
1000
0000
0100
0000
0010
0000
,
0011
0000
0000
0010
0100
0000
0001
0000
0100
0000
0010
0000
0001
0000
0100
0000
,
0010
1000
0100
1000
0010
0100
0001
0010
,
0011
0001
0100
0000
0010
1000
0001
1000
,
0100
0001
1000
0001
0100
1000
0100
0010
,
0001
0000
0000
0001
0100
0000
1000
0000
0100
0000
0001
0000
0010
0000
0001
0000
,
0100
0000
1000
0000
0100
0000
0001
0000
0010
0100
1000
0000
0010
0000
1000
0000
,
1010
1000
0100
0000
0010
0001
0100
0001
,
0010
1000
0001
1000
0010
0001
1000
0000
,
1000
0100
0000
0010
0100
0000
1000
0000
0001
0000
0000
0000
1000
0000
0100
0000
,
0010
0000
0001
0000
1000
0000
0001
0000
0100
0010
0100
0000
0110
0000
0000
0000
,
0010
0100
0000
1000
0100
0000
0001
0000
1000
0000
0000
0000
1000
0000
0001
0000
,
0100
0010
1000
0000
0100
0000
0010
0000
0001
0100
0010
0000
1000
0000
0100
0000
,
0120
0000
1000
0000
0031
0000
0000
0001
,
0010
0000
0001
0000
0100
0000
0010
1000
0000
0000
0000
0000
0100
0000
0000
0000
,
1200
0000
0001
0000
1300
0000
0000
0001
,
0100
2000
3000
1000
0100
0002
0000
0000
,
0000
0003
0000
0000
;

//---------------dance-single - ----------------
#NOTES:
     dance-single:
     :
     Medium:
     6:
     0.516,0.540,0.528,0.069,0.043:
0000
0000
0000
0000
,
0000
0000
0000
0000
,
0000
0000
0000
0000
,
0000
0000
0000
0000
,
0000
0000
0000
0000
,
1100
1001
0011
1001
,
0001
0100
0001
0000
1000
0010
1000
0001
,
0011
1001
1010
1001
,
0001
0100
0001
0000
1000
0100
1000
0001
,
1000
0001
0100
0000
0100
0001
1000
0000
,
0001
1000
0100
0000
0010
0100
0010
0000
,
0001
0010
0100
0000
0100
0010
0001
0000
,
0001
0100
1000
0000
1000
0100
0010
1000
,
0001
0100
0010
0000
0010
0100
0001
0000
,
1000
0100
0010
0000
0001
1000
0001
0000
,
0100
0010
1000
0000
0010
0100
0001
0000
,
1000
0100
1000
0000
0001
1000
0001
0100
,
0010
0000
0110
0000
1010
0000
0000
1000
,
0100
0000
0001
0000
0100
0000
0010
0001
0000
0000
0000
0000
1000
0000
0000
0000
,
1100
0000
1001
0000
0011
0000
0010
0001
,
0101
1000
0000
1000
1100
0001
0000
0000
,
0101
0000
1001
0000
1010
0000
0000
0010
,
1000
0000
0100
0000
0001
0000
0100
0010
0000
0000
0000
0000
0001
0000
0000
0000
,
0011
0000
0101
0000
1001
0000
1000
0001
,
0011
1000
0000
1000
1010
0001
0000
0000
,
1001
1001
0100
0000
0100
0000
0200
0000
,
1300
0000
0010
0000
0001
0000
0100
1000
,
0001
0100
0100
0020
,
1030
0000
0100
0000
0001
0000
0010
1000
,
0001
0010
0100
2000
,
3010
0000
0001
0000
0100
0000
1000
0010
,
0001
0010
0010
2000
,
3100
0000
0001
0010
1000
0000
1000
0100
,
0010
0001
0100
0010
,
1010
0000
0001
0000
0011
0000
0001
0010
,
0100
1000
0100
1000
0010
0100
0010
0100
,
0101
0000
0001
0000
0011
0000
0100
1000
,
0010
0100
0010
0100
0001
0010
0001
0010
,
0011
0000
0100
0000
1010
0000
0100
0001
,
0010
0100
0010
0100
1000
0010
1000
0010
,
0120
0031
0120
1030
,
1002
0000
0000
0000
0103
0000
0000
0000
2001
0000
0000
3010
0000
0000
1000
0000
,
1100
0000
0110
0000
0011
0000
0000
0010
,
0001
0000
0100
0000
1000
0000
0100
0010
0000
0000
0000
0000
1000
0000
0000
0000
,
1100
0000
1001
0000
0011
0000
0010
0001
,
0101
0100
0000
0100
0101
0001
0000
0000
,
0101
0000
0110
0000
1010
0000
0000
0010
,
1000
0000
0100
0000
0001
0000
0100
0010
0000
0000
0000
0000
0001
0000
0000
0000
,
0101
0000
1001
0000
1010
0000
0010
1000
,
1100
0100
0000
0100
1100
1000
0001
0000
,
0011
0000
0000
0001
0100
0000
0100
0000
0010
0000
1000
0000
0100
0000
1000
0000
,
0010
0100
0010
0100
0001
1000
0001
1000
,
0010
0100
0001
1000
0000
1000
0100
1000
,
0001
0100
0001
0100
1000
0100
0001
1000
,
1100
0000
0000
1000
0100
0000
0100
0000
0001
0000
0100
0000
1000
0000
0100
0000
,
0010
0100
0010
0100
1000
0001
1000
0001
,
0010
0100
1000
0001
0000
0001
1000
0001
,
0100
1000
0100
0001
0010
0001
1000
0000
,
1001
0000
1100
0000
0101
0000
0000
0001
,
0100
0000
1000
0000
0100
0000
0010
1000
0000
0000
0000
0000
0001
0000
0000
0000
,
0011
0000
1001
0000
1010
0000
0000
1000
,
1010
0001
0000
0001
0011
1000
0000
0000
,
1000
0000
0000
1000
0100
0000
0010
0000
0001
0000
0000
0000
0000
0000
0001
0000
,
0010
0001
0100
0010
1000
0001
1000
0001
,
0010
0000
0000
0010
0100
0000
1000
0000
0001
0000
0000
0000
0000
0000
0001
0000
,
0100
1000
0000
1000
0100
0001
0000
0000
;

//---------------dance-single - ----------------
#NOTES:
     dance-single:
     :
     Easy:
     4:
     0.263,0.284,0.069,0.130,0.000: // measure 1
0000
0000
0000
0000
,  // measure 2
0000
0000
0000
0000
,  // measure 3
0000
0000
0000
0000
,  // measure 4
0000
0000
0000
0000
,  // measure 5
0000
0000
0000
0000
,  // measure 6
1000
1000
1000
1000
,  // measure 7
0001
0000
0010
0000
,  // measure 8
0001
0001
0001
0001
,  // measure 9
1000
0000
0100
0000
,  // measure 10
1000
0100
0010
0100
,  // measure 11
2000
3000
0002
0003
,  // measure 12
0001
0100
0010
0100
,  // measure 13
0002
0003
2000
3000
,  // measure 14
1000
0010
0100
0010
,  // measure 15
2000
3000
0002
0003
,  // measure 16
0001
0010
0100
0010
,  // measure 17
0002
0003
2000
3000
,  // measure 18
0001
0100
0010
0000
,  // measure 19
1000
1000
0100
0000
,  // measure 20
0010
0001
1000
0000
,  // measure 21
1001
0000
0001
0000
,  // measure 22
1000
0100
0010
0000
,  // measure 23
0001
0001
0100
0000
,  // measure 24
0010
1000
0001
0000
,  // measure 25
1001
0000
1000
0000
,  // measure 26
0001
1000
0001
0000
0001
0000
0100
0000
,  // measure 27
0010
1000
0001
1000
,  // measure 28
0010
0010
0100
0001
,  // measure 29
0010
1000
0010
0001
,  // measure 30
2000
3000
1000
0100
,  // measure 31
1000
0010
0100
0001
,  // measure 32
0010
0010
0001
0100
,  // measure 33
1000
0100
0001
0010
,  // measure 34
0200
0300
2000
3000
,  // measure 35
0001
0001
1000
1000
,  // measure 36
0010
0100
0010
0100
,  // measure 37
0001
0001
0010
0010
,  // measure 38
0100
1000
0100
1000
,  // measure 39
0010
0010
0100
0100
,  // measure 40
0001
1000
0001
1000
,  // measure 41
0200
0300
0020
0030
,  // measure 42
2002
3003
0000
1000
,  // measure 43
0100
0010
0001
0000
,  // measure 44
0001
1000
0100
0000
,  // measure 45
0100
1000
0010
0000
,  // measure 46
0100
0000
0100
0000
,  // measure 47
0001
0100
0010
0000
,  // measure 48
1000
0001
1000
0000
,  // measure 49
1000
0100
0010
0000
,  // measure 50
0001
0000
0001
0000
,  // measure 51
0101
0000
0000
0001
,  // measure 52
0100
0100
0010
0010
,  // measure 53
1000
0001
0000
0000
0000
0000
0001
0000
,  // measure 54
0100
0100
0010
0010
,  // measure 55
1010
0000
0000
1000
,  // measure 56
0100
0100
0010
0010
,  // measure 57
0001
1000
0000
0000
0000
0000
1000
0000
,  // measure 58
0010
0010
0100
0100
,  // measure 59
0001
0100
0010
0000
,  // measure 60
0010
1000
0001
0000
,  // measure 61
0100
0001
0010
0000
,  // measure 62
0110
0000
0100
0000
,  // measure 63
0100
1000
0010
0000
,  // measure 64
0010
0100
0001
0000
,  // measure 65
0001
0100
0010
0000
,  // measure 66
1001
0000
1001
0000
;

//---------------dance-double - ----------------
#NOTES:
     dance-double:
     :
     Hard:
     7:
     0.579,0.545,0.286,0.052,0.139:
00000000
00000000
00000000
00000000
,
00000000
00000000
00000000
00000000
,
00000000
00000000
00000000
00000000
,
00000000
00000000
00000000
00000000
,
00000000
00000000
00000000
00000000
,
00011000
01100000
10010000
00011000
,
00010000
00001000
00000100
00000000
00000010
00000100
00000001
00001000
,
00001001
00000110
00011000
01100000
,
10000000
01000000
00100000
00000000
00001000
00010000
00000100
00000010
,
00000001
00000000
00000000
00000001
00000100
00000000
00001000
00000000
00000100
00000000
00000010
00000000
00010000
00000000
00001000
00000000
,
00100000
00010000
00100000
00000000
00010000
00000000
01000000
00000000
00100000
00000000
10000000
00000000
00010000
00000000
01000000
00000000
,
00010000
00000000
00000000
00010000
01000000
00000000
00100000
00000000
10000000
00000000
01000000
00000000
00010000
00000000
00001000
00000000
,
00000010
00000001
00000010
00000000
00000100
00000000
00001000
00000000
00000001
00000000
00000100
00000000
00000010
00000000
00001000
00000000
,
00000001
00000000
00000000
00000001
00000100
00000000
00000010
00000000
00010000
00000000
00001000
00000000
00100000
00000000
00010000
00000000
,
10000000
00100000
10000000
00000000
01000000
00000000
00100000
00000000
00001000
00000000
00010000
00000000
00000010
00000000
00000100
00000000
,
00001000
00000000
00000000
00001000
00000100
00000000
00000010
00000000
00010000
00000000
00001000
00000000
00100000
00000000
00010000
00000000
,
10000000
01000000
10000000
00000000
00100000
00000000
01000000
00000000
00001000
00000000
00010000
00000000
00000100
00000000
00000010
00000000
,
00001001
00000000
00011000
00000000
10010000
00000000
00000000
10000000
,
01000000
00010000
01000000
10000000
00100000
00010000
00001000
00000010
,
00000110
00000000
00000000
00000100
00001000
00000000
00010000
00000000
01000000
00000000
00000000
00000000
00000000
00000000
00100000
00000000
,
10000000
01000000
10000000
01000000
00010000
00001000
00000100
00000001
,
00001001
00000000
00011000
00000000
10010000
00000000
00000000
10000000
,
00100000
00010000
00100000
10000000
01000000
00010000
00001000
00000010
,
00000110
00000000
00000000
00000010
00001000
00000000
00010000
00000000
00100000
00000000
00000000
00000000
00000000
00000000
00100000
00000000
,
00010000
00100000
00010000
00001000
00010000
00001000
00000010
00000001
,
00000101
00001001
00001000
00000000
00000100
00000000
00020000
00000000
,
00031000
00000000
00000000
00001000
01000000
00000000
00100000
00000000
10000000
00000000
00000000
00000000
01000000
00000000
00100000
00000000
,
00001000
00000000
00000000
00001000
00010000
00000000
00000010
00000000
00000100
00000000
00000000
00000000
00000002
00000000
00000000
00000000
,
00000013
00000000
00000000
00000010
00000100
00000000
00010000
00000000
00001000
00000000
00000000
00000000
00010000
00000000
01000000
00000000
,
00100000
00000000
00000000
00100000
00010000
00000000
10000000
00000000
00100000
00000000
00000000
00000000
02000000
00000000
00000000
00000000
,
03010000
00000000
00000000
10000000
01000000
00000000
00100000
00000000
00001000
00000000
00000000
00000000
00001000
00000000
00010000
00000000
,
00000010
00000000
00000000
00000010
00000100
00000000
00000001
00000000
00001000
00000000
00000000
00000000
00000200
00000000
00000000
00000000
,
00000310
00000000
00000000
00000001
00000100
00000000
00000010
00000000
00010000
00000000
00000000
00000000
00001000
00000000
01000000
00000000
,
00010000
00000000
00000000
00010000
10000000
00000000
01000000
00000000
10000000
00000000
00000000
00000000
00100000
00000000
00000000
00000000
,
10000000
01000000
10000000
01000000
00010000
01000000
00010000
00001000
,
00000010
00000001
00000010
00000001
00000100
00000001
00000100
00001000
,
00010000
00100000
00010000
00100000
10000000
00100000
10000000
01000000
,
00010000
00001000
00010000
00001000
00000100
00000010
00000100
00000010
,
00001000
00000100
00001000
00000100
00000010
00000001
00000010
00000001
,
00000100
00001000
00000100
00001000
00010000
01000000
00010000
01000000
,
00010000
00000000
00000000
00010000
00001000
00000000
00000000
00000000
00000010
00000000
00000000
00000010
00001000
00000000
00000000
00000000
,
00010000
00000000
00000000
00000000
01000000
00000000
00000000
00000000
10000000
00000000
00000000
00100000
00000000
00000000
00010000
00000000
,
00011000
00000000
00000110
00000000
00001001
00000000
00000000
00000001
,
00000010
00001000
00000010
00000001
00000100
00001000
00010000
01000000
,
01100000
00000000
00000000
00100000
01000000
00000000
00010000
00000000
00001000
00000000
00000000
00000000
00000010
00000000
00000001
00000000
,
00000100
00000001
00000100
00001000
00000100
00001000
00010000
00001000
,
00011000
00000000
01100000
00000000
10010000
00000000
00000000
10000000
,
01000000
00010000
01000000
10000000
00100000
00010000
00001000
00000010
,
00000110
00000000
00000000
00000100
00000010
00000000
00001000
00000000
00010000
00000000
00000000
00000000
00100000
00000000
10000000
00000000
,
01000000
10000000
01000000
00010000
01000000
00010000
00001000
00010000
,
00011000
00000000
00000000
00010000
00000100
00000000
00000010
00000000
00000001
00000000
00000100
00000000
00001000
00000000
00000100
00000000
,
00000001
00000000
00000010
00000000
00000100
00000000
00010000
00000000
00001000
00010000
00001000
00000000
01000000
00000000
00100000
00000000
,
10000000
00000000
00000000
10000000
01000000
00000000
00010000
00000000
01000000
00000000
10000000
00000000
00100000
00000000
00010000
00000000
,
00001000
00010000
00001000
00000010
00000001
00000100
00001000
00000100
,
00000001
00000000
00000000
00000001
00000010
00000000
00000100
00000000
00010000
00000000
01000000
00000000
10000000
00000000
00100000
00000000
,
10000000
00000000
01000000
00000000
00100000
00000000
00001000
00000000
00010000
00001000
00010000
00000000
00000100
00000000
00000010
00000000
,
00000001
00000000
00000000
00000001
00000100
00000000
00001000
00000000
00000100
00000000
00000010
00000000
00000100
00000000
00001000
00000000
,
00010000
01000000
00010000
01000000
10000000
00100000
00010000
00001000
,
00011000
00000000
00001001
00000000
00000110
00000000
00000000
00000100
,
00000001
00000010
00001000
00010000
01000000
10000000
00100000
01000000
,
01100000
00000000
00000000
01000000
00100000
00000000
10000000
00000000
00010000
00000000
00000000
00000000
00000000
00000000
10000000
00000000
,
01000000
00010000
01000000
00010000
01000000
10000000
00100000
00010000
,
00011000
00000000
00000000
00010000
00000100
00000000
00000010
00000000
00000001
00000000
00000000
00000000
00000000
00000000
00000001
00000000
,
00000010
00001000
00010000
01000000
10000000
00100000
01000000
00010000
,
10010000
00000000
00000000
00010000
01000000
00000000
00010000
00000000
00100000
00000000
00000000
00000000
00000000
00000000
00001000
00000000
,
00010000
02000000
03000000
00010000
00001000
00000200
00000000
00000000
,
00000000
00000300
00000000
00000000
;

//---------------dance-single - Copied from----------------
#NOTES:
     dance-single:
     Copied from:
     Edit:
     8:
     0.627,0.574,0.459,0.087,0.325:
0000
0000
0000
0000
,
0000
0000
0000
0000
,
0000
0000
0000
0000
,
0000
0000
0000
0000
,
0000
0000
0000
0000
,
1001
0110
1001
0110
,
1000
0100
1000
0000
0001
0000
0000
0000
0001
0100
0001
0000
1000
0000
0000
0000
,
1010
0101
0011
1100
,
1000
0010
1000
0000
0001
0000
0000
0000
0001
0010
0001
0000
1000
0000
0001
0000
,
1000
0010
1000
0000
0010
0000
0100
0000
0001
0100
0001
0000
1000
0000
0100
0000
,
0010
0001
0010
0000
0001
0000
0100
0000
0010
1000
0010
0000
0100
0000
0000
0000
,
0001
0100
0001
0000
1000
0000
0100
0000
0010
0001
0010
0000
0100
0000
1000
0000
,
0010
1000
0010
0000
0100
0000
0001
0000
0010
0001
0010
0000
0001
0000
0000
0000
,
1000
0001
0100
0000
0010
0000
1000
0000
0100
0010
0001
0000
0100
0000
0010
0000
,
1000
0001
0010
0000
0001
0000
1000
0000
0010
0100
0001
0000
1000
0000
0000
0000
,
0001
0010
0100
0000
1000
0000
0010
0000
0100
0001
1000
0000
0100
0000
0010
0000
,
0001
0100
0010
0000
1000
0000
0100
0000
0010
0001
1000
0000
0010
0000
0100
0000
,
1001
0000
0110
0000
1001
0000
0001
0100
,
1000
0000
0100
0000
0001
0000
0100
0000
0010
0100
0001
0000
1001
0000
0000
0000
,
1100
0000
0011
0000
0101
0000
0100
0010
,
1000
0100
1000
0000
0001
0000
0100
0000
0001
0100
0001
0000
1000
0000
0100
0000
,
0110
0000
1001
0000
0110
0000
0010
1000
,
0100
0000
0001
0000
0100
0000
1000
0000
0010
0100
0001
0000
1001
0000
0000
0000
,
1010
0000
0101
0000
0011
0000
0010
0100
,
1000
0010
1000
0010
0001
0010
0100
0000
,
0110
0101
0001
0000
0001
0000
0200
0000
,
0310
0000
0000
0010
1000
0000
0100
0000
0010
0000
0000
0010
0001
0000
0100
0000
,
0010
0000
0000
0010
1000
0000
0100
0000
0010
0000
0000
0010
0001
0000
0100
0000
,
0010
0000
0000
0010
0100
0000
0001
0000
0010
0000
0000
0010
0100
0000
1000
0000
,
0010
0000
0000
0010
0100
0000
0001
0000
0010
0000
0000
0010
0100
0000
1000
0000
,
0001
0000
0000
0001
0100
0000
0010
0000
1000
0000
0000
1000
0100
0000
0010
0000
,
0001
0000
0000
0001
0100
0000
0010
0000
1000
0000
0000
1000
0100
0000
0010
0000
,
0001
0000
0000
0001
0010
0000
0100
0000
1000
0000
0000
1000
0010
0000
0100
0000
,
0001
0000
0000
0001
0010
0000
0100
0000
1000
0000
0000
1000
0010
0000
0100
0000
,
0001
0000
0000
0001
0100
0000
0000
0100
0010
0000
0000
0010
1000
0000
0000
0000
,
1001
0000
0000
1000
0100
0000
0000
0100
0010
0000
0000
0010
0001
0000
0000
0000
,
1001
0000
0000
0001
0100
0000
0000
0100
1000
0000
0000
1000
0100
0000
0000
0000
,
0110
0000
0000
0010
1000
0000
0000
1000
0100
0000
0000
0100
1000
0000
0001
0000
,
1001
0000
0000
0001
0010
0000
0000
0010
1000
0000
0000
1000
0010
0000
0000
0010
,
0001
0000
0000
0001
0100
0000
0000
0100
1000
0000
0000
1000
0100
0000
0000
0000
,
0002
0000
0000
1003
0100
0000
0000
0000
0020
0000
0000
0031
0100
0000
0000
0000
,
2000
0000
0000
0000
3200
0000
0000
0000
0302
0000
0000
0010
0000
0000
0100
0000
,
1003
0000
0110
0000
1001
0000
0001
0010
,
0001
0000
0100
0000
1000
0000
0100
0000
0010
1000
0001
0000
1001
0000
0000
0000
,
1100
0000
0011
0000
1001
0000
0001
0100
,
0010
1000
0001
0000
1000
0000
0001
0000
0010
0100
1000
0000
0001
0000
0100
0000
,
0110
0000
1001
0000
0110
0000
0010
1000
,
0100
0000
0001
0000
0100
0000
1000
0000
0010
0100
0001
0000
1001
0000
0000
0000
,
0101
0000
1010
0000
1001
0000
0001
0010
,
0100
1000
0001
0000
1000
0000
0001
0000
0010
0100
1000
0000
0100
0000
0010
0000
,
0011
0000
0000
0010
0100
0000
0001
0000
0100
0000
0010
0000
0001
0000
0100
0000
,
0010
1000
0100
1000
0010
0100
0001
0010
,
0011
0001
0100
0000
0010
1000
0001
1000
,
0100
0001
0100
0001
0100
1000
0100
1000
,
0010
0000
0000
0010
0100
0000
1000
0000
0100
0000
0001
0000
0010
0000
0001
0000
,
0100
0000
1000
0000
0100
0000
0001
0000
0010
0100
1000
0000
0010
0000
1000
0000
,
1010
1000
0100
0000
0010
0001
0100
0001
,
0010
1000
0010
1000
0010
0001
1000
0000
,
1001
0000
0110
0000
1001
0000
1000
0100
,
0010
0000
0001
0000
1000
0000
0001
0000
0100
0010
0100
0000
0110
0000
0000
0000
,
1010
0000
1100
0000
0011
0000
0010
0001
,
0100
0010
1000
0000
0100
0000
0010
0000
0001
0100
0010
0000
1000
0000
0100
0000
,
0120
0000
1000
0000
0031
0000
0000
0001
,
0010
0000
0001
0000
0100
0000
0010
1000
0000
0000
0000
0000
0100
0000
0000
0000
,
1200
0000
0001
0000
1300
0000
0000
0001
,
0100
2000
3000
1000
0100
0002
0000
0000
,
0000
0003
0000
0000
;

//---------------dance-double - ----------------
#NOTES:
     dance-double:
     :
     Medium:
     5:
     0.454,0.516,0.545,0.104,0.004:
00000000
00000000
00000000
00000000
,
00000000
00000000
00000000
00000000
,
00000000
00000000
00000000
00000000
,
00000000
00000000
00000000
00000000
,
00000000
00000000
00000000
00000000
,
00011000
00011000
00011000
00011000
,
00001000
00010000
01000000
00000000
00010000
00001000
00000010
00001000
,
00010000
00011000
00011000
00011000
,
00010000
00001000
00000100
00000000
00001000
00010000
00100000
00010000
,
00001000
00000100
00000001
00000010
,
00001000
00010000
01000000
00000000
10000000
00100000
00010000
00000000
,
00001000
00000100
00000001
00000010
,
00001000
00010000
01000000
00000000
10000000
00100000
00010000
00000000
,
00001000
00000100
00000001
00000010
,
00001000
00010000
01000000
00000000
10000000
00100000
00010000
00000000
,
00001000
00000100
00000001
00000010
,
00001000
00010000
01000000
00000000
10000000
00100000
00010000
00001000
,
00011000
00010100
00000110
00000000
,
00000010
00000001
00000100
00000001
00000010
00000000
00000010
00000000
,
00000110
00000000
00010100
00000000
00011000
00000000
00000000
00001000
,
00010000
01000000
00000000
00010000
01000000
10000000
00000000
00000000
,
11000000
10010000
00110000
00000000
,
00100000
00010000
01000000
00010000
00100000
00000000
00100000
00000000
,
00110000
00000000
00101000
00000000
00011000
00000000
00000000
00010000
,
00000100
00001000
00000000
00000100
00001000
00000001
00000000
00000000
,
00000001
00000001
00000100
00000000
00000100
00000000
00001000
00000000
,
00010000
00100000
10000000
01000000
,
00010000
01000000
10000000
00100000
,
00010000
00001000
00000100
00000001
,
00000010
00000001
00000100
00001000
,
00010000
00100000
10000000
01000000
,
00010000
00001000
00000010
00000001
,
00000100
00001000
00000100
00000001
,
00000010
00001000
00010000
01000000
,
21000000
30010000
01020000
10030000
,
20010000
31000000
20010000
30100000
,
10010000
00011000
00000110
00001001
,
00000012
00001003
00002010
00003001
,
00001001
00000110
00011000
01100000
,
11000000
00110000
00011000
00001100
,
00000012
00000103
00000120
00001030
,
00001200
00000000
00000000
00000000
00010300
00000000
00000000
00000000
00001000
00000000
00000000
01000000
00000000
00000000
00010000
00000000
,
10010000
11000000
10100000
00000000
,
10000000
00100000
00010000
00100000
10000000
00000000
00010000
00000000
,
01010000
00000000
10010000
00000000
10100000
00000000
00000000
10000000
,
00010000
01000000
00000000
00010000
01000000
00001000
00010000
00000100
,
00001100
00000110
00000011
00000000
,
00000001
00000010
00001000
00000010
00000001
00000000
00001000
00000000
,
00001100
00000000
00001001
00000000
00000011
00000000
00000000
00000001
,
00000010
00000100
00000000
00000010
00000100
00010000
00001000
00100000
,
00120000
00000000
10000000
00000000
01030000
00010000
10000000
00010000
,
01000000
00100000
10000000
01000000
,
00100000
00001000
00010000
00000000
00000100
00001000
00000100
00000010
,
00000001
00000000
00000100
00000000
00001000
00000100
00001000
00000000
,
00012000
00000000
00100000
00000000
01003000
00010000
00100000
00010000
,
01000000
00100000
00010000
00001000
,
00000100
00000001
00001000
00000000
00000100
00000010
00000001
00000100
,
00000010
00000000
00000010
00000000
00010000
00001000
00010000
00000000
,
00011000
01100000
10010000
00000000
,
10000000
01000000
00010000
00001000
00000010
00000001
00001000
00000000
,
00001001
00000000
00000110
00000000
00011000
00000000
00000000
00001000
,
01000000
00010000
00000000
00010000
10000000
01000000
00100000
00000000
,
01100000
00011000
00000110
00000000
,
00000001
00000010
00001000
00010000
00100000
10000000
00010000
00000000
,
10000000
00000000
01000000
00000000
00100000
00000000
00000000
00001000
,
00010000
00000100
00000000
00000100
00001000
00000002
00000000
00000000
,
00000000
00000003
00000000
00000000
;

//---------------dance-double - ----------------
#NOTES:
     dance-double:
     :
     Easy:
     3:
     0.210,0.369,0.026,0.035,0.000:
00000000
00000000
00000000
00000000
,
00000000
00000000
00000000
00000000
,
00000000
00000000
00000000
00000000
,
00000000
00000000
00000000
00000000
,
00000000
00000000
00000000
00000000
,
00010000
00010000
00010000
00010000
,
00001000
00000000
00000010
00000000
,
00001000
00001000
00001000
00001000
,
00010000
00000000
01000000
00000000
,
10000000
00000000
01000000
00000000
,
00010000
00000000
00001000
00000000
,
00000010
00000000
00000001
00000000
,
00000100
00000000
00000100
00000000
,
00000001
00000000
00000010
00000000
,
00001000
00000000
00010000
00000000
,
01000000
00000000
10000000
00000000
,
00010000
00000000
00010000
10000000
,
01000000
01000000
01000000
00000000
,
10000000
00010000
01000000
00000000
,
00001000
00001000
00001000
00000000
,
00010000
00000000
00010000
00000000
,
00000100
00000100
00000100
00000000
,
00000010
00000001
00001000
00000000
,
00000001
00000001
00000001
00000000
,
00000100
00000000
00001000
00000000
,
00011000
00010000
00010000
01000000
,
10000000
10000000
00100000
00000000
,
00010000
00000000
00001000
00000000
,
00000100
00000100
00000001
00000000
,
00000010
00000000
00001000
00000000
,
00010000
00010000
01000000
00000000
,
10000000
00000000
00100000
00000000
,
00010000
00010000
00001000
00000000
,
00000100
00000000
00000001
00000000
,
00000010
00000001
00000010
00000000
,
00000100
00001000
00000100
00000000
,
00010000
00001000
00100000
00000000
,
01000000
10000000
01000000
00000000
,
00100000
00010000
00100000
00000000
,
00001000
00010000
00001000
00000000
,
00000020
00000031
00000200
00001300
,
00020000
01030000
20000000
30100000
,
01000000
01000000
01000000
00000000
,
00010000
10000000
01000000
00000000
,
00010000
00010000
00010000
00000000
,
00001000
00000000
00000010
00000000
,
00000100
00000100
00000100
00000000
,
00001000
00000001
00000100
00000000
,
00001000
00001000
00001000
00000000
,
00010000
00000000
01000000
00000000
,
01100000
00000000
00000000
00010000
,
10000000
00000000
00010000
00000000
,
10000000
00010000
00000000
00000000
00000000
00000000
10000000
00000000
,
01000000
00000000
00010000
00000000
,
00011000
00000000
00000000
00010000
,
00001000
00000000
00000010
00000000
,
00000001
00001000
00000000
00000000
00000000
00000000
00000001
00000000
,
00000100
00000000
00001000
00000000
,
00100000
00100000
00100000
00000000
,
01000000
10000000
00100000
00000000
,
00010000
00010000
00010000
00000000
,
00001000
00000000
00000100
00000000
,
00000010
00000010
00000010
00000000
,
00001000
00000001
00000010
00000000
,
00001000
00001000
00001000
00000000
,
00010000
00000000
01000000
00000000
;

//---------------dance-single - ----------------
#NOTES:
     dance-single:
     :
     Beginner:
     1:
     0.158,0.198,0.043,0.000,0.000: // measure 1
0000
0000
0000
0000
,  // measure 2
0000
0000
0000
0000
,  // measure 3
0000
0000
0000
0000
,  // measure 4
0000
0000
0000
0000
,  // measure 5
0000
0000
0000
0000
,  // measure 6
1000
1000
1000
1000
,  // measure 7
1000
0000
0000
0000
,  // measure 8
0001
0001
0001
0001
,  // measure 9
0001
0000
0000
0000
,  // measure 10
1000
0000
1000
0000
,  // measure 11
0001
0000
0001
0000
,  // measure 12
1000
0000
1000
0000
,  // measure 13
0100
0000
0100
0000
,  // measure 14
1000
0000
1000
0000
,  // measure 15
0001
0000
0001
0000
,  // measure 16
1000
0000
1000
0000
,  // measure 17
0100
0000
0100
0000
,  // measure 18
0010
0010
0010
0000
,  // measure 19
0001
0000
1000
0000
,  // measure 20
0001
0001
0001
0000
,  // measure 21
0100
0000
0010
0000
,  // measure 22
1000
1000
1000
0000
,  // measure 23
0001
0000
1000
0000
,  // measure 24
0100
0100
0100
0000
,  // measure 25
0010
0000
0100
0000
,  // measure 26
1001
0000
0000
0000
,  // measure 27
0001
0000
0100
0000
,  // measure 28
1000
0000
0000
0000
,  // measure 29
1000
0000
0100
0000
,  // measure 30
0001
0000
0000
0000
,  // measure 31
0001
0000
0010
0000
,  // measure 32
1000
0000
0000
0000
,  // measure 33
1000
0000
0010
0000
,  // measure 34
0001
0000
0000
0000
,  // measure 35
1000
0000
0100
0000
,  // measure 36
1000
0000
0000
0000
,  // measure 37
0001
0000
0100
0000
,  // measure 38
0001
0000
0000
0000
,  // measure 39
1000
0000
0010
0000
,  // measure 40
1000
0000
0000
0000
,  // measure 41
0001
0000
0010
0000
,  // measure 42
0001
0000
0000
0000
,  // measure 43
1000
1000
1000
0000
,  // measure 44
0100
0000
0010
0000
,  // measure 45
0001
0001
0001
0000
,  // measure 46
0100
0000
0100
0000
,  // measure 47
0010
0010
0010
0000
,  // measure 48
1000
0000
0001
0000
,  // measure 49
0010
0010
0010
0000
,  // measure 50
0100
0000
0100
0000
,  // measure 51
1001
0000
0000
1000
,  // measure 52
1000
0000
0000
0000
,  // measure 53
1001
0000
0000
0001
,  // measure 54
0001
0000
0000
0000
,  // measure 55
0110
0000
0000
0100
,  // measure 56
0100
0000
0000
0000
,  // measure 57
0110
0000
0000
0010
,  // measure 58
0010
0000
0000
0000
,  // measure 59
1000
1000
1000
0000
,  // measure 60
0100
0000
0010
0000
,  // measure 61
0001
0001
0001
0000
,  // measure 62
0010
0000
0100
0000
,  // measure 63
1000
1000
1000
0000
,  // measure 64
0010
0000
0100
0000
,  // measure 65
0001
0001
0001
0000
,  // measure 66
0100
0000
0010
0000
;
